Subcategories

Toshiyuki Honda & Burning Waves - Spanish Tears (1980) {Japan Electric Bird The Best 1000 Series KICJ-2407 rel 2014}

Posted By: ruskaval
Toshiyuki Honda & Burning Waves - Spanish Tears (1980) {Japan Electric Bird The Best 1000 Series KICJ-2407 rel 2014}

Toshiyuki Honda & Burning Waves - Spanish Tears (1980) {Japan Electric Bird The Best 1000 Series KICJ-2407 rel 2014}
EAC rip (secure mode) | FLAC (tracks)+CUE+LOG -> 261 Mb | MP3 @320 -> 101 Mb
Full Artwork @ 300 dpi (png) -> 12 Mb | 5% repair rar | 24-bit remastering
© 1980, 2014 Electric Bird / King Record Japan | KICJ-2407
Jazz / Jazz Funk / Fusion / Soul Jazz / Saxophone

Reissue with the latest 24-bit remastering. Features original cover artwork. Comes with a descripton in Japanese. A Tokyo native born in 1957, Toshiyuki Honda is a professional saxophonist, composer, arranger, and producer.

In 1978 he released his first album as a leader, "Burnin' Wave," while still a university student. As one of Japan's best-known saxophonists, Honda has since recorded with a host of world-celebrated musicians including Chick Corea, Freddie Hubbard, and Christopher Cross among others.

Honda is also widely known for his versatile skills as a composer and arranger of scores for TV dramas, commercials, movies, and classical music genres.

Personnel:
Toshiyuki Honda - alto saxophone, soprano saxophone, flute
Burning Waves:
Soichi Noriki - electric piano, acoustic piano, Prophet 5
Tetsuya Inoue - electric bass
Shigeo Hirayama - drums
Tetsuaki Hoashi - percussion
Guest artists:
Freddie Hubbard - trumpet (#7)
Katsutoshi Morizono - electric guitar (#3,4,6,7)
Shingo Okudaira - drums (#2,7)
Chikara Ueda - horn & strings arrangement, conductor

tracklist:
01 - I Never Forget (Sir Charles Christopher Parker)
02 - Eastern Legacy
03 - Dearly
04 - Shakin' Funk
05 - Spanish Tears
06 - Regae Spice
07 - Shuffle Castle
08 - Ode to Autumn

Exact Audio Copy V1.0 beta 3 from 29. August 2011

EAC extraction logfile from 15. January 2004, 1:19

Toshiyuki Honda / Spanish Tears

Used drive : TEAC DVD+RW DV-W58E Adapter: 1 ID: 0

Read mode : Secure
Utilize accurate stream : Yes
Defeat audio cache : Yes
Make use of C2 pointers : No

Read offset correction : 686
Overread into Lead-In and Lead-Out : No
Fill up missing offset samples with silence : Yes
Delete leading and trailing silent blocks : No
Null samples used in CRC calculations : Yes
Used interface : Native Win32 interface for Win NT & 2000
Gap handling : Appended to previous track

Used output format : User Defined Encoder
Selected bitrate : 768 kBit/s
Quality : High
Add ID3 tag : No
Command line compressor : C:\Documents and Settings\k.nakagawa\デスクトップ\Exact Audio Copy\FLAC\FLAC.EXE
Additional command line options : -6 -V -T "ARTIST=%artist%" -T "TITLE=%title%" -T "ALBUM=%albumtitle%" -T "DATE=%year%" -T "TRACKNUMBER=%tracknr%" -T "GENRE=%genre%" -T "COMMENT=%comment%" -T "BAND=%albuminterpret%" -T "ALBUMARTIST=%albuminterpret%" -T "COMPOSER=%composer%" %haslyrics%–tag-from-file=LYRICS="%lyricsfile%"%haslyrics% -T "DISCNUMBER=%cdnumber%" -T "TOTALDISCS=%totalcds%" -T "TOTALTRACKS=%numtracks%" %hascover%–picture="%coverfile%"%hascover% %source% -o %dest%


TOC of the extracted CD

Track | Start | Length | Start sector | End sector
––––––––––––––––––––––––––––-
1 | 0:00.00 | 4:52.72 | 0 | 21971
2 | 4:52.72 | 6:11.14 | 21972 | 49810
3 | 11:04.11 | 5:52.27 | 49811 | 76237
4 | 16:56.38 | 5:11.54 | 76238 | 99616
5 | 22:08.17 | 6:03.28 | 99617 | 126869
6 | 28:11.45 | 4:46.00 | 126870 | 148319
7 | 32:57.45 | 5:52.19 | 148320 | 174738
8 | 38:49.64 | 4:18.04 | 174739 | 194092


Track 1

Filename C:\01 - I Never Forget.wav

Pre-gap length 0:00:02.00

Peak level 99.2 %
Extraction speed 4.4 X
Track quality 100.0 %
Test CRC 5F249038
Copy CRC 5F249038
Copy OK

Track 2

Filename C:\02 - Eastern Legacy.wav

Pre-gap length 0:00:00.58

Peak level 99.1 %
Extraction speed 4.7 X
Track quality 99.9 %
Test CRC 18D28250
Copy CRC 18D28250
Copy OK

Track 3

Filename C:\03 - Dearly.wav

Pre-gap length 0:00:01.34

Peak level 98.4 %
Extraction speed 5.6 X
Track quality 100.0 %
Test CRC 444AFB17
Copy CRC 444AFB17
Copy OK

Track 4

Filename C:\04 - Shakin' Funk.wav

Pre-gap length 0:00:00.06

Peak level 99.2 %
Extraction speed 5.4 X
Track quality 99.9 %
Test CRC 5DA6C493
Copy CRC 5DA6C493
Copy OK

Track 5

Filename C:\05 - Spanish Tears.wav

Pre-gap length 0:00:01.55

Peak level 99.5 %
Extraction speed 6.4 X
Track quality 100.0 %
Test CRC 03DBEC77
Copy CRC 03DBEC77
Copy OK

Track 6

Filename C:\06 - Regae Spice.wav

Pre-gap length 0:00:02.01

Peak level 99.2 %
Extraction speed 6.6 X
Track quality 100.0 %
Test CRC 293D1DB4
Copy CRC 293D1DB4
Copy OK

Track 7

Filename C:\07 - Shuffle Castle.wav

Pre-gap length 0:00:01.42

Peak level 98.9 %
Extraction speed 6.5 X
Track quality 99.9 %
Test CRC 1DD9D153
Copy CRC 1DD9D153
Copy OK

Track 8

Filename C:\08 - Ode To Autumn.wav

Pre-gap length 0:00:02.02

Peak level 65.1 %
Extraction speed 7.0 X
Track quality 100.0 %
Test CRC 30766A05
Copy CRC 30766A05
Copy OK

No errors occurred

End of status report


Toshiyuki Honda & Burning Waves - Spanish Tears (1980) {Japan Electric Bird The Best 1000 Series KICJ-2407 rel 2014}

Toshiyuki Honda & Burning Waves - Spanish Tears (1980) {Japan Electric Bird The Best 1000 Series KICJ-2407 rel 2014}


All thanks goes to the original releaser!

see also:
Ronnie Foster - The Racer (1986) {2014 Japan Electric Bird The Best 1000 Series}


NEXT -> More 2014 Japan Electric Bird The Best 1000 Series on the way…

===