Subcategories

Townes Van Zandt - Live at Union Chapel, London, England 1994 (2005) {2CD Tomato TOM-3019}

Posted By: ruskaval
Townes Van Zandt - Live at Union Chapel, London, England 1994 (2005) {2CD Tomato TOM-3019}

Townes Van Zandt - Live at Union Chapel, London, England 1994 (2005) {2CD Tomato TOM-3019}
EAC rip (secure mode) | FLAC (tracks)+CUE+LOG -> 513 Mb | MP3 @320 -> 272 Mb
Full Artwork @ 300 dpi (jpg) -> 35 Mb | 5% repair rar
© 1994, 2005 Egge / Tomato | TOM-3019
Folk / Country / Contemporary Folk / Acoustic / Progressive Country

On Sunday 24th April 1994, in a leafless corner of north London, one thousand people came to see this legendary artist sing a selection of the greatest contemporary folk songs ever written. It was a triumph musically, with Townes on stunning form….on this night Townes was in total control of everything and everyone. His playing and singing were exemplary and the beauty of the songs struck right to the heart of everyone in the audience.
This is a tough one. To read Harold F. Eggers, Jr.'s liner notes, one is led to believe that these unreleased recordings of Townes Van Zandt's 1994 show at the Union Chapel, London, is the Holy Grail from the vault. And to be fair, it's certainly better than anything else he or Van Zandt's estate has yet issued. Those recordings, many of them of dodgy quality and poor performances, were simply shameful. This one, which has been raved about by Van Zandt's fans on his Internet chat site, is problematic as well. It starts with the cover photo. There's the Tomato logo in the bottom left, a black-and-white picture of a much younger Van Zandt, and no year listed on the cover, aping the sublime Live at the Old Quarter, Houston, Texas double album released in the 1970s. Hmmm, at best that's misleading. There are 36 tracks over these two discs. Most of them are his classic tunes, and among them were then new songs that eventually appeared on No Deeper Blue, his final studio offering before he died in 1997. The sound quality here is better than anything that has been released posthumously. The venue lends itself to acoustic music wonderfully. But the next questionable thing is the performance itself. According to Eggers, Townes' "spirit was soaring." This indeed may be true, though the tour was grueling – 38 shows in a row across Europe. What cannot be overlooked is that while Van Zandt may have been in the best shape he had been in throughout the 1990s, the toll of alcoholism is everywhere evident. His delivery both sung and spoken is slow and sometimes slurred. His guitar playing, which had been masterful in his prime, borders on rudimentary and sometimes is actually marginal. To be fair, the song selection is fantastic. Everything one would ever want to hear live is here and then some. But what's inescapable here for those listeners who had been with Van Zandt from the beginning is that this is not the artist at his best. He may have been doing what he loved best, but his ability to do it was impaired. The effort is here, no question. And he's inspired by the audience. But it doesn't make up for what's already gone. This is a sad thing to say, and hard to write. Live at Union Chapel, London, England may be the best of the artist live in the 1990s, but it's far from the best of Townes Van Zandt. And one has to question whether or not he would have even wanted these recordings released. God knows he needed the money. Certainly hardcore fans will have to have this, but that doesn't excuse the fact that this feels like a vampiric effort to keep the Van Zandt legend alive. That will live on and so will the songs without question. It's simply an opinion, but packages like this seem to undermine it more than enhance or deepen Van Zandt's monumental contribution.
Townes Van Zandt - Live at Union Chapel, London, England 1994 (2005) {2CD Tomato TOM-3019}


Track Listing

Disc #1/2

1. ) Introduction
2. ) Two Girls
3. ) Dollar Bill Blues
4. ) If I Needed You
5. ) Songs From The Sky
6. ) Mr. Mudd and Mr. Gold
7. ) Katie Belle
8. ) The Hole
9. ) Tip Of The Hat To Elvis
10. ) The Shrimp Song
11. ) Pancho And Lefty
12. ) Ira Hayes
13. ) Marie
14. ) English Courage
15. ) Thunderbird Wine
16. ) No Place To Fall
17. ) Mr. Lightnin'
18. ) My Starter Won't Start This Morning
19. ) To Live Is To Fly
20. ) Buckskin Stallion

Townes Van Zandt - Live at Union Chapel, London, England 1994 (2005) {2CD Tomato TOM-3019}


Disc #2/2
1. ) A Good Song
2. ) Tecumseh Valley
3. ) A Pawn Ticket
4. ) Blaze's Blues
5. ) Railroad Blues
6. ) Rex's Blues
7. ) Three Penguins
8. ) You Are Not Needed Now
9. ) Snowin' On Raton
10. ) Kathleen
11. ) Still Looking For You/Dead Flowers
12. ) Loretta
13. ) Thinking About Catfish
14. ) Catfish Song
15. ) See You Next Summer
16. ) A Song For

Townes Van Zandt - Live at Union Chapel, London, England 1994 (2005) {2CD Tomato TOM-3019}


Exact Audio Copy V1.0 beta 3 from 29. August 2011

EAC extraction logfile from 25. February 2012, 20:45

Townes Van Zandt / Live at Union Chapel London England Disc1

Used drive : ASUS DRW-24B1ST a Adapter: 0 ID: 0

Read mode : Secure
Utilize accurate stream : Yes
Defeat audio cache : Yes
Make use of C2 pointers : No

Read offset correction : 6
Overread into Lead-In and Lead-Out : No
Fill up missing offset samples with silence : Yes
Delete leading and trailing silent blocks : No
Null samples used in CRC calculations : Yes
Used interface : Native Win32 interface for Win NT & 2000
Gap handling : Appended to previous track

Used output format : User Defined Encoder
Selected bitrate : 896 kBit/s
Quality : High
Add ID3 tag : No
Command line compressor : C:\Program Files (x86)\Exact Audio Copy\Flac\flac.exe
Additional command line options : -8 -V -T "ARTIST=%artist%" -T "TITLE=%title%" -T "ALBUM=%albumtitle%" -T "DATE=%year%" -T "TRACKNUMBER=%tracknr%" -T "TOTALTRACKS=%numtracks%" -T "GENRE=%genre%" -T "ALBUMARTIST=%albumartist%" -T "ALBUM ARTIST=%albumartist%" -T "COMMENT=EAC Secure Mode, Test & Copy, AccurateRip, FLAC -8" %source%


TOC of the extracted CD

Track | Start | Length | Start sector | End sector
––––––––––––––––––––––––––––-
1 | 0:00.00 | 1:36.10 | 0 | 7209
2 | 1:36.10 | 4:23.10 | 7210 | 26944
3 | 5:59.20 | 2:56.37 | 26945 | 40181
4 | 8:55.57 | 2:54.38 | 40182 | 53269
5 | 11:50.20 | 0:57.42 | 53270 | 57586
6 | 12:47.62 | 3:13.13 | 57587 | 72074
7 | 16:01.00 | 2:45.12 | 72075 | 84461
8 | 18:46.12 | 5:21.68 | 84462 | 108604
9 | 24:08.05 | 1:31.07 | 108605 | 115436
10 | 25:39.12 | 4:40.48 | 115437 | 136484
11 | 30:19.60 | 4:10.02 | 136485 | 155236
12 | 34:29.62 | 3:34.73 | 155237 | 171359
13 | 38:04.60 | 4:43.30 | 171360 | 192614
14 | 42:48.15 | 1:02.35 | 192615 | 197299
15 | 43:50.50 | 3:04.17 | 197300 | 211116
16 | 46:54.67 | 3:45.28 | 211117 | 228019
17 | 50:40.20 | 0:50.27 | 228020 | 231796
18 | 51:30.47 | 6:44.23 | 231797 | 262119
19 | 58:14.70 | 4:11.55 | 262120 | 280999
20 | 62:26.50 | 3:11.55 | 281000 | 295379


Track 1

Filename U:\Flac Rips\B\Townes Van Zandt - Live at Union Chapel, London, England (2005) [FLAC]\Disc1\01 - Introduction.wav

Pre-gap length 0:00:02.00

Peak level 99.5 %
Extraction speed 2.7 X
Track quality 100.0 %
Test CRC 3E8DF648
Copy CRC 3E8DF648
Accurately ripped (confidence 5) [19B20F06] (AR v1)
Copy OK

Track 2

Filename U:\Flac Rips\B\Townes Van Zandt - Live at Union Chapel, London, England (2005) [FLAC]\Disc1\02 - Two Girls.wav

Peak level 99.6 %
Extraction speed 3.7 X
Track quality 100.0 %
Test CRC 4A6D8B9F
Copy CRC 4A6D8B9F
Accurately ripped (confidence 5) [7D8EB8F5] (AR v1)
Copy OK

Track 3

Filename U:\Flac Rips\B\Townes Van Zandt - Live at Union Chapel, London, England (2005) [FLAC]\Disc1\03 - Dollar Bill Blues.wav

Peak level 99.6 %
Extraction speed 3.8 X
Track quality 100.0 %
Test CRC 1C815252
Copy CRC 1C815252
Accurately ripped (confidence 5) [FDDB81E4] (AR v1)
Copy OK

Track 4

Filename U:\Flac Rips\B\Townes Van Zandt - Live at Union Chapel, London, England (2005) [FLAC]\Disc1\04 - If I Needed You.wav

Peak level 81.2 %
Extraction speed 4.0 X
Track quality 100.0 %
Test CRC A6371D9B
Copy CRC A6371D9B
Accurately ripped (confidence 5) [7BDC876B] (AR v1)
Copy OK

Track 5

Filename U:\Flac Rips\B\Townes Van Zandt - Live at Union Chapel, London, England (2005) [FLAC]\Disc1\05 - Songs From The Sky.wav

Peak level 53.3 %
Extraction speed 3.0 X
Track quality 100.0 %
Test CRC E4360ED8
Copy CRC E4360ED8
Accurately ripped (confidence 5) [4FC2BED6] (AR v1)
Copy OK

Track 6

Filename U:\Flac Rips\B\Townes Van Zandt - Live at Union Chapel, London, England (2005) [FLAC]\Disc1\06 - Mr. Mudd & Mr. Gold.wav

Peak level 99.6 %
Extraction speed 3.4 X
Track quality 99.9 %
Test CRC FEB38D9C
Copy CRC FEB38D9C
Accurately ripped (confidence 5) [DE5FFE98] (AR v1)
Copy OK

Track 7

Filename U:\Flac Rips\B\Townes Van Zandt - Live at Union Chapel, London, England (2005) [FLAC]\Disc1\07 - Katie Bell.wav

Peak level 80.6 %
Extraction speed 4.5 X
Track quality 100.0 %
Test CRC 4ED61695
Copy CRC 4ED61695
Accurately ripped (confidence 5) [281866CA] (AR v1)
Copy OK

Track 8

Filename U:\Flac Rips\B\Townes Van Zandt - Live at Union Chapel, London, England (2005) [FLAC]\Disc1\08 - The Hole.wav

Peak level 99.6 %
Extraction speed 5.2 X
Track quality 100.0 %
Test CRC 59DA940C
Copy CRC 59DA940C
Accurately ripped (confidence 5) [402CB648] (AR v1)
Copy OK

Track 9

Filename U:\Flac Rips\B\Townes Van Zandt - Live at Union Chapel, London, England (2005) [FLAC]\Disc1\09 - Tip Of The Hat To Elvis.wav

Peak level 53.0 %
Extraction speed 4.3 X
Track quality 100.0 %
Test CRC 3ED982A2
Copy CRC 3ED982A2
Accurately ripped (confidence 5) [51405557] (AR v1)
Copy OK

Track 10

Filename U:\Flac Rips\B\Townes Van Zandt - Live at Union Chapel, London, England (2005) [FLAC]\Disc1\10 - The Shrimp Song.wav

Peak level 99.5 %
Extraction speed 5.5 X
Track quality 100.0 %
Test CRC 215EF54B
Copy CRC 215EF54B
Accurately ripped (confidence 5) [D0259AAE] (AR v1)
Copy OK

Track 11

Filename U:\Flac Rips\B\Townes Van Zandt - Live at Union Chapel, London, England (2005) [FLAC]\Disc1\11 - Pancho & Lefty.wav

Peak level 99.7 %
Extraction speed 5.7 X
Track quality 100.0 %
Test CRC CAEE04B8
Copy CRC CAEE04B8
Accurately ripped (confidence 5) [D40EB9E8] (AR v1)
Copy OK

Track 12

Filename U:\Flac Rips\B\Townes Van Zandt - Live at Union Chapel, London, England (2005) [FLAC]\Disc1\12 - Ira Hayes.wav

Peak level 75.3 %
Extraction speed 5.8 X
Track quality 100.0 %
Test CRC D50C3987
Copy CRC D50C3987
Accurately ripped (confidence 5) [6E550630] (AR v1)
Copy OK

Track 13

Filename U:\Flac Rips\B\Townes Van Zandt - Live at Union Chapel, London, England (2005) [FLAC]\Disc1\13 - Marie.wav

Peak level 99.5 %
Extraction speed 6.3 X
Track quality 100.0 %
Test CRC AB44AEE6
Copy CRC AB44AEE6
Accurately ripped (confidence 5) [AB2C6AAB] (AR v1)
Copy OK

Track 14

Filename U:\Flac Rips\B\Townes Van Zandt - Live at Union Chapel, London, England (2005) [FLAC]\Disc1\14 - English Courage.wav

Peak level 80.5 %
Extraction speed 4.5 X
Track quality 100.0 %
Test CRC C4BD4928
Copy CRC C4BD4928
Accurately ripped (confidence 5) [4DA07EC8] (AR v1)
Copy OK

Track 15

Filename U:\Flac Rips\B\Townes Van Zandt - Live at Union Chapel, London, England (2005) [FLAC]\Disc1\15 - Thunderbird Wine.wav

Peak level 92.1 %
Extraction speed 4.6 X
Track quality 99.9 %
Test CRC 21536157
Copy CRC 21536157
Accurately ripped (confidence 5) [AEF5BC53] (AR v1)
Copy OK

Track 16

Filename U:\Flac Rips\B\Townes Van Zandt - Live at Union Chapel, London, England (2005) [FLAC]\Disc1\16 - No Place To Fall.wav

Peak level 99.6 %
Extraction speed 6.5 X
Track quality 100.0 %
Test CRC 9579148A
Copy CRC 9579148A
Accurately ripped (confidence 5) [8A1C022B] (AR v1)
Copy OK

Track 17

Filename U:\Flac Rips\B\Townes Van Zandt - Live at Union Chapel, London, England (2005) [FLAC]\Disc1\17 - Mr. Lightnin'.wav

Peak level 77.1 %
Extraction speed 4.3 X
Track quality 100.0 %
Test CRC E06383A9
Copy CRC E06383A9
Accurately ripped (confidence 5) [15DF254D] (AR v1)
Copy OK

Track 18

Filename U:\Flac Rips\B\Townes Van Zandt - Live at Union Chapel, London, England (2005) [FLAC]\Disc1\18 - My Starter Won't Start This Morning.wav

Peak level 97.5 %
Extraction speed 7.2 X
Track quality 100.0 %
Test CRC 84B236C6
Copy CRC 84B236C6
Accurately ripped (confidence 5) [611F635F] (AR v1)
Copy OK

Track 19

Filename U:\Flac Rips\B\Townes Van Zandt - Live at Union Chapel, London, England (2005) [FLAC]\Disc1\19 - To Live Is To Fly.wav

Peak level 99.5 %
Extraction speed 7.1 X
Track quality 100.0 %
Test CRC 12C69987
Copy CRC 12C69987
Accurately ripped (confidence 5) [F7AFFBC4] (AR v1)
Copy OK

Track 20

Filename U:\Flac Rips\B\Townes Van Zandt - Live at Union Chapel, London, England (2005) [FLAC]\Disc1\20 - Buckskin Stallion.wav

Peak level 97.4 %
Extraction speed 7.0 X
Track quality 100.0 %
Test CRC 9FAC74E9
Copy CRC 9FAC74E9
Accurately ripped (confidence 5) [1071D800] (AR v1)
Copy OK


All tracks accurately ripped

No errors occurred

End of status report

==== Log checksum AA6A8AB21E89B6BD6CC73C20F0BBAFCAAC104BB6B3F8E7629463778E00909CC5 ====

–––––––––––––––––––––––––––––––––––––––––––––––––––––––––––––––––––––––––––––––––––––––––––––––––––––––––––––––––––––––––––––––––––––––––––––––––––––––––––––––––––––––––––––––––––––––––––––––-

Exact Audio Copy V1.0 beta 3 from 29. August 2011

EAC extraction logfile from 25. February 2012, 21:11

Townes Van Zandt / Live at Union Chapel, London England Disc2

Used drive : ASUS DRW-24B1ST a Adapter: 0 ID: 0

Read mode : Secure
Utilize accurate stream : Yes
Defeat audio cache : Yes
Make use of C2 pointers : No

Read offset correction : 6
Overread into Lead-In and Lead-Out : No
Fill up missing offset samples with silence : Yes
Delete leading and trailing silent blocks : No
Null samples used in CRC calculations : Yes
Used interface : Native Win32 interface for Win NT & 2000
Gap handling : Appended to previous track

Used output format : User Defined Encoder
Selected bitrate : 896 kBit/s
Quality : High
Add ID3 tag : No
Command line compressor : C:\Program Files (x86)\Exact Audio Copy\Flac\flac.exe
Additional command line options : -8 -V -T "ARTIST=%artist%" -T "TITLE=%title%" -T "ALBUM=%albumtitle%" -T "DATE=%year%" -T "TRACKNUMBER=%tracknr%" -T "TOTALTRACKS=%numtracks%" -T "GENRE=%genre%" -T "ALBUMARTIST=%albumartist%" -T "ALBUM ARTIST=%albumartist%" -T "COMMENT=EAC Secure Mode, Test & Copy, AccurateRip, FLAC -8" %source%


TOC of the extracted CD

Track | Start | Length | Start sector | End sector
––––––––––––––––––––––––––––-
1 | 0:00.00 | 0:48.35 | 0 | 3634
2 | 0:48.35 | 4:27.47 | 3635 | 23706
3 | 5:16.07 | 3:25.53 | 23707 | 39134
4 | 8:41.60 | 3:17.52 | 39135 | 53961
5 | 11:59.37 | 3:42.20 | 53962 | 70631
6 | 15:41.57 | 2:33.35 | 70632 | 82141
7 | 18:15.17 | 2:00.48 | 82142 | 91189
8 | 20:15.65 | 4:24.62 | 91190 | 111051
9 | 24:40.52 | 3:28.00 | 111052 | 126651
10 | 28:08.52 | 2:30.38 | 126652 | 137939
11 | 30:39.15 | 4:37.57 | 137940 | 158771
12 | 35:16.72 | 2:52.50 | 158772 | 171721
13 | 38:09.47 | 1:07.08 | 171722 | 176754
14 | 39:16.55 | 4:28.15 | 176755 | 196869
15 | 43:44.70 | 0:48.30 | 196870 | 200499
16 | 44:33.25 | 4:40.47 | 200500 | 221546


Track 1

Filename U:\Flac Rips\B\Townes Van Zandt - Live at Union Chapel, London, England (2005) [FLAC]\Disc2\01 - A Good Song.wav

Pre-gap length 0:00:02.00

Peak level 100.0 %
Extraction speed 1.2 X
Track quality 99.7 %
Test CRC 1C248F42
Copy CRC 1C248F42
Accurately ripped (confidence 5) [7325FB41] (AR v1)
Copy OK

Track 2

Filename U:\Flac Rips\B\Townes Van Zandt - Live at Union Chapel, London, England (2005) [FLAC]\Disc2\02 - Tecumseh Valley.wav

Peak level 99.6 %
Extraction speed 3.7 X
Track quality 100.0 %
Test CRC FF61EA06
Copy CRC FF61EA06
Accurately ripped (confidence 5) [566B5594] (AR v1)
Copy OK

Track 3

Filename U:\Flac Rips\B\Townes Van Zandt - Live at Union Chapel, London, England (2005) [FLAC]\Disc2\03 - A Pawn Ticket.wav

Peak level 56.5 %
Extraction speed 3.9 X
Track quality 100.0 %
Test CRC 4B59D8B6
Copy CRC 4B59D8B6
Accurately ripped (confidence 5) [CB33C537] (AR v1)
Copy OK

Track 4

Filename U:\Flac Rips\B\Townes Van Zandt - Live at Union Chapel, London, England (2005) [FLAC]\Disc2\04 - Blazes Blues.wav

Peak level 99.9 %
Extraction speed 4.2 X
Track quality 100.0 %
Test CRC 1FAF52A0
Copy CRC 1FAF52A0
Accurately ripped (confidence 5) [310BA1D6] (AR v1)
Copy OK

Track 5

Filename U:\Flac Rips\B\Townes Van Zandt - Live at Union Chapel, London, England (2005) [FLAC]\Disc2\05 - Railroad Blues.wav

Peak level 99.6 %
Extraction speed 4.5 X
Track quality 100.0 %
Test CRC 2685F6EA
Copy CRC 2685F6EA
Accurately ripped (confidence 5) [D0080A63] (AR v1)
Copy OK

Track 6

Filename U:\Flac Rips\B\Townes Van Zandt - Live at Union Chapel, London, England (2005) [FLAC]\Disc2\06 - Rex's Blues.wav

Peak level 99.5 %
Extraction speed 4.4 X
Track quality 100.0 %
Test CRC F7B82A26
Copy CRC F7B82A26
Accurately ripped (confidence 5) [D6AA293B] (AR v1)
Copy OK

Track 7

Filename U:\Flac Rips\B\Townes Van Zandt - Live at Union Chapel, London, England (2005) [FLAC]\Disc2\07 - Three Penguins.wav

Peak level 54.9 %
Extraction speed 4.3 X
Track quality 100.0 %
Test CRC 0C6C2F70
Copy CRC 0C6C2F70
Accurately ripped (confidence 5) [486F6097] (AR v1)
Copy OK

Track 8

Filename U:\Flac Rips\B\Townes Van Zandt - Live at Union Chapel, London, England (2005) [FLAC]\Disc2\08 - You Are Not Needed Now.wav

Peak level 99.5 %
Extraction speed 5.2 X
Track quality 100.0 %
Test CRC 9EBB977D
Copy CRC 9EBB977D
Accurately ripped (confidence 5) [BB30A2C3] (AR v1)
Copy OK

Track 9

Filename U:\Flac Rips\B\Townes Van Zandt - Live at Union Chapel, London, England (2005) [FLAC]\Disc2\09 - Snowin' On Raton.wav

Peak level 92.4 %
Extraction speed 5.3 X
Track quality 100.0 %
Test CRC 63504C86
Copy CRC 63504C86
Accurately ripped (confidence 5) [C4B0341A] (AR v1)
Copy OK

Track 10

Filename U:\Flac Rips\B\Townes Van Zandt - Live at Union Chapel, London, England (2005) [FLAC]\Disc2\10 - Kathleen.wav

Peak level 87.2 %
Extraction speed 5.1 X
Track quality 100.0 %
Test CRC 545AC83C
Copy CRC 545AC83C
Accurately ripped (confidence 5) [DECCF47D] (AR v1)
Copy OK

Track 11

Filename U:\Flac Rips\B\Townes Van Zandt - Live at Union Chapel, London, England (2005) [FLAC]\Disc2\11 - Still Looking For You,Dead Flowers.wav

Peak level 99.6 %
Extraction speed 5.8 X
Track quality 100.0 %
Test CRC 4689333C
Copy CRC 4689333C
Accurately ripped (confidence 5) [E5760C4A] (AR v1)
Copy OK

Track 12

Filename U:\Flac Rips\B\Townes Van Zandt - Live at Union Chapel, London, England (2005) [FLAC]\Disc2\12 - Loretta.wav

Peak level 99.6 %
Extraction speed 5.7 X
Track quality 100.0 %
Test CRC 87989C73
Copy CRC 87989C73
Accurately ripped (confidence 5) [CDDD95AA] (AR v1)
Copy OK

Track 13

Filename U:\Flac Rips\B\Townes Van Zandt - Live at Union Chapel, London, England (2005) [FLAC]\Disc2\13 - Thinking About Catfish.wav

Peak level 99.5 %
Extraction speed 4.4 X
Track quality 100.0 %
Test CRC D117A71C
Copy CRC D117A71C
Accurately ripped (confidence 5) [8C8C353D] (AR v1)
Copy OK

Track 14

Filename U:\Flac Rips\B\Townes Van Zandt - Live at Union Chapel, London, England (2005) [FLAC]\Disc2\14 - Catfish Song.wav

Peak level 99.6 %
Extraction speed 6.3 X
Track quality 100.0 %
Test CRC 57F00BDE
Copy CRC 57F00BDE
Accurately ripped (confidence 5) [C21028BA] (AR v1)
Copy OK

Track 15

Filename U:\Flac Rips\B\Townes Van Zandt - Live at Union Chapel, London, England (2005) [FLAC]\Disc2\15 - See You Next Summer.wav

Peak level 47.0 %
Extraction speed 4.0 X
Track quality 100.0 %
Test CRC 00ECCADF
Copy CRC 00ECCADF
Accurately ripped (confidence 5) [505CB693] (AR v1)
Copy OK

Track 16

Filename U:\Flac Rips\B\Townes Van Zandt - Live at Union Chapel, London, England (2005) [FLAC]\Disc2\16 - A Song For.wav

Peak level 99.9 %
Extraction speed 6.6 X
Track quality 100.0 %
Test CRC 86D76B8C
Copy CRC 86D76B8C
Accurately ripped (confidence 5) [7C8A580B] (AR v1)
Copy OK


All tracks accurately ripped

No errors occurred

End of status report

==== Log checksum D42739B8E448A8584D667D5AC15F817626BA0887558C530F1D016C874AF906DD ====



Townes Van Zandt - Live at Union Chapel, London, England 1994 (2005) {2CD Tomato TOM-3019}


see more Townes Van Zandt…


===