Ty Richards - Zillion (2017) {Tremolo Records}

Posted By: shamanicus
Ty Richards - Zillion (2017) {Tremolo Records}

Ty Richards - Zillion (2017)
EAC Rip | FLAC (tracks+.cue, log) | Front cover only | 253 mb | MP3 CBR 320kbps | RAR | 89 mb
Rock, Psychedelic Rock | Label: Tremolo Records

Appropriately dubbed “Beck Zeppelin,” Ty Richard’s album Zillion brings back classic rock riffs set in front of a Beck style electric instrumental style. With enough drop outs and break downs to satisfy any electronica-head, Ty seemingly blends in the scratch that rock-purists have been asking for, a dirty guitar and a heavy bass line.

The album, seemingly set in a space-indie version of Galaga at times, gives shout-outs to albums like Beck’s Guero and U2’s Joshua Tree with a wide range of styles and rhythms. The leading track “Spaceman” gives the full taste of Ty’s ability as a producer and performer, and it gives the feeling of late night car rides to keep the party going. Ty invites anyone to sing, rock, or dance along to this fantastic blend that is perfect for the next age in indie-electronic. “Uncle Ben” is a bluesy track that cleans itself throughout to really bring out the Zeppelin and White Stripes styles. Revive the sixties. Play Ty Richards.


Tracklist:

01. Spaceman (04:06)
02. Shoulda Coulda Woulda (04:18)
03. Uncle Ben (03:04)
04. Kiss with the Lights Out (04:13)
05. Naked Girls (03:06)
06. You Are a Star (03:32)
07. She Can Count the Days (03:48)
08. I Don't Want to Come Home (03:01)
09. Going out for a Cigarette (03:22)
10. Baby, Baby, Baby, Etc. (04:39)

Total length: 37:09


Exact Audio Copy V1.1 from 23. June 2015

EAC extraction logfile from 11. March 2017, 23:48

Ty Richards / Zillion

Used Drive : HL-DT-STDVDRAM GT50N Adapter: 1 ID: 0 (not found in database)

Read mode : Secure
Utilize accurate stream : Yes
Defeat audio cache : Yes
Make use of C2 pointers : No

Read offset correction : 103
Overread into Lead-In and Lead-Out : No
Fill up missing offset samples with silence : Yes
Delete leading and trailing silent blocks : No
Null samples used in CRC calculations : Yes
Used interface : Native Win32 interface for Win NT & 2000
Gap handling : Appended to previous track

Used output format : User Defined Encoder
Selected bitrate : 1024 kBit/s
Quality : High
Add ID3 tag : No
Command line compressor : C:\Program Files (x86)\Exact Audio Copy\Flac\flac.exe
Additional command line options : -8 -e -V -T "ARTIST=%artist%" -T "TITLE=%title%" -T "ALBUM=%albumtitle%" -T
"DATE=%year%" -T "TRACKNUMBER=%tracknr%" -T "GENRE=%genre%" -T "PERFORMER=%albuminterpret%" -T "COMPOSER=%composer%" %haslyrics%–tag-from-file=LYRICS="%lyricsfile%"%haslyrics% -T "ALBUMARTIST=%albumartist%" -T "DISCNUMBER=%cdnumber%" -T "TOTALDISCS=%totalcds%" -T "TOTALTRACKS=%numtracks%" -T "COMMENT=%comment%" %source% -o %dest%


TOC of the extracted CD

Track | Start | Length | Start sector | End sector
––––––––––––––––––––––––––––-
1 | 0:00.00 | 4:07.34 | 0 | 18558
2 | 4:07.34 | 4:19.27 | 18559 | 38010
3 | 8:26.61 | 3:06.08 | 38011 | 51968
4 | 11:32.69 | 4:14.72 | 51969 | 71090
5 | 15:47.66 | 3:07.10 | 71091 | 85125
6 | 18:55.01 | 3:34.08 | 85126 | 101183
7 | 22:29.09 | 3:49.61 | 101184 | 118419
8 | 26:18.70 | 3:02.72 | 118420 | 132141
9 | 29:21.67 | 3:23.12 | 132142 | 147378
10 | 32:45.04 | 4:39.58 | 147379 | 168361


Track 1

Filename C:\Rips v2\Ty Richards - Zillion (FLAC)\01 - Spaceman.wav

Pre-gap length 0:00:02.00

Peak level 96.6 %
Extraction speed 2.4 X
Track quality 100.0 %
Test CRC 55DF1CCE
Copy CRC 55DF1CCE
Track not present in AccurateRip database
Copy OK

Track 2

Filename C:\Rips v2\Ty Richards - Zillion (FLAC)\02 - Shoulda Coulda Woulda.wav

Pre-gap length 0:00:01.00

Peak level 96.6 %
Extraction speed 2.7 X
Track quality 100.0 %
Test CRC 5EA2D9E5
Copy CRC 5EA2D9E5
Track not present in AccurateRip database
Copy OK

Track 3

Filename C:\Rips v2\Ty Richards - Zillion (FLAC)\03 - Uncle Ben.wav

Pre-gap length 0:00:01.00

Peak level 96.6 %
Extraction speed 0.4 X
Track quality 99.9 %
Test CRC 59B1DBC1
Copy CRC 59B1DBC1
Track not present in AccurateRip database
Copy OK

Track 4

Filename C:\Rips v2\Ty Richards - Zillion (FLAC)\04 - Kiss With the Lights Out.wav

Pre-gap length 0:00:01.00

Peak level 96.6 %
Extraction speed 2.6 X
Track quality 99.9 %
Test CRC 59A4445D
Copy CRC 59A4445D
Track not present in AccurateRip database
Copy OK

Track 5

Filename C:\Rips v2\Ty Richards - Zillion (FLAC)\05 - Naked Girls.wav

Pre-gap length 0:00:01.00

Peak level 96.6 %
Extraction speed 3.2 X
Track quality 100.0 %
Test CRC 47641288
Copy CRC 47641288
Track not present in AccurateRip database
Copy OK

Track 6

Filename C:\Rips v2\Ty Richards - Zillion (FLAC)\06 - You Are a Star.wav

Pre-gap length 0:00:01.00

Peak level 96.6 %
Extraction speed 2.7 X
Track quality 99.9 %
Test CRC 6A353898
Copy CRC 6A353898
Track not present in AccurateRip database
Copy OK

Track 7

Filename C:\Rips v2\Ty Richards - Zillion (FLAC)\07 - She Can Count the Days.wav

Pre-gap length 0:00:01.00

Peak level 96.6 %
Extraction speed 3.7 X
Track quality 100.0 %
Test CRC 6EA9654C
Copy CRC 6EA9654C
Track not present in AccurateRip database
Copy OK

Track 8

Filename C:\Rips v2\Ty Richards - Zillion (FLAC)\08 - I Don't Want to Come Home.wav

Pre-gap length 0:00:01.00

Peak level 96.6 %
Extraction speed 3.5 X
Track quality 100.0 %
Test CRC A94A1C36
Copy CRC A94A1C36
Track not present in AccurateRip database
Copy OK

Track 9

Filename C:\Rips v2\Ty Richards - Zillion (FLAC)\09 - Going Out For a Cigarette.wav

Pre-gap length 0:00:01.00

Peak level 96.6 %
Extraction speed 0.0 X
Track quality 99.9 %
Test CRC E1FAB0EB
Copy CRC E1FAB0EB
Track not present in AccurateRip database
Copy OK

Track 10

Filename C:\Rips v2\Ty Richards - Zillion (FLAC)\10 - Baby Baby Baby, etc..wav

Pre-gap length 0:00:01.00

Peak level 96.6 %
Extraction speed 4.2 X
Track quality 100.0 %
Test CRC A4B79AB7
Copy CRC A4B79AB7
Track not present in AccurateRip database
Copy OK


None of the tracks are present in the AccurateRip database

No errors occurred

End of status report

–– CUETools DB Plugin V2.1.6

[CTDB TOCID: TibtEchFyVkBh6ZOePppOeHPA_g-] found
Submit result: TibtEchFyVkBh6ZOePppOeHPA_g- has been confirmed
Track | CTDB Status
1 | (1/1) Accurately ripped
2 | (1/1) Accurately ripped
3 | (1/1) Accurately ripped
4 | (1/1) Accurately ripped
5 | (1/1) Accurately ripped
6 | (1/1) Accurately ripped
7 | (1/1) Accurately ripped
8 | (1/1) Accurately ripped
9 | (1/1) Accurately ripped
10 | (1/1) Accurately ripped


==== Log checksum 2C1C64991116DB4B0A925503E286464E447A88EE3EB06E6AF12BB82FEBED72ED ====


Thanks to the Original customer.