Subcategories

U2 - Fan Club Only Releases - Limited Editions Discs (1995-2010)

Posted By: gonzalo76
U2 - Fan Club Only Releases - Limited Editions Discs (1995-2010)

U2 - Melon (Remixes for Propaganda) (1995)
EAC rip | FLAC, Individual Tracks, LOG | 1 CD -> 470 MB | Scans | RAR 3% Rec | RS + FS
Dance | Label: Island | Catalog: MELONCD1 | Country: UK | Year: 1995


Melon: Remixes for Propaganda is a compilation of remixes released by Irish rock band U2 exclusively to members of the band's magazine/fan club, "Propaganda", in spring 1995. Some of the remixes were previously available on singles and some have been re-released on later singles and compilations, while some remain exclusive to this set. The title "Melon" is an anagram of "Lemon", which is a reference to U2's song of the same name that appears on two tracks of the album.

Tracklist:

01. Lemon (The Perfecto Mix) (8:57)
02. Salome (Zooromancer Remix) (8:02)
03. Numb (Gimme Some More Dignity Mix) (8:47)
04. Mysterious Ways (The Perfecto Mix) (7:07)
05. Stay (Underdog Mix) (6:45)
06. Numb (The Soul Assassins Mix) (3:58)
07. Mysterious Ways (Remixed by Massive Attack) (4:50)
08. Even Better Than The Real Thing (The Perfecto Mix) (6:39)
09. Lemon (Bad Yard Club Mix) (8:36)



Album Review:

Released in the Spring of 1995, Melon was the first ever "Fan Club" disc done by U2. It was released with issue #21 of the subscription only magazine, Propaganda. The CD itself was made up of various remixes of tracks released throughout the 90s. Some of these remixes had been released before, where as others such as the Stay (Underdog Mix) were previously unheard. It quickly became a much sought out CD among U2 fans.

The Melon CD has been bootlegged by those realizing that there was money to be made in the limited quantities in which the CD was pressed. At first it was easy to tell these fakes, as they often appeared in a jewel case, where as the original CD was available in a card sleeve only. However, even copies of the card sleeve have been bootlegged in recent days.

The Melon CD also lead to a bunch of other "Bootlegs". These bootlegs are commonly referred to as "Fruitlegs". These CDs are all unofficial compilations of remixes under different fruit titles, "Pineapple", "Mango", etc. These were all labelled as being for Fan Club Use only even though they DID NOT come from the fan club or were not approved by U2.

2000 saw the release of a second Fan Club Only CD - Hasta La Vista Baby. This too was shipped to subscribers of Propaganda Magazine, and again was released in a card sleeve.

Catalog Information:

Country: UK
Label: Island Records
Commercial Release: Spring 1995
Format: CD
Catalog: MELONCD1
UPC: None
Package: Card Sleeve
Matrix: MELONCD1 10335111 01 % MADE IN U.K. BY PDO

Tracklist:

01. Lemon (The Perfecto Mix) (8:57)
02. Salome (Zooromancer Remix) (8:02)
03. Numb (Gimme Some More Dignity Mix) (8:47)
04. Mysterious Ways (The Perfecto Mix) (7:07)
05. Stay (Underdog Mix) (6:45)
06. Numb (The Soul Assassins Mix) (3:58)
07. Mysterious Ways (Remixed by Massive Attack) (4:50)
08. Even Better Than The Real Thing (The Perfecto Mix) (6:39)
09. Lemon (Bad Yard Club Mix) (8:36)

Liner Notes:

Track One Remixed by Paul Oakenfold and Steve Osborne
Track Two Remixed by Pete Heller and Terry Farley for Boys Own Productions
Track Three Remixed by Rollo & Rob D
Track Four Remixed by Paul Oakenfold and Steve Osborne
Track Five Remixed by Underdog for Bite It! / Unmanageable Artists
Track Six Remixed by The Soul Assassins
Track Seven Remixed by Massive Attack
Track Eight Remixed by Paul Oakenfold and Steve Osborne
Track Nine Remixed by David Morales for Def Mix Productions

Further Information:

Released in a cardboard sleeve. Mailed to Propaganda subscribers with issue 21 of that magazine. Not sold in stores.

Executive Producer: Nick Angel.
Music: U2.
Words: Bono. (except "Numb" - The Edge)

This compilation © 1995 PolyGram International Music BV.

The copyright in this sound recording is owned by PolyGram International Music BV and is exclusively licensed to Island Records Ltd. in the UK. except trks 2,4,8. The copyright in this sound recording is owned by Island Records ltd. © 1995 U2 Ltd.

The copyright in this artwork is owned by U2 Ltd. and is exclusively licensed to Island Records Ltd. in the UK. Design by Works Associates, Dublin. For 'Propaganda' Fan Club Only.


X Lossless Decoder version 20080926 (93.3)

XLD extraction logfile from 2008-11-10 18:17:30 +0100

U2 / Melon (Remixes)

Used drive : PIONEER DVD-RW DVR-115D (revision 1.06)

Use cdparanoia mode : YES (CDParanoia III 10.2 engine)
Disable audio cache : OK for the drive with cache less than 2750KB
Make use of C2 pointers : NO
Read offset correction : 48
Max retry count : 100

TOC of the extracted CD
Track | Start | Length | Start sector | End sector
––––––––––––––––––––––––––––-
1 | 00:00:00 | 08:57:15 | 0 | 40289
2 | 08:57:15 | 08:02:62 | 40290 | 76501
3 | 17:00:02 | 08:47:00 | 76502 | 116026
4 | 25:47:02 | 07:07:60 | 116027 | 148111
5 | 32:54:62 | 06:45:05 | 148112 | 178491
6 | 39:39:67 | 03:57:10 | 178492 | 196276
7 | 43:37:02 | 04:50:43 | 196277 | 218069
8 | 48:27:45 | 06:39:02 | 218070 | 247996
9 | 55:06:47 | 08:35:65 | 247997 | 286686

All Tracks
Album gain : -8.78 dB
Peak : 0.999969
Track 01
Filename : /Volumes/Nebucadnezzar/00 Music rip and upload/U2 - Melon (1995) [SPECIAL] (XLD Rip)/01 - Lemon (The Perfecto Mix).flac

Track gain : -9.87 dB
Peak : 0.994690
CRC32 hash (test run) : A1562B5E
CRC32 hash : A1562B5E
CRC32 hash (skip zero) : 3B63659A
AccurateRip signature : A9DDAEB4
->Track not present in AccurateRip database.
Statistics
Read error : 0
Skipped (treated as error) : 0
Edge jitter error (maybe fixed) : 0
Atom jitter error (maybe fixed) : 0
Drift error (maybe fixed) : 0
Dropped bytes error (maybe fixed) : 0
Duplicated bytes error (maybe fixed) : 0
Inconsistency in error sectors : 0

Track 02
Filename : /Volumes/Nebucadnezzar/00 Music rip and upload/U2 - Melon (1995) [SPECIAL] (XLD Rip)/02 - Salome (Zooromancer Remix).flac

Track gain : -6.20 dB
Peak : 0.999268
CRC32 hash (test run) : C33253D5
CRC32 hash : C33253D5
CRC32 hash (skip zero) : D13E8C0B
AccurateRip signature : 89AD3C0E
->Track not present in AccurateRip database.
Statistics
Read error : 0
Skipped (treated as error) : 0
Edge jitter error (maybe fixed) : 0
Atom jitter error (maybe fixed) : 0
Drift error (maybe fixed) : 0
Dropped bytes error (maybe fixed) : 0
Duplicated bytes error (maybe fixed) : 0
Inconsistency in error sectors : 0

Track 03
Filename : /Volumes/Nebucadnezzar/00 Music rip and upload/U2 - Melon (1995) [SPECIAL] (XLD Rip)/03 - Numb (Gimme Some More Dignity Mix).flac

Track gain : -7.58 dB
Peak : 0.999969
CRC32 hash (test run) : 2282F03C
CRC32 hash : 2282F03C
CRC32 hash (skip zero) : 497DADC5
AccurateRip signature : A3FE276A
->Track not present in AccurateRip database.
Statistics
Read error : 0
Skipped (treated as error) : 0
Edge jitter error (maybe fixed) : 0
Atom jitter error (maybe fixed) : 0
Drift error (maybe fixed) : 0
Dropped bytes error (maybe fixed) : 0
Duplicated bytes error (maybe fixed) : 0
Inconsistency in error sectors : 0

Track 04
Filename : /Volumes/Nebucadnezzar/00 Music rip and upload/U2 - Melon (1995) [SPECIAL] (XLD Rip)/04 - Mysterious Ways (The Perfecto Mix).flac

Track gain : -10.33 dB
Peak : 0.996124
CRC32 hash (test run) : 41E909EC
CRC32 hash : 41E909EC
CRC32 hash (skip zero) : B82C5B79
AccurateRip signature : 3F17865D
->Track not present in AccurateRip database.
Statistics
Read error : 0
Skipped (treated as error) : 0
Edge jitter error (maybe fixed) : 0
Atom jitter error (maybe fixed) : 0
Drift error (maybe fixed) : 0
Dropped bytes error (maybe fixed) : 0
Duplicated bytes error (maybe fixed) : 0
Inconsistency in error sectors : 0

Track 05
Filename : /Volumes/Nebucadnezzar/00 Music rip and upload/U2 - Melon (1995) [SPECIAL] (XLD Rip)/05 - Stay (Underdog Mix).flac

Track gain : -4.78 dB
Peak : 0.999939
CRC32 hash (test run) : 2A14BC2C
CRC32 hash : 2A14BC2C
CRC32 hash (skip zero) : C5FA594B
AccurateRip signature : 87646F83
->Track not present in AccurateRip database.
Statistics
Read error : 0
Skipped (treated as error) : 0
Edge jitter error (maybe fixed) : 0
Atom jitter error (maybe fixed) : 0
Drift error (maybe fixed) : 0
Dropped bytes error (maybe fixed) : 0
Duplicated bytes error (maybe fixed) : 0
Inconsistency in error sectors : 0

Track 06
Filename : /Volumes/Nebucadnezzar/00 Music rip and upload/U2 - Melon (1995) [SPECIAL] (XLD Rip)/06 - Numb (The Soul Assassins Mix).flac

Track gain : -6.64 dB
Peak : 0.996185
CRC32 hash (test run) : B1275C92
CRC32 hash : B1275C92
CRC32 hash (skip zero) : F8CB17E5
AccurateRip signature : 4CB670EA
->Track not present in AccurateRip database.
Statistics
Read error : 0
Skipped (treated as error) : 0
Edge jitter error (maybe fixed) : 0
Atom jitter error (maybe fixed) : 0
Drift error (maybe fixed) : 0
Dropped bytes error (maybe fixed) : 0
Duplicated bytes error (maybe fixed) : 0
Inconsistency in error sectors : 0

Track 07
Filename : /Volumes/Nebucadnezzar/00 Music rip and upload/U2 - Melon (1995) [SPECIAL] (XLD Rip)/07 - Mysterious Ways (Massive Attack Remix).flac

Track gain : -5.98 dB
Peak : 0.996185
CRC32 hash (test run) : DB977D2B
CRC32 hash : DB977D2B
CRC32 hash (skip zero) : 3083F305
AccurateRip signature : D0CB4E9F
->Track not present in AccurateRip database.
Statistics
Read error : 0
Skipped (treated as error) : 0
Edge jitter error (maybe fixed) : 0
Atom jitter error (maybe fixed) : 0
Drift error (maybe fixed) : 0
Dropped bytes error (maybe fixed) : 0
Duplicated bytes error (maybe fixed) : 0
Inconsistency in error sectors : 0

Track 08
Filename : /Volumes/Nebucadnezzar/00 Music rip and upload/U2 - Melon (1995) [SPECIAL] (XLD Rip)/08 - Even Better Than The Real Thing (The Perfecto Mix).flac

Track gain : -9.24 dB
Peak : 0.970947
CRC32 hash (test run) : B15CF37B
CRC32 hash : B15CF37B
CRC32 hash (skip zero) : 28F5C615
AccurateRip signature : 0B7E01F9
->Track not present in AccurateRip database.
Statistics
Read error : 0
Skipped (treated as error) : 0
Edge jitter error (maybe fixed) : 0
Atom jitter error (maybe fixed) : 0
Drift error (maybe fixed) : 0
Dropped bytes error (maybe fixed) : 0
Duplicated bytes error (maybe fixed) : 0
Inconsistency in error sectors : 0

Track 09
Filename : /Volumes/Nebucadnezzar/00 Music rip and upload/U2 - Melon (1995) [SPECIAL] (XLD Rip)/09 - Lemon (Bad Yard Club Mix).flac

Track gain : -8.17 dB
Peak : 0.996124
CRC32 hash (test run) : E46D92B1
CRC32 hash : E46D92B1
CRC32 hash (skip zero) : 11095256
AccurateRip signature : 4F683E8E
->Track not present in AccurateRip database.
Statistics
Read error : 0
Skipped (treated as error) : 0
Edge jitter error (maybe fixed) : 0
Atom jitter error (maybe fixed) : 0
Drift error (maybe fixed) : 0
Dropped bytes error (maybe fixed) : 0
Duplicated bytes error (maybe fixed) : 0
Inconsistency in error sectors : 0

No errors occurred

End of status report


[CUETools log; Date: 05/09/2010 04:41:51 p.m.; Version: 2.0.9]
[CTDB TOCID: kaKYk2SkNKnOCT8bVDU80oAsf_s-] disk not present in database.
[AccurateRip ID: 00170466-00a4d769-840eee09] found.
Track [ CRC ] Status
01 [a9ddaeb4] (5/7) Accurately ripped
02 [89ad3c0e] (5/7) Accurately ripped
03 [a3fe276a] (5/7) Accurately ripped
04 [3f17865d] (5/7) Accurately ripped
05 [87646f83] (5/7) Accurately ripped
06 [4cb670ea] (5/7) Accurately ripped
07 [d0cb4e9f] (5/7) Accurately ripped
08 [0b7e01f9] (5/7) Accurately ripped
09 [4f683e8e] (4/4) Accurately ripped

Track Peak [ CRC32 ] [W/O NULL]
– 100,0 [C4FC354C] [4F9CEF8F]
01 99,4 [A1562B5E] [3B63659A]
02 99,9 [C33253D5] [D13E8C0B]
03 100,0 [2282F03C] [497DADC5]
04 99,6 [41E909EC] [B82C5B79]
05 99,9 [2A14BC2C] [C5FA594B]
06 99,6 [B1275C92] [F8CB17E5]
07 99,6 [DB977D2B] [3083F305]
08 97,0 [B15CF37B] [28F5C615]
09 99,6 [E46D92B1] [11095256]


AUDIOCHECKER v2.0 beta (build 457) - by Dester - opdester@freemail.hu
~~~~~~~~~~~~~~~~~~~~~~~~~~~~~~~~~~
-=== DO NOT EDIT THIS FILE! ===-

Path: …\CD

01 -=- 01 - Lemon (The Perfecto Mix).flac -=- CDDA (100%)
02 -=- 02 - Salome (Zooromancer Remix).flac -=- CDDA (100%)
03 -=- 03 - Numb (Gimme Some More Dignity Mix).flac -=- CDDA (100%)
04 -=- 04 - Mysterious Ways (The Perfecto Mix).flac -=- CDDA (100%)
05 -=- 05 - Stay (Underdog Mix).flac -=- CDDA (100%)
06 -=- 06 - Numb (The Soul Assassins Mix).flac -=- CDDA (100%)
07 -=- 07 - Mysterious Ways (Massive Attack Remix).flac -=- CDDA (100%)
08 -=- 08 - Even Better Than The Real Thing (The Perfecto Mix).flac -=- CDDA (100%)
09 -=- 09 - Lemon (Bad Yard Club Mix).flac -=- CDDA (100%)

Summary 100,00% CDDA

143641012



**************************************

U2 - Fan Club Only Releases - Limited Editions Discs (1995-2010)

U2 - Hasta La Vista Baby! (Live from Mexico City) (2000)
EAC rip | FLAC, IMG+CUE, LOG | 1 CD -> 511 MB | Scans | RAR 3% Rec | RS + FS
Rock | Label: Island | Catalog: HASTACD1 | Country: UK | Year: 2000


Hasta la Vista Baby! - U2 Live from Mexico City is a live album recorded by U2 and released exclusively to members of its fan club in 2000. It features 14 songs from the band's 25-song performance during their PopMart Tour in 1998. The entire show was previously released on video in 1998 as PopMart: Live from Mexico City. The concert includes an emotional rendition of "One", dedicated to INXS singer Michael Hutchence, who had died weeks earlier. The album's title comes from the popular line, "Hasta la vista, baby," featured in the 1991 film, Terminator 2: Judgment Day.

Tracklist:

01. Pop Muzik (3:07)
02. Mofo (4:35)
03. I Will Follow (2:50)
04. Gone (4:40)
05. New Year's Day (4:58)
06. Staring At The Sun (4:30)
07. Bullet The Blue Sky (6:10)
08. Please (6:57)
09. Where The Streets Have No Name (6:34)
10. Lemon - Perfecto Mix (2:04) - Instrumental
11. Discotheque (5:07)
12. With Or Without You (5:45)
13. Hold Me, Thrill Me, Kiss Me, Kill Me (5:38)
14. One (6:06)



Album Review:

Released in the Fall of 2000, Hasta La Vista Baby was the second "Fan Club" disc done by U2. It was released with the first issue of the new format of the subscription only magazine, Propaganda. The CD itself was made up of live tracks from the 1997 concert in Mexico City. Unfortunately it is not a full recording of the Mexico concert, and several tracks have been left out in order to make the material fit on one CD.

Missing from the CD are Last Night on Earth as well as If You Wear that Velvet Dress. Those songs would later be included on the b-sides to the Beautiful Day single.

In early 2000 a production mixup landed several copies of Hasta La Vista Baby into the hands of an online store. Before this mistake was caught, mp3 copies were made and were released on the internet. Copies were available on the internet in April 2000, many months before the fan club would actually distribute the CD later that year.

The CD was only released through the fan club, and with the exception of the copies that found their way out early, no copies were sold commercially. The packaging of the CD was a simple card sleeve as pictured above.

Catalog Information:

Country: UK
Label: Island Records
Commercial Release: Fall 2000
Format: CD
Catalog: HASTACD1
UPC: None
Package: Card Sleeve
Matrix: HASTACD1 01 5

Tracklist:

01. Pop Muzik (3:07)
02. Mofo (4:35)
03. I Will Follow (2:50)
04. Gone (4:40)
05. New Year's Day (4:58)
06. Staring At The Sun (4:30)
07. Bullet The Blue Sky (6:10)
08. Please (6:57)
09. Where The Streets Have No Name (6:34)
10. Lemon - Perfecto Mix (2:04) - Instrumental
11. Discotheque (5:07)
12. With Or Without You (5:45)
13. Hold Me, Thrill Me, Kiss Me, Kill Me (5:38)
14. One (6:06)

Liner Notes:

Recorded at Foro Sol Autodromo, Mexico City on 3rd December 1997.
All titles (except Track 1) written by U2 and published by Polygram International Publishing BV except Blue Mountain Music Ltd. (UK), Mother Music (Irl), Taiyo Music Ltd. (Japan). Track 1 written by Robin Scott's "M" and published by BMG Music Publishing Ltd. Issued under license by Mother Records Ltd., courtesy of Music Collection International and Robin Scott. Popmart Sound Engineer: Joe O'Herlihy. Sound Supervisors: Flood and Howie B. Mixed by Chris Potter at Metropolis Studios, London. This compilation ©2000 U2 Limited. Sleeve designed by ABA Dublin. Photography by Anton Corbijn (Front) and Kevin Davies (Back) For members of Propaganda Fan Club Only. NOT FOR RESALE.

Further Information:

Released in a card sleeve. Mailed to Propaganda subscribers. Not sold in stores.


Exact Audio Copy V0.99 prebeta 5 from 4. May 2009

EAC extraction logfile from 5. September 2010, 15:53

U2 / Hasta La Vista Baby!

Used drive : ATAPI DVD A DH20A4P Adapter: 1 ID: 0

Read mode : Secure
Utilize accurate stream : Yes
Defeat audio cache : Yes
Make use of C2 pointers : No

Read offset correction : 6
Overread into Lead-In and Lead-Out : No
Fill up missing offset samples with silence : Yes
Delete leading and trailing silent blocks : No
Null samples used in CRC calculations : Yes
Used interface : Native Win32 interface for Win NT & 2000

Used output format : User Defined Encoder
Selected bitrate : 1024 kBit/s
Quality : High
Add ID3 tag : No
Command line compressor : C:\Archivos de programa\FLAC\flac.exe
Additional command line options : -T "artist=%a" -T "title=%t" -T "album=%g" -T "date=%y" -T "tracknumber=%n" -T "genre=%m" -5 %s


TOC of the extracted CD

Track | Start | Length | Start sector | End sector
––––––––––––––––––––––––––––-
1 | 0:00.00 | 3:08.45 | 0 | 14144
2 | 3:08.45 | 4:36.12 | 14145 | 34856
3 | 7:44.57 | 2:50.65 | 34857 | 47671
4 | 10:35.47 | 4:41.25 | 47672 | 68771
5 | 15:16.72 | 4:58.70 | 68772 | 91191
6 | 20:15.67 | 4:31.63 | 91192 | 111579
7 | 24:47.55 | 6:11.37 | 111580 | 139441
8 | 30:59.17 | 6:58.30 | 139442 | 170821
9 | 37:57.47 | 6:35.28 | 170822 | 200474
10 | 44:33.00 | 2:05.32 | 200475 | 209881
11 | 46:38.32 | 5:08.45 | 209882 | 233026
12 | 51:47.02 | 5:46.73 | 233027 | 259049
13 | 57:34.00 | 5:39.07 | 259050 | 284481
14 | 63:13.07 | 6:07.25 | 284482 | 312031


Range status and errors

Selected range

Filename E:\AvaxHome\U2 - 2000 - Hasta La Vista Baby!.wav

Peak level 100.0 %
Range quality 99.9 %
Test CRC AA4162BE
Copy CRC AA4162BE
Copy OK

No errors occurred


AccurateRip summary

Track 1 accurately ripped (confidence 10) [2F6C5E8F]
Track 2 accurately ripped (confidence 10) [E2533791]
Track 3 accurately ripped (confidence 10) [A4DA1B2C]
Track 4 accurately ripped (confidence 10) [B693ED59]
Track 5 accurately ripped (confidence 10) [FDDAD4B2]
Track 6 accurately ripped (confidence 10) [C1F0422F]
Track 7 accurately ripped (confidence 10) [9BC4E511]
Track 8 accurately ripped (confidence 10) [D17B6569]
Track 9 accurately ripped (confidence 10) [5EA5D84D]
Track 10 accurately ripped (confidence 10) [CA47BB5C]
Track 11 accurately ripped (confidence 10) [0496CA47]
Track 12 accurately ripped (confidence 10) [01760F81]
Track 13 accurately ripped (confidence 10) [E4BAF3DB]
Track 14 accurately ripped (confidence 10) [9DDA3842]

All tracks accurately ripped

End of status report


[CUETools log; Date: 05/09/2010 04:48:08 p.m.; Version: 2.0.9]
[CTDB TOCID: H84FVevHz9Iy9j1H02ZtH8xVGd4-] disk not present in database.
[AccurateRip ID: 00213996-016afe9a-d810400e] found.
Track [ CRC ] Status
01 [2f6c5e8f] (10/10) Accurately ripped
02 [e2533791] (10/10) Accurately ripped
03 [a4da1b2c] (10/10) Accurately ripped
04 [b693ed59] (10/10) Accurately ripped
05 [fddad4b2] (10/10) Accurately ripped
06 [c1f0422f] (10/10) Accurately ripped
07 [9bc4e511] (10/10) Accurately ripped
08 [d17b6569] (10/10) Accurately ripped
09 [5ea5d84d] (10/10) Accurately ripped
10 [ca47bb5c] (10/10) Accurately ripped
11 [0496ca47] (10/10) Accurately ripped
12 [01760f81] (10/10) Accurately ripped
13 [e4baf3db] (10/10) Accurately ripped
14 [9dda3842] (10/10) Accurately ripped

Track Peak [ CRC32 ] [W/O NULL] [ LOG ]
– 100,0 [AA4162BE] [299AD155] CRC32
01 100,0 [91907CA9] [7D9B0B11]
02 100,0 [C0913D16] [E444828C]
03 100,0 [3349CF38] [A9C612DA]
04 100,0 [E5D85B47] [DE8C3B71]
05 100,0 [2F38AAD8] [7A018419]
06 100,0 [717A92DE] [57B95415]
07 100,0 [EF056523] [34CCA99A]
08 100,0 [DC28507F] [EA77DB0C]
09 100,0 [84EC82DB] [CF7CF37A]
10 100,0 [39D6EC57] [CD7241C8]
11 100,0 [F331348A] [1ADC9E52]
12 100,0 [FB6B722D] [6FE8A0A2]
13 100,0 [77C0BC26] [EB9E946B]
14 100,0 [DF546517] [C65AD79F]


AUDIOCHECKER v2.0 beta (build 457) - by Dester - opdester@freemail.hu
~~~~~~~~~~~~~~~~~~~~~~~~~~~~~~~~~~
-=== DO NOT EDIT THIS FILE! ===-

Path: …\CD

1 -=- U2 - 2000 - Hasta La Vista Baby!.flac -=- CDDA (100%)

122366468



**************************************

U2 - Fan Club Only Releases - Limited Editions Discs (1995-2010)

U2 - U2.Communication (2005)
EAC rip | FLAC, IMG+CUE, LOG | 1 CD -> 304 MB | Scans | RAR 3% Rec | RS + FS
Rock | Label: Island | Catalog: u2.comv1 | Country: UK | Year: 2005


U2.Communication is a live album recorded by U2 and released exclusively to members of its official website in 2005. The album features performances from two different concerts from the Vertigo Tour, filmed for the Vertigo: Live from Chicago video, and a concert in Milan filmed for the Vertigo: Live from Milan video which was released with deluxe copies of the compilation album, U218 Singles. The album's title is a play on U2.COM, the band's website.

One of the highlights is an emotional performance of "Miss Sarajevo", dedicated to the victims of the July 2005 London bombings. Bono sings Luciano Pavarotti's aria in this performance.

The album also came with a bonus CD-ROM featuring wallpapers, screensavers, and a video performance of "Vertigo" from Milan. On November 20, 2006, the album was discontinued to release Zoo TV Live.

Tracklist:

01. City of Blinding Lights (Live from Chicago May 2005) (6:39)
02. Vertigo / Stories for Boys (Live from Chicago May 2005) (4:42)
03. Elevation (Live from Chicago May 2005) (4:34)
04. I Still Haven't Found What I'm Looking For (Live from Milan July 2005) (4:04)
05. Miracle Drug (Live from Chicago May 2005) (4:11)
06. Miss Sarajevo (Live from Milan July 2005) (5:14)
07. The Fly (Live from Chicago, May 2005) (5:25)
08. With or Without You (Live from Milan July 2005) (6:22)



Album Review:

The third fanclub only release in U2's career came on the tail end of the third leg of the Vertigo tour. It featured live songs from concerts in 2005 in Chicago and Milan. The tracks from Chicago are also available on the Vertigo 2005: Live in Chicago DVD release. The Milan tracks are expected to be available on DVD on an upcoming release. The 2 CD set was sent out as a gift for renewing one's subscription for the 2006 year to the paid portion of the website at U2.com.

The CDs were released in a cardboard gatefold sleeve, with one CD on either side of the package. Also included was an insert card, which thanks fans for resubscribing, reiterates the copywrite notice and telling users that they will be banned immediately with no refund if found copying or downloading the tracks on the CD. One CD contains eight live tracks from the 2005 Vertigo tour. The other CD contains a combination of video, screensavers, and computer backgrounds that are only accessible if you have subscribed to u2.com and have a user name and password to unlock the CDROM.

The package containing U2.Communication began shipping in December of 2005 to subscribers. If ordered with the renewal discount for resubscribers it did not come with the keychain which was the 2005 gift. If ordered for full price, there have been reports that the 2005 keychain gift is included.

Catalog Information:

Contry: UK
Label: Island Records
Commercial Release: December 2005
Format: CD
Catalog: u2.comv1
UPC: None
Package: Gatefold Cardboard Sleeve
Matrix 1: COMV1 01

Tracklist:

01. City of Blinding Lights (Live from Chicago May 2005) (6:39)
02. Vertigo / Stories for Boys (Live from Chicago May 2005) (4:42)
03. Elevation (Live from Chicago May 2005) (4:34)
04. I Still Haven't Found What I'm Looking For (Live from Milan July 2005) (4:04)
05. Miracle Drug (Live from Chicago May 2005) (4:11)
06. Miss Sarajevo (Live from Milan July 2005) (5:14)
07. The Fly (Live from Chicago, May 2005) (5:25)
08. With or Without You (Live from Milan July 2005) (6:22)

Liner Notes:

Vertigo Tour Sound Engineer: Joe O'Herlihy.
Music recorded by Robbie Adams.
Music produced and Mixed by Carl Glanville.
Mastering: Arnie Acosta at Bernie Grundman Mastering, Hollywood.
Audio Post Production: Cheryl Engles at Partial Productions Inc.

Further Information:

Released only to subscribers of the u2.com website. Not sold in stores.


Exact Audio Copy V0.99 prebeta 4 from 23. January 2008

EAC extraction logfile from 6. July 2008, 14:47

U2 / Communication

Used drive : TSSTcorpCD/DVDW TS-H552U Adapter: 1 ID: 0

Read mode : Secure
Utilize accurate stream : Yes
Defeat audio cache : Yes
Make use of C2 pointers : No

Read offset correction : 12
Overread into Lead-In and Lead-Out : No
Fill up missing offset samples with silence : Yes
Delete leading and trailing silent blocks : No
Null samples used in CRC calculations : Yes
Used interface : Installed external ASPI interface

Used output format : Internal WAV Routines
Sample format : 44.100 Hz; 16 Bit; Stereo


TOC of the extracted CD

Track | Start | Length | Start sector | End sector
––––––––––––––––––––––––––––-
1 | 0:00.00 | 6:39.28 | 0 | 29952
2 | 6:39.28 | 4:42.11 | 29953 | 51113
3 | 11:21.39 | 4:34.06 | 51114 | 71669
4 | 15:55.45 | 4:04.46 | 71670 | 90015
5 | 20:00.16 | 4:11.66 | 90016 | 108906
6 | 24:12.07 | 5:14.14 | 108907 | 132470
7 | 29:26.21 | 5:25.01 | 132471 | 156846
8 | 34:51.22 | 6:22.22 | 156847 | 185518


Range status and errors

Selected range

Filename D:\U2 - 2005 - Communication.wav

Peak level 98.8 %
Range quality 100.0 %
Test CRC DC5E58D0
Copy CRC DC5E58D0
Copy OK

No errors occurred


AccurateRip summary

Track 1 accurately ripped (confidence 8) [D6EE5B18]
Track 2 accurately ripped (confidence 8) [DFF92EBD]
Track 3 accurately ripped (confidence 8) [B7B9E8A7]
Track 4 accurately ripped (confidence 8) [39C0CE96]
Track 5 accurately ripped (confidence 8) [17A3A6C5]
Track 6 accurately ripped (confidence 8) [1ACA7BAD]
Track 7 accurately ripped (confidence 8) [88EFE058]
Track 8 accurately ripped (confidence 8) [3CE89F6E]

All tracks accurately ripped

End of status report


[CUETools log; Date: 05/09/2010 04:49:11 p.m.; Version: 2.0.9]
[CTDB TOCID: tUuajkuWhmTmT70t0SGyHXRXR18-] disk not present in database.
[AccurateRip ID: 000c9c81-00533d5b-6409a908] found.
Track [ CRC ] Status
01 [d6ee5b18] (16/18) Accurately ripped
02 [dff92ebd] (17/19) Accurately ripped
03 [b7b9e8a7] (17/19) Accurately ripped
04 [39c0ce96] (17/19) Accurately ripped
05 [17a3a6c5] (17/19) Accurately ripped
06 [1aca7bad] (17/19) Accurately ripped
07 [88efe058] (17/19) Accurately ripped
08 [3ce89f6e] (17/19) Accurately ripped

Track Peak [ CRC32 ] [W/O NULL] [ LOG ]
– 98,8 [DC5E58D0] [20C34DDB] CRC32
01 98,8 [AABD1AD2] [1A557547]
02 98,8 [E39D1B48] [B343A3DF]
03 98,8 [A49CE6AD] [A1A8E444]
04 98,8 [65D00C69] [FD9F48C3]
05 95,4 [1DD53C7C] [A840F044]
06 98,8 [6FE04CBF] [34F1D937]
07 98,8 [B0DD4BD0] [1C5E32A1]
08 98,8 [62FA57EA] [03586475]


AUDIOCHECKER v2.0 beta (build 457) - by Dester - opdester@freemail.hu
~~~~~~~~~~~~~~~~~~~~~~~~~~~~~~~~~~
-=== DO NOT EDIT THIS FILE! ===-

Path: …\CD

01 -=- U2 - 2005 - Communication.flac -=- CDDA (100%)

175407572



**************************************

U2 - Fan Club Only Releases - Limited Editions Discs (1995-2010)

U2 - Zoo TV Live (2006)
EAC rip | FLAC, IMG+CUE, LOG | 2 CD -> 848 MB | Scans | RAR 3% Rec | RS + FS
Rock | Label: Island | Catalog: u2.com2 | Country: UK | Year: 2006


Zoo TV Live is a live album by the Irish rock band U2. It was released exclusively to subscribing members of U2's official site, replacing U2.Communication on 20 November 2006. This double CD features the same material that is on the Zoo TV: Live from Sydney VHS and DVD releases, as well as one bonus track from the Zoo TV special, "Tryin' to Throw Your Arms Around the World". Although U2's website refers to the album as ZOO2Live, the album is titled Zoo TV Live according to the actual CDs. This album was discontinued from the website for the release of U2 Go Home: Live from Slane Castle in 2007.

Tracklist:

Disc 1:

01. Zooropa / Show Opening (Live from Sydney) (3:15)
02. Zoo Station (Live from Sydney) (4:47)
03. The Fly (Live from Sydney) (4:47)
04. Even Better than the Real Thing (Live from Sydney) (5:21)
05. Mysterious Ways (Live from Sydney) (6:24)
06. One (Live from Sydney) (4:39)
07. Unchained Melody (Live from Sydney) (1:26)
08. Until the End of the World (Live from Sydney) (5:00)
09. New Year's Day (Live from Sydney) (4:55)
10. Numb (Live from Sydney) (4:22)
11. Angel of Harlem (Live from Sydney) (4:20)
12. Stay (Faraway So Close) (Live from Sydney) (5:35)
13. Satellite of Love (Live from Sydney) (3:50)

Disc 2:

01. Dirty Day (Live from Sydney) (5:39)
02. Bullet the Blue Sky (Live from Sydney) (5:24)
03. Running to Stand Still (Live from Sydney) (5:37)
04. Where the Streets Have No Name (Live from Sydney) (5:39)
05. Pride (In the Name of Love) (Live from Sydney) (6:23)
06. Daddy's Gonna Pay for Your Crashed Car (Live from Sydney) (4:44)
07. Show Me the Way to Go Home / Macphisto Speech (Live from Sydney) (4:35)
08. Lemon (Live from Sydney) (5:13)
09. With or Without You (Live from Sydney) (4:22)
10. Love is Blindness (Live from Sydney) (5:29)
11. Can't Help Falling in Love (Live from Sydney) (2:44)
12. Tryin' to Throw Your Arms Around the World (Live from New York) (3:52)



Album Review:

This is the fourth audio release in U2's career from the fan club, sent out to subscribers only, and not available in stores. It is the second release since the fan club switched over to U2.com from the previous Propaganda magazine. This is a double CD set, and represents the audio from the ZOO TV Live from Sydney Video and DVD. A bonus track from the DVD recorded in New York in 1992 is also included on the second CD.

The CDs were each placed in their own cardboard sleeve with the tracklisting on the back. Both of these were then placed in one outer cardboard sleeve which had minimal text and artwork. Also included with the set is a two sided poster, which folds out from a CD sized booklet.

Some subscribers reported that early on U2.com was sending out copies of 2005's CD as well as the current fan club gift. It appears that this has now stopped, and current subscribers are only recieving Zoo TV Live. In early propaganda regarding the new fan club release it was referred to as Zoo2Live, however this name does not appear on the actual CD that was sent.

Catalog Information:

Contry: UK
Label: Island Records
Commercial Release: December 2006
Format: 2 x CD
Catalog: u2.com2
UPC: None
Package: Cardboard Sleeves
Matrix 1: U2.COM2/1 MRNO 02
Matrix 2: U2.COM2/2 MRNO 02

Tracklist:

Disc 1:

01. Zooropa / Show Opening (Live from Sydney) (3:15)
02. Zoo Station (Live from Sydney) (4:47)
03. The Fly (Live from Sydney) (4:47)
04. Even Better than the Real Thing (Live from Sydney) (5:21)
05. Mysterious Ways (Live from Sydney) (6:24)
06. One (Live from Sydney) (4:39)
07. Unchained Melody (Live from Sydney) (1:26)
08. Until the End of the World (Live from Sydney) (5:00)
09. New Year's Day (Live from Sydney) (4:55)
10. Numb (Live from Sydney) (4:22)
11. Angel of Harlem (Live from Sydney) (4:20)
12. Stay (Faraway So Close) (Live from Sydney) (5:35)
13. Satellite of Love (Live from Sydney) (3:50)

Disc 2:

01. Dirty Day (Live from Sydney) (5:39)
02. Bullet the Blue Sky (Live from Sydney) (5:24)
03. Running to Stand Still (Live from Sydney) (5:37)
04. Where the Streets Have No Name (Live from Sydney) (5:39)
05. Pride (In the Name of Love) (Live from Sydney) (6:23)
06. Daddy's Gonna Pay for Your Crashed Car (Live from Sydney) (4:44)
07. Show Me the Way to Go Home / Macphisto Speech (Live from Sydney) (4:35)
08. Lemon (Live from Sydney) (5:13)
09. With or Without You (Live from Sydney) (4:22)
10. Love is Blindness (Live from Sydney) (5:29)
11. Can't Help Falling in Love (Live from Sydney) (2:44)
12. Tryin' to Throw Your Arms Around the World (Live from New York) (3:52)

Liner Notes:

Recorded live at the Sydney Football Stadium, Sydney, Australia on the 27th of November, 1993.
Bonus track recorded live at the Zoo TV Special, Yankee Stadium, New York, 29th of August 1992.

Recorded and mixed by Robbie Adams. Mastered by Arnie Acosta at Bernie Grundman Mastering. Additional digital mastering and assistance: Scott 'Zilla' Sedille. Audio post production by Cheryl Engles at Partial Productions Inc.

All titles written by U2 and published by Universal Music Publishing International BV except Blue Mountain Music Ltd (UK), Mother Music (IRL) except: "Unchained Melody" - North / Zarrett, MPL Communications; "Satellite of Love" - Lou Reed, Screen Gems / EMI Music; "Show Me the Way to Go Home" - King / Swain, Campbell Connelly & Co. Ltd; "Can't Help Falling in Love" - Peretti / Creatore / Weiss, Carlin Music on behalf of Gladys Music & Cherry Lane Publishing Co.

Project Manager: Jeremy Joseph. Sleeve / Packaging Design: Shaughn McGrath, Four5One Creative, Dublin.

Further Information:

Released only to subscribers of the u2.com website. Not sold in stores.


Exact Audio Copy V0.99 prebeta 4 from 23. January 2008

EAC extraction logfile from 6. July 2008, 15:39

U2 / Zoo TV Live (CD1)

Used drive : TSSTcorpCD/DVDW TS-H552U Adapter: 1 ID: 0

Read mode : Secure
Utilize accurate stream : Yes
Defeat audio cache : Yes
Make use of C2 pointers : No

Read offset correction : 12
Overread into Lead-In and Lead-Out : No
Fill up missing offset samples with silence : Yes
Delete leading and trailing silent blocks : No
Null samples used in CRC calculations : Yes
Used interface : Installed external ASPI interface

Used output format : Internal WAV Routines
Sample format : 44.100 Hz; 16 Bit; Stereo


TOC of the extracted CD

Track | Start | Length | Start sector | End sector
––––––––––––––––––––––––––––-
1 | 0:00.00 | 3:15.69 | 0 | 14693
2 | 3:15.69 | 4:47.37 | 14694 | 36255
3 | 8:03.31 | 4:47.67 | 36256 | 57847
4 | 12:51.23 | 5:21.20 | 57848 | 81942
5 | 18:12.43 | 6:24.13 | 81943 | 110755
6 | 24:36.56 | 4:39.14 | 110756 | 131694
7 | 29:15.70 | 1:26.06 | 131695 | 138150
8 | 30:42.01 | 5:00.55 | 138151 | 160705
9 | 35:42.56 | 4:55.12 | 160706 | 182842
10 | 40:37.68 | 4:22.05 | 182843 | 202497
11 | 44:59.73 | 4:20.09 | 202498 | 222006
12 | 49:20.07 | 5:35.14 | 222007 | 247145
13 | 54:55.21 | 3:50.62 | 247146 | 264457


Range status and errors

Selected range

Filename D:\U2 - 2006 - Zoo Tv Live (CD1).wav

Peak level 100.0 %
Range quality 100.0 %
Test CRC 5C58AF72
Copy CRC 5C58AF72
Copy OK

No errors occurred


AccurateRip summary

Track 1 accurately ripped (confidence 5) [A2C26CF7]
Track 2 accurately ripped (confidence 5) [6DB0CE58]
Track 3 accurately ripped (confidence 5) [5071CFDF]
Track 4 accurately ripped (confidence 5) [D9503FCF]
Track 5 accurately ripped (confidence 5) [4E6F2609]
Track 6 accurately ripped (confidence 5) [5FF0E04E]
Track 7 accurately ripped (confidence 5) [90DAA0C4]
Track 8 accurately ripped (confidence 5) [041D0007]
Track 9 accurately ripped (confidence 5) [DD53C003]
Track 10 accurately ripped (confidence 5) [3CF5BA30]
Track 11 accurately ripped (confidence 5) [C67603EB]
Track 12 accurately ripped (confidence 5) [179EF872]
Track 13 accurately ripped (confidence 5) [9B15EDF9]

All tracks accurately ripped

End of status report

******

Exact Audio Copy V0.99 prebeta 4 from 23. January 2008

EAC extraction logfile from 6. July 2008, 16:49

U2 / Zoo TV Live (CD2)

Used drive : TSSTcorpCD/DVDW TS-H552U Adapter: 1 ID: 0

Read mode : Secure
Utilize accurate stream : Yes
Defeat audio cache : Yes
Make use of C2 pointers : No

Read offset correction : 12
Overread into Lead-In and Lead-Out : No
Fill up missing offset samples with silence : Yes
Delete leading and trailing silent blocks : No
Null samples used in CRC calculations : Yes
Used interface : Installed external ASPI interface

Used output format : Internal WAV Routines
Sample format : 44.100 Hz; 16 Bit; Stereo


TOC of the extracted CD

Track | Start | Length | Start sector | End sector
––––––––––––––––––––––––––––-
1 | 0:00.00 | 5:39.14 | 0 | 25438
2 | 5:39.14 | 5:24.05 | 25439 | 49743
3 | 11:03.19 | 5:37.31 | 49744 | 75049
4 | 16:40.50 | 5:39.54 | 75050 | 100528
5 | 22:20.29 | 6:23.28 | 100529 | 129281
6 | 28:43.57 | 4:44.17 | 129282 | 150598
7 | 33:27.74 | 4:35.12 | 150599 | 171235
8 | 38:03.11 | 5:13.66 | 171236 | 194776
9 | 43:17.02 | 4:21.73 | 194777 | 214424
10 | 47:39.00 | 5:29.31 | 214425 | 239130
11 | 53:08.31 | 2:44.07 | 239131 | 251437
12 | 55:52.38 | 3:52.06 | 251438 | 268843


Range status and errors

Selected range

Filename D:\U2 - 2006 - Zoo Tv Live (CD2).wav

Peak level 100.0 %
Range quality 100.0 %
Test CRC E1F29602
Copy CRC E1F29602
Copy OK

No errors occurred


AccurateRip summary

Track 1 accurately ripped (confidence 5) [23DE38A4]
Track 2 accurately ripped (confidence 5) [F1D71460]
Track 3 accurately ripped (confidence 5) [CC322E40]
Track 4 accurately ripped (confidence 5) [B2ECCDA7]
Track 5 accurately ripped (confidence 5) [115CB479]
Track 6 accurately ripped (confidence 5) [9E437BF3]
Track 7 accurately ripped (confidence 5) [9293825C]
Track 8 accurately ripped (confidence 5) [F84EA819]
Track 9 accurately ripped (confidence 5) [EE6AB320]
Track 10 accurately ripped (confidence 5) [A7125D2D]
Track 11 accurately ripped (confidence 5) [3F543E6C]
Track 12 accurately ripped (confidence 5) [EB528EF7]

All tracks accurately ripped

End of status report


[CUETools log; Date: 05/09/2010 04:50:38 p.m.; Version: 2.0.9]
[CTDB TOCID: wMeo7lxJ0sXhWB9aQe0bIkAyG_8-] disk not present in database.
[AccurateRip ID: 001c3e79-011b16d1-cb0dc60d] found.
Track [ CRC ] Status
01 [a2c26cf7] (20/20) Accurately ripped
02 [6db0ce58] (20/20) Accurately ripped
03 [5071cfdf] (20/20) Accurately ripped
04 [d9503fcf] (20/20) Accurately ripped
05 [4e6f2609] (20/20) Accurately ripped
06 [5ff0e04e] (20/20) Accurately ripped
07 [90daa0c4] (20/20) Accurately ripped
08 [041d0007] (20/20) Accurately ripped
09 [dd53c003] (20/20) Accurately ripped
10 [3cf5ba30] (20/20) Accurately ripped
11 [c67603eb] (20/20) Accurately ripped
12 [179ef872] (19/19) Accurately ripped
13 [9b15edf9] (20/20) Accurately ripped

Track Peak [ CRC32 ] [W/O NULL] [ LOG ]
– 100,0 [5C58AF72] [A268D881] CRC32
01 100,0 [7D55C363] [1D6A00E7]
02 98,8 [4C97A375] [D7ECD8CE]
03 100,0 [74BCED86] [0A175AEC]
04 98,8 [BAEED9CB] [49D93F3A]
05 98,8 [9A31F793] [9D72CE5B]
06 98,8 [454D6456] [15FCFA86]
07 98,3 [2C360785] [A1AF2801]
08 98,8 [660BFAE7] [72D7D006]
09 98,8 [307B06EF] [7E43B03D]
10 98,8 [F408C1B4] [427D04F1]
11 98,8 [7A3D1A1C] [5B06D84E]
12 98,8 [DAD0BED6] [4B328E76]
13 90,0 [62576F19] [5AFA15D1]

*****

[CUETools log; Date: 05/09/2010 04:51:54 p.m.; Version: 2.0.9]
[CTDB TOCID: APPepBbu4LiIq.5tuwtnQ3jP7CQ-] disk not present in database.
[AccurateRip ID: 001c8a9e-01071a11-990e000c] found.
Track [ CRC ] Status
01 [23de38a4] (19/19) Accurately ripped
02 [f1d71460] (19/19) Accurately ripped
03 [cc322e40] (19/19) Accurately ripped
04 [b2eccda7] (19/19) Accurately ripped
05 [115cb479] (19/19) Accurately ripped
06 [9e437bf3] (19/19) Accurately ripped
07 [9293825c] (19/19) Accurately ripped
08 [f84ea819] (19/19) Accurately ripped
09 [ee6ab320] (19/19) Accurately ripped
10 [a7125d2d] (19/19) Accurately ripped
11 [3f543e6c] (19/19) Accurately ripped
12 [eb528ef7] (19/19) Accurately ripped

Track Peak [ CRC32 ] [W/O NULL] [ LOG ]
– 100,0 [E1F29602] [DD90CB4B] CRC32
01 98,8 [3B66F260] [2906692A]
02 98,8 [29982A10] [3A4C3337]
03 98,8 [C6022158] [F101F120]
04 98,8 [E2BF07CA] [3F4F8CAF]
05 100,0 [648F458E] [0282E138]
06 98,8 [16316E5A] [07F159C0]
07 98,3 [1560F6EA] [0F20E3F1]
08 98,8 [B2A57E68] [7F198E6A]
09 98,8 [F90CE36E] [1DCF1D63]
10 100,0 [D7FB04AD] [152EFE84]
11 98,3 [62A61C30] [EC2F3DF5]
12 100,0 [9D6BECA5] [41749468]


AUDIOCHECKER v2.0 beta (build 457) - by Dester - opdester@freemail.hu
~~~~~~~~~~~~~~~~~~~~~~~~~~~~~~~~~~
-=== DO NOT EDIT THIS FILE! ===-

Path: …\CD1

1 -=- U2 - 2006 - Zoo TV Live (CD1).flac -=- CDDA (99%)

218883524

*****

AUDIOCHECKER v2.0 beta (build 457) - by Dester - opdester@freemail.hu
~~~~~~~~~~~~~~~~~~~~~~~~~~~~~~~~~~
-=== DO NOT EDIT THIS FILE! ===-

Path: …\CD2

1 -=- U2 - 2006 - Zoo TV Live (CD2).flac -=- CDDA (100%)

14730708



**************************************

U2 - Fan Club Only Releases - Limited Editions Discs (1995-2010)

U2 - Go Home: Live from Slane Castle, Ireland (2007)
EAC rip | FLAC, IMG+CUE, LOG | 2 CD -> 830 MB | Scans | RAR 3% Rec | RS + FS
Rock | Label: Mercury | Catalog: U2.COM3 | Country: UK | Year: 2007


U2 Go Home: Live from Slane Castle, Ireland is a concert video release by rock band U2 from the European leg of their Elevation Tour. Recorded on 1 September 2001 at Slane Castle on the band's featured stop in County Meath, Ireland, it was released on DVD in November 2003. Although Slane Concerts at Slane Castle are traditionally held once a year, U2 played two concerts. This was the final concert of the first European leg of the Elevation Tour.

Tracklist:

Disc 1:

01. Elevation (4:59)
02. Beautiful Day (4:24)
03. Until the End of the World (5:17)
04. New Year's Day (4:53)
05. Out of Control (5:54)
06. Sunday Bloody Sunday (7:14)
07. Wake Up Dead Man (2:02)
08. Stuck in a Moment You Can't Get Out Of (5:40)
09. Kite (5:23)
10. Angel of Harlem (3:55)
11. Desire (3:29)

Disc 2:

01. Staring at the Sun (4:16)
02. All I Want is You (4:50)
03. Where the Streets Have No Name (5:40)
04. Pride (4:58)
05. Bullet the Blue Sky (6:59)
06. With or Without You (6:23)
07. One (5:08)
08. Walk On (6:21)
09. Mysterious Ways (6:29)



Album Review:

For a third year in a row, subscribers to u2.com recieved a double CD set upon renewing their subscription. This time out, the CD is a double audio set, featuring songs taken from the DVD release of U2 Go Home: Live from Slane Castle, which had been released in 2003 on DVD.

That DVD featured Mysterious Ways as a bonus track, and not as part of the actual running time of the concert. It is kept the same on this release, which points to this being an identical replica of the DVD audio, although the credits do mention that this was remastered for an audio release. I'm at a loss to explain why Mysterious Ways would not have been returned to where it belonged if they were going to go through the trouble of mastering this again.

This release was not released for sale, and was available exclusively through the fan club. It is packaged in a cardboard gatefold sleeve with artwork similar to the 2003 DVD release.

Catalog Information:

Country: EU Pressing
Label: Mercury Records
Release Date: December 2007
Format: 2 x CD
Catalog: U2.COM3
UPC: None
Package: Cardboard Gatefold
Matrix 1: U2COM3/1 06
Matrix 2: U2COM3/2 05

Tracklist:

Disc 1:

01. Elevation (4:59)
02. Beautiful Day (4:24)
03. Until the End of the World (5:17)
04. New Year's Day (4:53)
05. Out of Control (5:54)
06. Sunday Bloody Sunday (7:14)
07. Wake Up Dead Man (2:02)
08. Stuck in a Moment You Can't Get Out Of (5:40)
09. Kite (5:23)
10. Angel of Harlem (3:55)
11. Desire (3:29)

Disc 2:

01. Staring at the Sun (4:16)
02. All I Want is You (4:50)
03. Where the Streets Have No Name (5:40)
04. Pride (4:58)
05. Bullet the Blue Sky (6:59)
06. With or Without You (6:23)
07. One (5:08)
08. Walk On (6:21)
09. Mysterious Ways (6:29)

Liner Notes:

Recorded on 1st September, 2001 at Slane Castle, Co. Meath, Ireland.

Recorded by Richard Rainey. Additional engineering, editing and mixing by Carl Glanville at Hanover Quay. Original Mastering by Aidan Foley at Masterlabs. Mastering for CD by Arnie Acosta at Bernie Grundman Mastering. Assisted by Scott Sedillo. Digital editing by Cheryl Engels and Scott Sedillo. Audio Post Production by Cheryl Engles at Partial Productions Inc.

"Bullet the Blue Sky" chant sung by Sinead O'Connor. Produced by John Reynolds.

Project Manager: Jeremy Joseph. Photography by Kyran O'Vrien and (Off-Screen) Ronnie Norton Associates. Sleeve by Shaughn McGrath, Four 5 One Creative Dublin.

Further Information:

Released only to subscribers of the u2.com website. Not sold in stores.


Exact Audio Copy V0.99 prebeta 4 from 23. January 2008

EAC extraction logfile from 6. July 2008, 17:18

U2 / U2 Go Home - Live From Slane Castle (CD1)

Used drive : TSSTcorpCD/DVDW TS-H552U Adapter: 1 ID: 0

Read mode : Secure
Utilize accurate stream : Yes
Defeat audio cache : Yes
Make use of C2 pointers : No

Read offset correction : 12
Overread into Lead-In and Lead-Out : No
Fill up missing offset samples with silence : Yes
Delete leading and trailing silent blocks : No
Null samples used in CRC calculations : Yes
Used interface : Installed external ASPI interface

Used output format : Internal WAV Routines
Sample format : 44.100 Hz; 16 Bit; Stereo


TOC of the extracted CD

Track | Start | Length | Start sector | End sector
––––––––––––––––––––––––––––-
1 | 0:00.00 | 4:58.60 | 0 | 22409
2 | 4:58.60 | 4:24.13 | 22410 | 42222
3 | 9:22.73 | 5:17.31 | 42223 | 66028
4 | 14:40.29 | 4:53.09 | 66029 | 88012
5 | 19:33.38 | 5:54.03 | 88013 | 114565
6 | 25:27.41 | 7:13.50 | 114566 | 147090
7 | 32:41.16 | 2:01.48 | 147091 | 156213
8 | 34:42.64 | 5:39.73 | 156214 | 181711
9 | 40:22.62 | 5:22.40 | 181712 | 205901
10 | 45:45.27 | 3:54.64 | 205902 | 223515
11 | 49:40.16 | 3:28.68 | 223516 | 239183


Range status and errors

Selected range

Filename D:\U2 - 2007 - U2 Go Home - Live From Slane Castle (CD1).wav

Peak level 100.0 %
Range quality 99.9 %
Test CRC 55F9B5BD
Copy CRC 55F9B5BD
Copy OK

No errors occurred


AccurateRip summary

Track 1 accurately ripped (confidence 5) [17ADE37C]
Track 2 accurately ripped (confidence 5) [57D83257]
Track 3 accurately ripped (confidence 5) [83A02174]
Track 4 accurately ripped (confidence 5) [2E865867]
Track 5 accurately ripped (confidence 5) [A5DFC7DB]
Track 6 accurately ripped (confidence 5) [F58C11CF]
Track 7 accurately ripped (confidence 5) [96D89DE2]
Track 8 accurately ripped (confidence 5) [891E608B]
Track 9 accurately ripped (confidence 5) [723CEF0A]
Track 10 accurately ripped (confidence 5) [8376B4ED]
Track 11 accurately ripped (confidence 5) [679C8D9E]

All tracks accurately ripped

End of status report

*****

Exact Audio Copy V0.99 prebeta 4 from 23. January 2008

EAC extraction logfile from 6. July 2008, 18:25

U2 / U2 Go Home - Live From Slane Castle (CD2)

Used drive : TSSTcorpCD/DVDW TS-H552U Adapter: 1 ID: 0

Read mode : Secure
Utilize accurate stream : Yes
Defeat audio cache : Yes
Make use of C2 pointers : No

Read offset correction : 12
Overread into Lead-In and Lead-Out : No
Fill up missing offset samples with silence : Yes
Delete leading and trailing silent blocks : No
Null samples used in CRC calculations : Yes
Used interface : Installed external ASPI interface

Used output format : Internal WAV Routines
Sample format : 44.100 Hz; 16 Bit; Stereo


TOC of the extracted CD

Track | Start | Length | Start sector | End sector
––––––––––––––––––––––––––––-
1 | 0:00.00 | 4:15.59 | 0 | 19183
2 | 4:15.59 | 4:49.36 | 19184 | 40894
3 | 9:05.20 | 5:40.07 | 40895 | 66401
4 | 14:45.27 | 4:58.12 | 66402 | 88763
5 | 19:43.39 | 6:58.42 | 88764 | 120155
6 | 26:42.06 | 6:22.69 | 120156 | 148874
7 | 33:05.00 | 5:08.14 | 148875 | 171988
8 | 38:13.14 | 6:20.60 | 171989 | 200548
9 | 44:33.74 | 6:29.12 | 200549 | 229735


Range status and errors

Selected range

Filename D:\U2 - 2007 - U2 Go Home - Live From Slane Castle (CD2).wav

Peak level 100.0 %
Range quality 100.0 %
Test CRC EFD537DA
Copy CRC EFD537DA
Copy OK

No errors occurred


AccurateRip summary

Track 1 accurately ripped (confidence 5) [EA330554]
Track 2 accurately ripped (confidence 5) [C86FC913]
Track 3 accurately ripped (confidence 5) [CB7B102E]
Track 4 accurately ripped (confidence 6) [9D3E8951]
Track 5 accurately ripped (confidence 5) [B3C400D6]
Track 6 accurately ripped (confidence 5) [C8FEAEAE]
Track 7 accurately ripped (confidence 6) [BE8D6F7E]
Track 8 accurately ripped (confidence 5) [54089C88]
Track 9 accurately ripped (confidence 5) [9223124E]

All tracks accurately ripped

End of status report


[CUETools log; Date: 05/09/2010 04:53:15 p.m.; Version: 2.0.9]
[CTDB TOCID: P73D_q0SvI1tIQXp1KpOiD1aMT8-] found.
[ CTDBID ] Status
[23cf8d3b] (16/16) Accurately ripped
[AccurateRip ID: 0016b00c-00c450c0-9b0c750b] found.
Track [ CRC ] Status
01 [17ade37c] (24/24) Accurately ripped
02 [57d83257] (24/24) Accurately ripped
03 [83a02174] (23/23) Accurately ripped
04 [2e865867] (24/24) Accurately ripped
05 [a5dfc7db] (24/24) Accurately ripped
06 [f58c11cf] (24/24) Accurately ripped
07 [96d89de2] (24/24) Accurately ripped
08 [891e608b] (24/24) Accurately ripped
09 [723cef0a] (24/24) Accurately ripped
10 [8376b4ed] (23/25) Accurately ripped
11 [679c8d9e] (23/25) Accurately ripped

Track Peak [ CRC32 ] [W/O NULL] [ LOG ]
– 100,0 [55F9B5BD] [A7635845] CRC32
01 99,9 [0D73B984] [F565F360]
02 99,9 [EF67DA94] [1E9DD86A]
03 100,0 [FA80C9A5] [6BA1EE40]
04 99,9 [2C38D337] [17A3D756]
05 99,8 [58809289] [76249DE0]
06 100,0 [C5DD442E] [B23A0F0A]
07 90,1 [5471C076] [64009FEB]
08 100,0 [D7F95ECC] [5F60DAB5]
09 100,0 [7948F376] [3F29CBE7]
10 99,8 [FEC0044E] [8F28D598]
11 99,6 [1E8B1180] [A03AAE18]

*****

[CUETools log; Date: 05/09/2010 04:54:35 p.m.; Version: 2.0.9]
[CTDB TOCID: tJeSPQihsHnDfWL_6vdP9skFsRU-] found.
[ CTDBID ] Status
[1512747e] (18/18) Accurately ripped
[AccurateRip ID: 00109456-007bc68c-900bf709] found.
Track [ CRC ] Status
01 [ea330554] (25/25) Accurately ripped
02 [c86fc913] (25/25) Accurately ripped
03 [cb7b102e] (25/25) Accurately ripped
04 [9d3e8951] (25/25) Accurately ripped
05 [b3c400d6] (25/25) Accurately ripped
06 [c8feaeae] (25/25) Accurately ripped
07 [be8d6f7e] (25/25) Accurately ripped
08 [54089c88] (25/25) Accurately ripped
09 [9223124e] (25/25) Accurately ripped

Track Peak [ CRC32 ] [W/O NULL] [ LOG ]
– 100,0 [EFD537DA] [F4B9D39E] CRC32
01 95,6 [46052D77] [652E0835]
02 99,8 [9020F8EC] [10E11EFA]
03 100,0 [5F39CBB3] [3836244B]
04 99,9 [FC1F1F0F] [5579D9FC]
05 100,0 [BFD69916] [9AFE4890]
06 100,0 [8DF9EB03] [4D36387A]
07 99,9 [F23B4714] [4F90D391]
08 100,0 [36E024BA] [42A0F64E]
09 100,0 [AD1BDE86] [CEACBA54]


AUDIOCHECKER v2.0 beta (build 457) - by Dester - opdester@freemail.hu
~~~~~~~~~~~~~~~~~~~~~~~~~~~~~~~~~~
-=== DO NOT EDIT THIS FILE! ===-

Path: …\CD1

1 -=- U2 - 2007 - U2 Go Home - Live From Slane Castle (CD1).flac -=- CDDA (100%)

128299428

*****

AUDIOCHECKER v2.0 beta (build 457) - by Dester - opdester@freemail.hu
~~~~~~~~~~~~~~~~~~~~~~~~~~~~~~~~~~
-=== DO NOT EDIT THIS FILE! ===-

Path: …\CD2

1 -=- U2 - 2007 - U2 Go Home - Live From Slane Castle (CD2).flac -=- CDDA (100%)

127447460



**************************************

U2 - Fan Club Only Releases - Limited Editions Discs (1995-2010)

U2 - Medium, Rare & Remastered (2009)
EAC rip | FLAC, IMG+CUE, LOG | 2 CD -> 561 MB | Scans | RAR 3% Rec | RS + FS
Rock | Label: Mercury | Catalog: U2.COM4 | Country: UK | Year: 2009


Medium, Rare & Remastered is a compilation album of rarities and remastered tracks by the Irish rock band U2. It was released exclusively to subscribing members of U2.com, replacing U2 Go Home: Live From Slane Castle on 22 February 2009. The double CD features tracks that were released as part of The Complete U2 digital box set, the bonus discs on the remastered albums to date, and some readily available single B-sides. The cover art was from the Passengers project in 1995. The original photo featured main U2 producer Brian Eno, who also was involved in this project, but for this album, he was edited out of the photo.

Tracklist:

All songs written and composed by U2, except "Smile" (written by U2 and Simon Carmody), "Beautiful Ghost/Introduction to Songs of Experience" (lyrics by William Blake), "Jesus Christ" (written by Woody Guthrie) and "Neon Lights" (written by Karl Bartos, Ralf Hütter, and Florian Schneider).

Disc 1

01. Levitate (from All That You Can't Leave Behind sessions) (5:09)
02. Love You Like Mad (All That You Can't Leave Behind sessions) (4:17)
03. Smile (from How To Dismantle An Atomic Bomb sessions) (3:17)
04. Flower Child (from All That You Can't Leave Behind sessions) (4:54)
05. Beautiful Ghost/Introduction to Songs of Experience (from The Joshua Tree sessions) (3:56)
06. Jesus Christ (from Rattle and Hum sessions) (3:15)
07. Xanax and Wine (from How To Dismantle An Atomic Bomb sessions) (4:39)
08. All Because of You (alternative version) (3:35)
09. Native Son (from How To Dismantle An Atomic Bomb sessions) (3:08)
10. Yahweh (alternative version) (4:31)
11. Sometimes You Can't Make It On Your Own (alternative version) (5:30)

Disc 2

01. Saturday Night (from Remastered Boy album) (5:13)
02. Trash, Trampoline and the Party Girl (from Remastered October album) (2:36)
03. Angels Too Tied To The Ground (from Remastered War album) (3:34)
04. Wave Of Sorrow (Birdland) (from Remastered The Joshua Tree album) (4:06)
05. Always (b-side to Beautiful Day single) (3:47)
06. Summer Rain (b-side to Beautiful Day single) (4:08)
07. Big Girls Are Best (b-side to Stuck In A Moment You Can't Get Out Of single) (3:37)
08. Neon Lights (b-side to Vertigo single) (4:07)
09. Fast Cars (b-side to Sometimes You Can't Make It single) (3:43)



Album Review:

'U2: Medium, Rare and Remastered' is a limited edition collection of rare tracks and lost early cuts spanning three decades in the studio with U2.

Featuring 'Rare' tracks from the sessions that led to The Joshua Tree, Rattle and Hum, All That You Can't Leave Behind and How To Dismantle an Atomic Bomb. Plus digitally 'Remastered' tracks from the band's early albums, along with hard to get b-sides from 2000 to 2005.

For subscribers only, this double-CD is customised in a U2.Com gate-fold sleeve and will not become commercially available.

Catalog Information:

Country: EU Pressing
Label: Mercury Records
Release Date: February 2009
Format: CD
Catalog: U2.COM4
UPC: None
Package: Cardboard Gatefold
Matrix 1: U2COM4 (1)
Matrix 2: U2COM4 (2)

Tracklist:

All songs written and composed by U2, except "Smile" (written by U2 and Simon Carmody), "Beautiful Ghost/Introduction to Songs of Experience" (lyrics by William Blake), "Jesus Christ" (written by Woody Guthrie) and "Neon Lights" (written by Karl Bartos, Ralf Hütter, and Florian Schneider).

Disc 1

01. Levitate (from All That You Can't Leave Behind sessions) (5:09)
02. Love You Like Mad (All That You Can't Leave Behind sessions) (4:17)
03. Smile (from How To Dismantle An Atomic Bomb sessions) (3:17)
04. Flower Child (from All That You Can't Leave Behind sessions) (4:54)
05. Beautiful Ghost/Introduction to Songs of Experience (from The Joshua Tree sessions) (3:56)
06. Jesus Christ (from Rattle and Hum sessions) (3:15)
07. Xanax and Wine (from How To Dismantle An Atomic Bomb sessions) (4:39)
08. All Because of You (alternative version) (3:35)
09. Native Son (from How To Dismantle An Atomic Bomb sessions) (3:08)
10. Yahweh (alternative version) (4:31)
11. Sometimes You Can't Make It On Your Own (alternative version) (5:30)

Disc 2

01. Saturday Night (from Remastered Boy album) (5:13)
02. Trash, Trampoline and the Party Girl (from Remastered October album) (2:36)
03. Angels Too Tied To The Ground (from Remastered War album) (3:34)
04. Wave Of Sorrow (Birdland) (from Remastered The Joshua Tree album) (4:06)
05. Always (b-side to Beautiful Day single) (3:47)
06. Summer Rain (b-side to Beautiful Day single) (4:08)
07. Big Girls Are Best (b-side to Stuck In A Moment You Can't Get Out Of single) (3:37)
08. Neon Lights (b-side to Vertigo single) (4:07)
09. Fast Cars (b-side to Sometimes You Can't Make It single) (3:43)

Liner Notes:

Project Managers: Jeremy Joseph, Candida Bottaci, Martin Wroe, Sebastian Clayton
Photography by Anton Corbijn
Sleeve by Shaughn McGrath, Four5One Creative, Dublin
Compilation Mastering: Scott Sedillo at Bernie Grundman Mastering
Audio Post Production: Cheryl Engels at Partial Productions

Further Information:

Released only to subscribers of the u2.com website. Not sold in stores.


Exact Audio Copy V0.99 prebeta 4 from 23. January 2008

EAC extraction logfile from 30. April 2009, 14:07

U2 / Medium, Rare & Remastered (CD1)

Used drive : ATAPI DVD A DH20A4P Adapter: 0 ID: 1

Read mode : Secure
Utilize accurate stream : Yes
Defeat audio cache : Yes
Make use of C2 pointers : No

Read offset correction : 6
Overread into Lead-In and Lead-Out : No
Fill up missing offset samples with silence : Yes
Delete leading and trailing silent blocks : No
Null samples used in CRC calculations : Yes
Used interface : Installed external ASPI interface

Used output format : User Defined Encoder
Selected bitrate : 768 kBit/s
Quality : High
Add ID3 tag : No
Command line compressor : C:\Programmi\Exact Audio Copy\FLAC\FLAC.EXE
Additional command line options : -8 -V -T "artist=%a" -T "album=%g" -T "date=%y" -T "genre=%m" %s


TOC of the extracted CD

Track | Start | Length | Start sector | End sector
––––––––––––––––––––––––––––-
1 | 0:00.00 | 5:09.09 | 0 | 23183
2 | 5:09.09 | 4:18.45 | 23184 | 42578
3 | 9:27.54 | 3:18.09 | 42579 | 57437
4 | 12:45.63 | 4:55.73 | 57438 | 79635
5 | 17:41.61 | 3:55.35 | 79636 | 97295
6 | 21:37.21 | 3:13.56 | 97296 | 111826
7 | 24:51.02 | 4:39.23 | 111827 | 132774
8 | 29:30.25 | 3:35.72 | 132775 | 148971
9 | 33:06.22 | 3:09.71 | 148972 | 163217
10 | 36:16.18 | 4:31.43 | 163218 | 183585
11 | 40:47.61 | 5:30.45 | 183586 | 208380


Range status and errors

Selected range

Filename D:\U2 - 2009 - Medium, Rare & Remastered (CD1).wav

Peak level 100.0 %
Range quality 100.0 %
Test CRC 9BB755E4
Copy CRC 9BB755E4
Copy OK

No errors occurred


AccurateRip summary

Track 1 accurately ripped (confidence 3) [ADE0D103]
Track 2 accurately ripped (confidence 3) [2A3672D2]
Track 3 accurately ripped (confidence 3) [B0808AA4]
Track 4 accurately ripped (confidence 3) [549EDEF2]
Track 5 accurately ripped (confidence 3) [949841C5]
Track 6 accurately ripped (confidence 3) [5C0B6F3D]
Track 7 accurately ripped (confidence 3) [771F3F1D]
Track 8 accurately ripped (confidence 3) [427AC29F]
Track 9 accurately ripped (confidence 3) [0B363D53]
Track 10 accurately ripped (confidence 3) [D12A7503]
Track 11 accurately ripped (confidence 3) [0772AEB4]

All tracks accurately ripped

End of status report

*****

Exact Audio Copy V0.99 prebeta 4 from 23. January 2008

EAC extraction logfile from 30. April 2009, 14:56

U2 / Medium, Rare & Remastered (CD2)

Used drive : ATAPI DVD A DH20A4P Adapter: 0 ID: 1

Read mode : Secure
Utilize accurate stream : Yes
Defeat audio cache : Yes
Make use of C2 pointers : No

Read offset correction : 6
Overread into Lead-In and Lead-Out : No
Fill up missing offset samples with silence : Yes
Delete leading and trailing silent blocks : No
Null samples used in CRC calculations : Yes
Used interface : Installed external ASPI interface

Used output format : User Defined Encoder
Selected bitrate : 768 kBit/s
Quality : High
Add ID3 tag : No
Command line compressor : C:\Programmi\Exact Audio Copy\FLAC\FLAC.EXE
Additional command line options : -8 -V -T "artist=%a" -T "album=%g" -T "date=%y" -T "genre=%m" %s


TOC of the extracted CD

Track | Start | Length | Start sector | End sector
––––––––––––––––––––––––––––-
1 | 0:00.00 | 5:12.09 | 0 | 23408
2 | 5:12.09 | 2:35.59 | 23409 | 35092
3 | 7:47.68 | 3:35.26 | 35093 | 51243
4 | 11:23.19 | 4:06.38 | 51244 | 69731
5 | 15:29.57 | 3:48.45 | 69732 | 86876
6 | 19:18.27 | 4:07.67 | 86877 | 105468
7 | 23:26.19 | 3:37.28 | 105469 | 121771
8 | 27:03.47 | 3:30.18 | 121772 | 137539
9 | 30:33.65 | 4:07.18 | 137540 | 156082


Range status and errors

Selected range

Filename D:\U2 - 2009 - Medium, Rare & Remastered (CD2).wav

Peak level 100.0 %
Range quality 100.0 %
Test CRC 3B3B67E5
Copy CRC 3B3B67E5
Copy OK

No errors occurred


AccurateRip summary

Track 1 accurately ripped (confidence 3) [405DC7A9]
Track 2 accurately ripped (confidence 3) [4EF7E2AA]
Track 3 accurately ripped (confidence 3) [426BF83D]
Track 4 accurately ripped (confidence 3) [F3E4D67B]
Track 5 accurately ripped (confidence 3) [7809E968]
Track 6 accurately ripped (confidence 3) [B24EE830]
Track 7 accurately ripped (confidence 3) [90B66B74]
Track 8 accurately ripped (confidence 3) [EF723559]
Track 9 accurately ripped (confidence 3) [A615FFED]

All tracks accurately ripped

End of status report


[CUETools log; Date: 05/09/2010 04:55:50 p.m.; Version: 2.0.9]
[CTDB TOCID: boVRZZ_t06kpKJGMmZpLO7zSC_Q-] found.
[ CTDBID ] Status
[ac7de763] (37/37) Accurately ripped
[AccurateRip ID: 00130e7c-00a3a1a5-af0ada0b] found.
Track [ CRC ] Status
01 [ade0d103] (45/45) Accurately ripped
02 [2a3672d2] (45/45) Accurately ripped
03 [b0808aa4] (45/45) Accurately ripped
04 [549edef2] (45/45) Accurately ripped
05 [949841c5] (45/45) Accurately ripped
06 [5c0b6f3d] (45/45) Accurately ripped
07 [771f3f1d] (45/45) Accurately ripped
08 [427ac29f] (45/45) Accurately ripped
09 [0b363d53] (44/44) Accurately ripped
10 [d12a7503] (45/45) Accurately ripped
11 [0772aeb4] (46/46) Accurately ripped

Track Peak [ CRC32 ] [W/O NULL] [ LOG ]
– 100,0 [9BB755E4] [3AAAB40B] CRC32
01 99,9 [965313ED] [6EA958A7]
02 100,0 [A2FC8986] [289F7E66]
03 100,0 [52744A4C] [9365155E]
04 100,0 [0D17A824] [B9BE4AE8]
05 96,3 [66744CDC] [A0F21976]
06 100,0 [61F7C9D7] [FE5A480B]
07 100,0 [DA2C40D9] [E9BBA5CD]
08 99,8 [E69B3A5C] [3B6DFDF9]
09 94,3 [1419A45B] [5290F932]
10 94,4 [40B3977A] [5A19370A]
11 100,0 [D965068F] [CF32633B]

*****

[CUETools log; Date: 05/09/2010 04:56:35 p.m.; Version: 2.0.9]
[CTDB TOCID: XmzqCvbPk3VooJeYkWKzSpRo.ak-] disk not present in database.
[AccurateRip ID: 000c0313-00578ea1-71082109] found.
Track [ CRC ] Status
01 [405dc7a9] (43/43) Accurately ripped
02 [4ef7e2aa] (44/44) Accurately ripped
03 [426bf83d] (43/43) Accurately ripped
04 [f3e4d67b] (43/43) Accurately ripped
05 [7809e968] (43/43) Accurately ripped
06 [b24ee830] (43/43) Accurately ripped
07 [90b66b74] (43/43) Accurately ripped
08 [ef723559] (43/43) Accurately ripped
09 [a615ffed] (44/44) Accurately ripped

Track Peak [ CRC32 ] [W/O NULL] [ LOG ]
– 100,0 [3B3B67E5] [42A2AE24] CRC32
01 100,0 [C99A1861] [20552534]
02 100,0 [A49789B6] [C4BD4333]
03 98,0 [CA74D4C4] [C31FA6F5]
04 100,0 [C8A3141C] [26C1FCAA]
05 93,3 [76DA0D17] [AC222477]
06 100,0 [C490FE28] [73E638FA]
07 90,1 [11A238EA] [5B065B94]
08 98,8 [4906A39F] [7F5BF04F]
09 98,8 [7CAC29FC] [A8EF89B7]


AUDIOCHECKER v2.0 beta (build 457) - by Dester - opdester@freemail.hu
~~~~~~~~~~~~~~~~~~~~~~~~~~~~~~~~~~
-=== DO NOT EDIT THIS FILE! ===-

Path: …\CD1

1 -=- U2 - 2009 - U2 Medium, Rare & Remastered (CD1).flac -=- CDDA (100%)

97872052

*****

AUDIOCHECKER v2.0 beta (build 457) - by Dester - opdester@freemail.hu
~~~~~~~~~~~~~~~~~~~~~~~~~~~~~~~~~~
-=== DO NOT EDIT THIS FILE! ===-

Path: …\CD2

1 -=- U2 - 2009 - U2 Medium, Rare & Remastered (CD2).flac -=- CDDA (100%)

101214388



**************************************

U2 - Fan Club Only Releases - Limited Editions Discs (1995-2010)

U2 - Artificial Horizon (2010)
EAC rip | FLAC, Individual Tracks, LOG | 1 CD -> 494 MB | Scans | RAR 3% Rec | RS + FS
Dance | Label: Mercury | Catalog: U2.COM5 | Country: UK | Year: 2010


Artificial Horizon is a compilation album of remixed tracks by rock band U2. It was released exclusively to subscribing members of U2.com, replacing Medium, Rare & Remastered. The remix CD is of a similar vein to the band's 1995 release Melon: Remixes for Propaganda, which was also released exclusively to fans. A triple-vinyl edition was released to the general public until 14 May 2010; this version included a download only MP3 for the Snow Patrol remix of the song "Unknown Caller".

Tracklist:

01. Elevation (Influx Mix) (4:04)
02. Fast Cars (Jacknife Lee Mix) (3:30)
03. Get On Your Boots (Fish Out Of Water Mix) (3:47)
04. Vertigo (Trent Reznor Remix) (3:39)
05. Magnificent (Falke Radio Mix) (4:02)
06. I'll Go Crazy If I Don't Go Crazy Tonight (Live U2360° Remix) (6:47)
07. Beautiful Day (David Holmes Remix) (5:37)
08. Staring At The Sun (Monster Truck Remix) (5:09)
09. Happiness Is A Warm Gun (Danny Saber Mix) (4:54)
10. Get On Your Boots (Justice Remix) (3:29)
11. City Of Blinding Lights (Hot Chip 2006 Remix) (6:19)
12. If God Will Send His Angels (Grand Jury Mix) (5:46)
13. Staring At The Sun (Brothers in Rhythm Ambient Mix) (5:29)



Album Review:

Running to 60 minutes, this limited edition remix collection was released exclusively to U2.com subscribers in 2010.

Featuring 13 tracks remixed by some of the world's leading DJs and producers. Artificial Horizon stretching from If God Will Send His Angels (from 1997's 'Pop') to Get On Your Boots (from 2009's 'No Line On The Horizon') and includes three never-before released tracks: I'll Go Crazy If I Don't Go Crazy Tonight (Live U2360 Remix); City Of Blinding Lights (Hot Chip 2006 Remix); and Get On Your Boots (Fish Out Of Water Mix); as well as two tracks with very restricted previous release: 'Staring At The Sun (Brothers in Rhythm Ambient Mix) and Magnificent (Falke Radio Mix).

Footnote: while the Artificial Horizon collection on CD was only available as a gift to subscribers, a triple vinyl set of the same collection was made commercially available for two months until May 2010.

Catalog Information:

Country: EU Pressing
Label: Mercury Records
Release Date: May 2010
Format: CD
Catalog: U2.COM5
UPC: None
Package: Cardboard Gatefold
Matrix: U2COM5

Tracklist:

01. Elevation (Influx Mix) (4:04)
02. Fast Cars (Jacknife Lee Mix) (3:30)
03. Get On Your Boots (Fish Out Of Water Mix) (3:47)
04. Vertigo (Trent Reznor Remix) (3:39)
05. Magnificent (Falke Radio Mix) (4:02)
06. I'll Go Crazy If I Don't Go Crazy Tonight (Live U2360° Remix) (6:47)
07. Beautiful Day (David Holmes Remix) (5:37)
08. Staring At The Sun (Monster Truck Remix) (5:09)
09. Happiness Is A Warm Gun (Danny Saber Mix) (4:54)
10. Get On Your Boots (Justice Remix) (3:29)
11. City Of Blinding Lights (Hot Chip 2006 Remix) (6:19)
12. If God Will Send His Angels (Grand Jury Mix) (5:46)
13. Staring At The Sun (Brothers in Rhythm Ambient Mix) (5:29)

Liner Notes:

All titles (except Track 9) written by U2 and published by Universal Music Publishing BV.
Track 6: "Relax" and "Two Tribes", Gill/Johnson/O'Toole, Perfect Songs Ltd.
Project Manager: Jeremy Joseph
Album Co-ordinator: Candida Bottaci and Declan Gaffney
Compilation Mastering: Scott Sedillo at Bernie Grundman Mastering
Audio Post Production: Cheryl Engels at Partial Productions
Sleeve design: Shaughn McGrath

Further Information:

Released only to subscribers of the u2.com website. Not sold in stores.


X Lossless Decoder version 20100302 (116.6)

XLD extraction logfile from 2010-03-09 12:48:37 -0500

U2 / Artificial Horizon

Used drive : MATSHITA DVD-R UJ-875 (revision DA09)

Use cdparanoia mode : YES (CDParanoia III 10.2 engine)
Disable audio cache : OK for the drive with cache less than 2750KB
Make use of C2 pointers : NO
Read offset correction : 102
Max retry count : 100

TOC of the extracted CD
Track | Start | Length | Start sector | End sector
––––––––––––––––––––––––––––-
1 | 00:00:00 | 04:04:01 | 0 | 18300
2 | 04:04:01 | 03:30:21 | 18301 | 34071
3 | 07:34:22 | 03:46:53 | 34072 | 51074
4 | 11:21:00 | 03:38:73 | 51075 | 67497
5 | 14:59:73 | 04:01:49 | 67498 | 85621
6 | 19:01:47 | 06:46:71 | 85622 | 116142
7 | 25:48:43 | 05:36:61 | 116143 | 141403
8 | 31:25:29 | 05:09:32 | 141404 | 164610
9 | 36:34:61 | 04:53:38 | 164611 | 186623
10 | 41:28:24 | 03:29:03 | 186624 | 202301
11 | 44:57:27 | 06:19:20 | 202302 | 230746
12 | 51:16:47 | 05:46:19 | 230747 | 256715
13 | 57:02:66 | 05:28:51 | 256716 | 281366

All Tracks
Album gain : -8.82 dB
Peak : 1.000000

Track 01
Filename : /Users/TeamHCN/Music/01 - Elevation (Influx Mix).flac

Pre-gap length : 00:02:00

Track gain : -7.46 dB
Peak : 0.767334
CRC32 hash (test run) : A360BF90
CRC32 hash : A360BF90
CRC32 hash (skip zero) : 06889BFB
AccurateRip signature : 05ECB47B
->Track not present in AccurateRip database.
Statistics
Read error : 0
Skipped (treated as error) : 0
Edge jitter error (maybe fixed) : 0
Atom jitter error (maybe fixed) : 0
Drift error (maybe fixed) : 0
Dropped bytes error (maybe fixed) : 0
Duplicated bytes error (maybe fixed) : 0
Inconsistency in error sectors : 0

Track 02
Filename : /Users/TeamHCN/Music/02 - Fast Cars (Jacknife Lee Mix).flac

Pre-gap length : 00:01:52

Track gain : -7.02 dB
Peak : 0.785217
CRC32 hash (test run) : 6ACC7806
CRC32 hash : 6ACC7806
CRC32 hash (skip zero) : 7FC6B280
AccurateRip signature : 5779E918
->Track not present in AccurateRip database.
Statistics
Read error : 0
Skipped (treated as error) : 0
Edge jitter error (maybe fixed) : 0
Atom jitter error (maybe fixed) : 0
Drift error (maybe fixed) : 0
Dropped bytes error (maybe fixed) : 0
Duplicated bytes error (maybe fixed) : 0
Inconsistency in error sectors : 0

Track 03
Filename : /Users/TeamHCN/Music/03 - Get On Your Boots (Fish Out Of Water Mix).flac

Pre-gap length : 00:02:41

Track gain : -7.83 dB
Peak : 1.000000
CRC32 hash (test run) : 99B2AA88
CRC32 hash : 99B2AA88
CRC32 hash (skip zero) : 21994461
AccurateRip signature : 25259A61
->Track not present in AccurateRip database.
Statistics
Read error : 0
Skipped (treated as error) : 0
Edge jitter error (maybe fixed) : 0
Atom jitter error (maybe fixed) : 0
Drift error (maybe fixed) : 0
Dropped bytes error (maybe fixed) : 0
Duplicated bytes error (maybe fixed) : 0
Inconsistency in error sectors : 0

Track 04
Filename : /Users/TeamHCN/Music/04 - Vertigo (Trent Reznor Remix).flac

Pre-gap length : 00:03:32

Track gain : -8.13 dB
Peak : 0.988586
CRC32 hash (test run) : 4CEB15E8
CRC32 hash : 4CEB15E8
CRC32 hash (skip zero) : E32D0025
AccurateRip signature : 164AF584
->Track not present in AccurateRip database.
Statistics
Read error : 0
Skipped (treated as error) : 0
Edge jitter error (maybe fixed) : 0
Atom jitter error (maybe fixed) : 0
Drift error (maybe fixed) : 0
Dropped bytes error (maybe fixed) : 0
Duplicated bytes error (maybe fixed) : 0
Inconsistency in error sectors : 0

Track 05
Filename : /Users/TeamHCN/Music/05 - Magnificent (Falke Radio Mix).flac

Pre-gap length : 00:03:12

Track gain : -8.56 dB
Peak : 0.988525
CRC32 hash (test run) : F31FE470
CRC32 hash : F31FE470
CRC32 hash (skip zero) : 2F6A6743
AccurateRip signature : 339CB131
->Track not present in AccurateRip database.
Statistics
Read error : 0
Skipped (treated as error) : 0
Edge jitter error (maybe fixed) : 0
Atom jitter error (maybe fixed) : 0
Drift error (maybe fixed) : 0
Dropped bytes error (maybe fixed) : 0
Duplicated bytes error (maybe fixed) : 0
Inconsistency in error sectors : 0

Track 06
Filename : /Users/TeamHCN/Music/06 - I'll Go Crazy If I Don't Go Crazy Tonight (Live U2360 Remix).flac

Pre-gap length : 00:02:60

Track gain : -9.39 dB
Peak : 1.000000
CRC32 hash (test run) : 7D6B550A
CRC32 hash : 7D6B550A
CRC32 hash (skip zero) : 9993933B
AccurateRip signature : D17F5930
->Track not present in AccurateRip database.
Statistics
Read error : 0
Skipped (treated as error) : 0
Edge jitter error (maybe fixed) : 0
Atom jitter error (maybe fixed) : 0
Drift error (maybe fixed) : 0
Dropped bytes error (maybe fixed) : 0
Duplicated bytes error (maybe fixed) : 0
Inconsistency in error sectors : 0

Track 07
Filename : /Users/TeamHCN/Music/07 - Beautiful Day (David Holmes Remix).flac

Pre-gap length : 00:02:39

Track gain : -10.59 dB
Peak : 0.946167
CRC32 hash (test run) : EB332D37
CRC32 hash : EB332D37
CRC32 hash (skip zero) : D0D47A40
AccurateRip signature : D7D285D3
->Track not present in AccurateRip database.
Statistics
Read error : 0
Skipped (treated as error) : 0
Edge jitter error (maybe fixed) : 0
Atom jitter error (maybe fixed) : 0
Drift error (maybe fixed) : 0
Dropped bytes error (maybe fixed) : 0
Duplicated bytes error (maybe fixed) : 0
Inconsistency in error sectors : 0

Track 08
Filename : /Users/TeamHCN/Music/08 - Staring At The Sun (Monster Truck Remix).flac

Pre-gap length : 00:01:15

Track gain : -8.28 dB
Peak : 0.987427
CRC32 hash (test run) : EFC9D022
CRC32 hash : EFC9D022
CRC32 hash (skip zero) : 90148CBC
AccurateRip signature : F1843B3E
->Track not present in AccurateRip database.
Statistics
Read error : 0
Skipped (treated as error) : 0
Edge jitter error (maybe fixed) : 0
Atom jitter error (maybe fixed) : 0
Drift error (maybe fixed) : 0
Dropped bytes error (maybe fixed) : 0
Duplicated bytes error (maybe fixed) : 0
Inconsistency in error sectors : 0

Track 09
Filename : /Users/TeamHCN/Music/09 - Happiness Is A Warm Gun (Danny Saber Mix).flac

Pre-gap length : 00:02:25

Track gain : -7.65 dB
Peak : 1.000000
CRC32 hash (test run) : 2DD5F965
CRC32 hash : 2DD5F965
CRC32 hash (skip zero) : 887D3857
AccurateRip signature : C78E6450
->Track not present in AccurateRip database.
Statistics
Read error : 0
Skipped (treated as error) : 0
Edge jitter error (maybe fixed) : 0
Atom jitter error (maybe fixed) : 0
Drift error (maybe fixed) : 0
Dropped bytes error (maybe fixed) : 0
Duplicated bytes error (maybe fixed) : 0
Inconsistency in error sectors : 0

Track 10
Filename : /Users/TeamHCN/Music/10 - Get On Your Boots (Justice Remix).flac

Pre-gap length : 00:02:11

Track gain : -6.31 dB
Peak : 0.901550
CRC32 hash (test run) : 0BFFA4ED
CRC32 hash : 0BFFA4ED
CRC32 hash (skip zero) : A69BA3CC
AccurateRip signature : 9992DC1E
->Track not present in AccurateRip database.
Statistics
Read error : 0
Skipped (treated as error) : 0
Edge jitter error (maybe fixed) : 0
Atom jitter error (maybe fixed) : 0
Drift error (maybe fixed) : 0
Dropped bytes error (maybe fixed) : 0
Duplicated bytes error (maybe fixed) : 0
Inconsistency in error sectors : 0

Track 11
Filename : /Users/TeamHCN/Music/11 - City Of Blinding Lights (Hot Chip 2006 Remix).flac

Pre-gap length : 00:02:62

Track gain : -7.92 dB
Peak : 1.000000
CRC32 hash (test run) : 8B2CA04E
CRC32 hash : 8B2CA04E
CRC32 hash (skip zero) : 4F20DF6D
AccurateRip signature : 8B7147AC
->Track not present in AccurateRip database.
Statistics
Read error : 0
Skipped (treated as error) : 0
Edge jitter error (maybe fixed) : 0
Atom jitter error (maybe fixed) : 0
Drift error (maybe fixed) : 0
Dropped bytes error (maybe fixed) : 0
Duplicated bytes error (maybe fixed) : 0
Inconsistency in error sectors : 0

Track 12
Filename : /Users/TeamHCN/Music/12 - If God Will Send His Angels (Grand Jury Mix).flac

Pre-gap length : 00:02:42

Track gain : -5.60 dB
Peak : 1.000000
CRC32 hash (test run) : F12504C8
CRC32 hash : F12504C8
CRC32 hash (skip zero) : 31AE7D2B
AccurateRip signature : 25660125
->Track not present in AccurateRip database.
Statistics
Read error : 0
Skipped (treated as error) : 0
Edge jitter error (maybe fixed) : 0
Atom jitter error (maybe fixed) : 0
Drift error (maybe fixed) : 0
Dropped bytes error (maybe fixed) : 0
Duplicated bytes error (maybe fixed) : 0
Inconsistency in error sectors : 0

Track 13
Filename : /Users/TeamHCN/Music/13 - Staring At The Sun (Brothers In Rythym Ambient Mix).flac

Pre-gap length : 00:01:24

Track gain : -8.32 dB
Peak : 0.979736
CRC32 hash (test run) : 5A012BF3
CRC32 hash : 5A012BF3
CRC32 hash (skip zero) : 16970AFD
AccurateRip signature : 646C296A
->Track not present in AccurateRip database.
Statistics
Read error : 0
Skipped (treated as error) : 0
Edge jitter error (maybe fixed) : 0
Atom jitter error (maybe fixed) : 0
Drift error (maybe fixed) : 0
Dropped bytes error (maybe fixed) : 0
Duplicated bytes error (maybe fixed) : 0
Inconsistency in error sectors : 0

No errors occurred

End of status report


[CUETools log; Date: 05/09/2010 04:58:16 p.m.; Version: 2.0.9]
[CTDB TOCID: wUX.20C1A_BywWP7Vbgw2.v40qU-] disk not present in database.
[AccurateRip ID: 001c05c2-011e35b5-be0ea70d] found.
Track [ CRC ] Status
01 [05ecb47b] (27/27) Accurately ripped
02 [5779e918] (27/27) Accurately ripped
03 [25259a61] (27/27) Accurately ripped
04 [164af584] (27/27) Accurately ripped
05 [339cb131] (27/27) Accurately ripped
06 [d17f5930] (27/27) Accurately ripped
07 [d7d285d3] (27/27) Accurately ripped
08 [f1843b3e] (27/27) Accurately ripped
09 [c78e6450] (27/27) Accurately ripped
10 [9992dc1e] (26/26) Accurately ripped
11 [8b7147ac] (25/25) Accurately ripped
12 [25660125] (24/24) Accurately ripped
13 [646c296a] (22/22) Accurately ripped

Track Peak [ CRC32 ] [W/O NULL]
– 100,0 [3E704534] [903134CD]
01 76,7 [A360BF90] [06889BFB]
02 78,5 [6ACC7806] [7FC6B280]
03 100,0 [99B2AA88] [21994461]
04 98,8 [4CEB15E8] [E32D0025]
05 98,8 [F31FE470] [2F6A6743]
06 100,0 [7D6B550A] [9993933B]
07 94,6 [EB332D37] [D0D47A40]
08 98,7 [EFC9D022] [90148CBC]
09 100,0 [2DD5F965] [887D3857]
10 90,1 [0BFFA4ED] [A69BA3CC]
11 100,0 [8B2CA04E] [4F20DF6D]
12 100,0 [F12504C8] [31AE7D2B]
13 97,9 [5A012BF3] [16970AFD]


AUDIOCHECKER v1.2 - by Dester - opdester@freemail.hu
~~~~~~~~~~~~~~~~~

Started at: среда, 10. 03. 2010. - 14:00.53

13 files found

01 -===- F:\Music\Раздачи audio\U2 - Artificial Horizon 2010 (Flac lossless)\01 - Elevation (Influx Mix).flac
Extracted successfully
Conclusion: This track looks like CDDA with probability 100%
Tempfile successfully deleted.

02 -===- F:\Music\Раздачи audio\U2 - Artificial Horizon 2010 (Flac lossless)\02 - Fast Cars (Jacknife Lee Mix).flac
Extracted successfully
Conclusion: This track looks like CDDA with probability 100%
Tempfile successfully deleted.

03 -===- F:\Music\Раздачи audio\U2 - Artificial Horizon 2010 (Flac lossless)\03 - Get On Your Boots (Fish Out Of Water Mix).flac
Extracted successfully
Conclusion: This track looks like CDDA with probability 100%
Tempfile successfully deleted.

04 -===- F:\Music\Раздачи audio\U2 - Artificial Horizon 2010 (Flac lossless)\04 - Vertigo (Trent Reznor Remix).flac
Extracted successfully
Conclusion: This track looks like CDDA with probability 100%
Tempfile successfully deleted.

05 -===- F:\Music\Раздачи audio\U2 - Artificial Horizon 2010 (Flac lossless)\05 - Magnificent (Falke Radio Mix).flac
Extracted successfully
Conclusion: This track looks like CDDA with probability 100%
Tempfile successfully deleted.

06 -===- F:\Music\Раздачи audio\U2 - Artificial Horizon 2010 (Flac lossless)\06 - I'll Go Crazy If I Don't Go Crazy Tonight (Live U2360 Remix).flac
Extracted successfully
Conclusion: This track looks like CDDA with probability 100%
Tempfile successfully deleted.

07 -===- F:\Music\Раздачи audio\U2 - Artificial Horizon 2010 (Flac lossless)\07 - Beautiful Day (David Holmes Remix).flac
Extracted successfully
Conclusion: This track looks like CDDA with probability 99%
Tempfile successfully deleted.

08 -===- F:\Music\Раздачи audio\U2 - Artificial Horizon 2010 (Flac lossless)\08 - Staring At The Sun (Monster Truck Remix).flac
Extracted successfully
Conclusion: This track looks like CDDA with probability 100%
Tempfile successfully deleted.

09 -===- F:\Music\Раздачи audio\U2 - Artificial Horizon 2010 (Flac lossless)\09 - Happiness Is A Warm Gun (Danny Saber Mix).flac
Extracted successfully
Conclusion: This track looks like CDDA with probability 99%
Tempfile successfully deleted.

10 -===- F:\Music\Раздачи audio\U2 - Artificial Horizon 2010 (Flac lossless)\10 - Get On Your Boots (Justice Remix).flac
Extracted successfully
Conclusion: This track looks like CDDA with probability 99%
Tempfile successfully deleted.

11 -===- F:\Music\Раздачи audio\U2 - Artificial Horizon 2010 (Flac lossless)\11 - City Of Blinding Lights (Hot Chip 2006 Remix).flac
Extracted successfully
Conclusion: This track looks like CDDA with probability 100%
Tempfile successfully deleted.

12 -===- F:\Music\Раздачи audio\U2 - Artificial Horizon 2010 (Flac lossless)\12 - If God Will Send His Angels (Grand Jury Mix).flac
Extracted successfully
Conclusion: This track looks like CDDA with probability 100%
Tempfile successfully deleted.

13 -===- F:\Music\Раздачи audio\U2 - Artificial Horizon 2010 (Flac lossless)\13 - Staring At The Sun (Brothers In Rythym Ambient Mix).flac
Extracted successfully
Conclusion: This track looks like CDDA with probability 99%
Tempfile successfully deleted.

Finished at: среда, 10. 03. 2010. - 14:13.04 (operation time: 0:12.11)




U2 - Fan Club Only Releases - Limited Editions Discs (1995-2010)


+ + + Download Links + + +


1995. Melon (Remixes for Propaganda)
RS = Part 1 | Part 2
FS = Part 1 | Part 2

2000. Hasta La Vista Baby! (Live from Mexico City)
RS = Part 1 | Part 2
FS = Part 1 | Part 2

2005. U2.Communication
RS = Part 1 | Part 2
FS = Part 1 | Part 2

2006. Zoo TV Live (Live from Sydney)
RS = Part 1 | Part 2 | Part 3
FS = Part 1 | Part 2 | Part 3

2007. Go Home (Live from Slane Castle)
RS = Part 1 | Part 2 | Part 3
FS = Part 1 | Part 2 | Part 3

2009. Medium, Rare & Remastered
RS = Part 1 | Part 2
FS = Part 1 | Part 2

2010. Artificial Horizon
RS = Part 1 | Part 2
FS = Part 1 | Part 2

––-
pass:
www.AvaxHome.ru_by_gonzalo76

(links are interchangeable)


Please, no mirrors !
To keep this post longer alive, please don't post the links and pass in other sites.
Other users will be thankful for that !


Thank you very much.
Enjoy,
Gonzalo



NOTE:
Except for "Hasta La Vista Baby", these are not my rips.
All thanks goes to:
mithridat for "Melon"
sgrigua for "U2.Communication", "Zoo TV Live", "U2 Go Home", "Medium, Rare & Remastered"
Seedbox for "Artificial Horizon".