Subcategories
Tags
Language
Tags

UFO - Strangers In The Night (Deluxe Edition) (1979/2020)

Posted By: delpotro
UFO - Strangers In The Night (Deluxe Edition) (1979/2020)

UFO - Strangers In The Night (Deluxe Edition) (1979/2020)
XLD Rip | FLAC (tracks+log+.cue) - 3,4 Gb | MP3 CBR 320 kbps - 1,1 Gb | 08:22:17
Hard Rock | Label: Chrysalis Records

English rock band UFO‘s 1979 live album Strangers in the Night is being reissued as an 8CD deluxe edition in November.

Capturing the band at the peak of their powers the original double album was compiled from recordings made at six shows during in October 1978 on an American tour. This new 8CD box set includes all six complete original concerts for the first time (five previously unreleased) as well as a newly remastered version of the original album (across two CDs). Four of the shows have actually been newly mixed from the original tapes.
Tracklist:
Disc 1 (01:08:48)
1. Natural Thing (2020 Remaster) (03:51)
2. Out In The Street (2020 Remaster) (05:16)
3. Only You Can Rock Me (2020 Remaster) (04:08)
4. Doctor Doctor (2020 Remaster) (04:38)
5. Mother Mary (2020 Remaster) (03:25)
6. This Kid's (2020 Remaster) (05:12)
7. Love To Love (2020 Remaster) (08:01)
8. Lights Out (2020 Remaster) (05:32)
9. Rock Bottom (2020 Remaster) (11:06)
10. Too Hot To Handle (2020 Remaster) (04:27)
11. I'm A Loser (2020 Remaster) (04:14)
12. Let It Roll (2020 Remaster) (04:49)
13. Shoot Shoot (2020 Remaster) (04:09)

Disc 2 (01:05:09)
1. Hot 'N' Ready (Live in Chicago, 13/10/78) (03:54)
2. Pack It Up (And Go) (Live in Chicago, 13/10/78) (03:14)
3. Cherry (Live in Chicago, 13/10/78) (03:32)
4. Let It Roll (Live in Chicago, 13/10/78) (04:29)
5. Love To Love (Live in Chicago, 13/10/78) (08:00)
6. Only You Can Rock Me (Live in Chicago, 13/10/78) (04:14)
7. Ain't No Baby (Live in Chicago, 13/10/78) (04:07)
8. Out In The Street (Live in Chicago, 13/10/78) (05:03)
9. Doctor Doctor (Live in Chicago, 13/10/78) (04:51)
10. Lights Out (Live in Chicago, 13/10/78) (05:11)
11. Rock Bottom (Live in Chicago, 13/10/78) (10:12)
12. Too Hot To Handle (Live in Chicago, 13/10/78) (04:24)
13. Shoot Shoot (Live in Chicago, 13/10/78) (03:58)

Disc 3 (01:01:36)
1. Hot 'N' Ready (Live in Wisconsin, 14/10/78) (03:34)
2. Pack It Up (And Go) (Live in Wisconsin, 14/10/78) (03:15)
3. Cherry (Live in Wisconsin, 14/10/78) (03:46)
4. Let It Roll (Live in Wisconsin, 14/10/78) (04:40)
5. Love To Love (Live in Wisconsin, 14/10/78) (07:45)
6. Only You Can Rock Me (Live in Wisconsin, 14/10/78) (04:02)
7. Ain't No Baby (Live in Wisconsin, 14/10/78) (04:13)
8. Out In The Street (Live in Wisconsin, 14/10/78) (05:00)
9. Doctor Doctor (Live in Wisconsin, 14/10/78) (04:52)
10. Lights Out (Live in Wisconsin, 14/10/78) (05:02)
11. Rock Bottom (Live in Wisconsin, 14/10/78) (10:57)
12. Too Hot To Handle (Live in Wisconsin, 14/10/78) (04:30)

Disc 4 (01:09:49)
1. Intro / Hot 'N' Ready (Live in Youngstown, 15/10/1978) (03:48)
2. Pack It Up (And Go) (Live in Youngstown, 15/10/1978) (03:38)
3. Cherry (Live in Youngstown, 15/10/1978) (03:41)
4. Let It Roll (Live in Youngstown, 15/10/1978) (04:41)
5. Love To Love (Live in Youngstown, 15/10/1978) (07:54)
6. Natural Thing (Live in Youngstown, 15/10/1978) (03:26)
7. Out On The Street (Live in Youngstown, 15/10/1978) (05:07)
8. Only You Can Rock Me (Live in Youngstown, 15/10/1978) (04:05)
9. On With The Action (Live in Youngstown, 15/10/1978) (04:47)
10. Doctor Doctor (Live in Youngstown, 15/10/1978) (04:51)
11. Lights Out (Live in Youngstown, 15/10/1978) (05:08)
12. Rock Bottom (Live in Youngstown, 15/10/1978) (10:23)
13. Too Hot To Handle (Live in Youngstown, 15/10/1978) (04:34)
14. Shoot Shoot (Live in Youngstown, 15/10/1978) (03:46)

Disc 5 (01:18:00)
1. Hot 'N' Ready (Live in Cleveland, Ohio, 16/10/78) (03:56)
2. Pack It Up (And Go) (Live in Cleveland, Ohio, 16/10/78) (03:21)
3. Cherry (Live in Cleveland, Ohio, 16/10/78) (03:59)
4. Let It Roll (Live in Cleveland, Ohio, 16/10/78) (04:46)
5. Love To Love (Live in Cleveland, Ohio, 16/10/78) (08:23)
6. Natural Thing (Live in Cleveland, Ohio, 16/10/78) (03:32)
7. Out In The Street (Live in Cleveland, Ohio, 16/10/78) (05:15)
8. Only You Can Rock Me (Live in Cleveland, Ohio, 16/10/78) (04:15)
9. On With The Action (Live in Cleveland, Ohio, 16/10/78) (04:55)
10. Doctor Doctor (Live in Cleveland, Ohio, 16/10/78) (04:50)
11. I'm A Loser (Live in Cleveland, Ohio, 16/10/78) (04:12)
12. Lights Out (Live in Cleveland, Ohio, 16/10/78) (05:25)
13. Rock Bottom (Live in Cleveland, Ohio, 16/10/78) (11:24)
14. Too Hot To Handle (Live in Cleveland, Ohio, 16/10/78) (05:40)
15. Shoot Shoot (Live in Cleveland, Ohio, 16/10/78) (04:07)

Disc 6 (01:19:39)
1. Hot 'N' Ready (Live in Columbus, Ohio, 17/10/78) (03:50)
2. Pack It Up (And Go) (Live in Columbus, Ohio, 17/10/78) (03:35)
3. Cherry (Live in Columbus, Ohio, 17/10/78) (03:59)
4. Let It Roll (Live in Columbus, Ohio, 17/10/78) (05:06)
5. Love To Love (Live in Columbus, Ohio, 17/10/78) (08:42)
6. Natural Thing (Live in Columbus, Ohio, 17/10/78) (03:55)
7. Out In The Street (Live in Columbus, Ohio, 17/10/78) (05:43)
8. Too Hot To Handle (Live in Columbus, Ohio, 17/10/78) (05:37)
9. I'm A Loser (Live in Columbus, Ohio, 17/10/78) (04:44)
10. On With The Action (Live in Columbus, Ohio, 17/10/78) (05:03)
11. Doctor Doctor (Live in Columbus, Ohio, 17/10/78) (05:29)
12. Lights Out (Live in Columbus, Ohio, 17/10/78) (05:47)
13. Rock Bottom (Live in Columbus, Ohio, 17/10/78) (13:58)
14. Shoot Shoot (Live in Columbus, Ohio, 17/10/78) (04:11)

Disc 7 (01:18:30)
1. Hot 'N' Ready (Live In Louisville, 18/10/78) (03:46)
2. Pack It Up (And Go) (Live In Louisville, 18/10/78) (03:29)
3. Cherry (Live In Louisville, 18/10/78) (04:06)
4. Let It Roll (Live In Louisville, 18/10/78) (04:46)
5. Love To Love (Live In Louisville, 18/10/78) (08:07)
6. Natural Thing (Live In Louisville, 18/10/78) (03:38)
7. Out In The Street (Live In Louisville, 18/10/78) (05:32)
8. Only You Can Rock Me (Live In Louisville, 18/10/78) (04:32)
9. On With The Action (Live In Louisville, 18/10/78) (05:18)
10. Doctor Doctor (Live In Louisville, 18/10/78) (05:05)
11. I'm A Loser (Live In Louisville, 18/10/78) (04:25)
12. Lights Out (Live In Louisville, 18/10/78) (05:50)
13. Rock Bottom (Live In Louisville, 18/10/78) (11:17)
14. Too Hot To Handle (Live In Louisville, 18/10/78) (04:31)
15. Shoot Shoot (Live In Louisville, 18/10/78) (04:08)

X Lossless Decoder version 20191004 (152.0)

XLD extraction logfile from 2020-11-20 18:08:36 +0000

UFO / Strangers In The Night CD1

Used drive : MATSHITA BD-MLT UJ240AF (revision 1.00)
Media type : Pressed CD

Ripper mode : XLD Secure Ripper
Disable audio cache : OK for the drive with a cache less than 1375KiB
Make use of C2 pointers : NO
Read offset correction : 103
Max retry count : 25
Gap status : Analyzed, Appended (except HTOA)

TOC of the extracted CD
Track | Start | Length | Start sector | End sector
––––––––––––––––––––––––––––-
1 | 00:00:00 | 03:51:19 | 0 | 17343
2 | 03:51:19 | 05:16:00 | 17344 | 41043
3 | 09:07:19 | 04:08:68 | 41044 | 59711
4 | 13:16:12 | 04:38:68 | 59712 | 80629
5 | 17:55:05 | 03:25:21 | 80630 | 96025
6 | 21:20:26 | 05:12:25 | 96026 | 119450
7 | 26:32:51 | 08:01:61 | 119451 | 155586

AccurateRip Summary
Disc not found in AccurateRip DB.

All Tracks
Album gain : -8.60 dB
Peak : 0.970428
Statistics
Read error : 0
Jitter error (maybe fixed) : 0
Retry sector count : 0
Damaged sector count : 0

Track 01
Filename : /Users/imac/Working Folder/XLD/UFO - Strangers In The Night CD1 (2020) [FLAC]/01 - UFO - Natural Thing.flac
/Users/imac/Working Folder/XLD/UFO - Strangers In The Night CD1 (2020) [MP3-320]/01 - UFO - Natural Thing.mp3
/Users/imac/Working Folder/XLD/UFO - Strangers In The Night CD1 (2020) [MP3-V0]/01 - UFO - Natural Thing.mp3
Pre-gap length : 00:02:00

Track gain : -9.10 dB
Peak : 0.970428
CRC32 hash (test run) : 0322D0B6
CRC32 hash : 0322D0B6
CRC32 hash (skip zero) : 0F9B4616
AccurateRip v1 signature : 49214104
AccurateRip v2 signature : BBEFB317
->Track not present in AccurateRip database.
Statistics
Read error : 0
Jitter error (maybe fixed) : 0
Retry sector count : 0
Damaged sector count : 0

Track 02
Filename : /Users/imac/Working Folder/XLD/UFO - Strangers In The Night CD1 (2020) [FLAC]/02 - UFO - Out In The Street.flac
/Users/imac/Working Folder/XLD/UFO - Strangers In The Night CD1 (2020) [MP3-320]/02 - UFO - Out In The Street.mp3
/Users/imac/Working Folder/XLD/UFO - Strangers In The Night CD1 (2020) [MP3-V0]/02 - UFO - Out In The Street.mp3

Track gain : -8.59 dB
Peak : 0.970428
CRC32 hash (test run) : A7CD7866
CRC32 hash : A7CD7866
CRC32 hash (skip zero) : 102E5E39
AccurateRip v1 signature : 79FCF851
AccurateRip v2 signature : B75BD39C
->Track not present in AccurateRip database.
Statistics
Read error : 0
Jitter error (maybe fixed) : 0
Retry sector count : 0
Damaged sector count : 0

Track 03
Filename : /Users/imac/Working Folder/XLD/UFO - Strangers In The Night CD1 (2020) [FLAC]/03 - UFO - Only You Can Rock Me.flac
/Users/imac/Working Folder/XLD/UFO - Strangers In The Night CD1 (2020) [MP3-320]/03 - UFO - Only You Can Rock Me.mp3
/Users/imac/Working Folder/XLD/UFO - Strangers In The Night CD1 (2020) [MP3-V0]/03 - UFO - Only You Can Rock Me.mp3

Track gain : -9.13 dB
Peak : 0.970428
CRC32 hash (test run) : 107FFFB9
CRC32 hash : 107FFFB9
CRC32 hash (skip zero) : 48858401
AccurateRip v1 signature : 2D4ED3A5
AccurateRip v2 signature : 09491274
->Track not present in AccurateRip database.
Statistics
Read error : 0
Jitter error (maybe fixed) : 0
Retry sector count : 0
Damaged sector count : 0

Track 04
Filename : /Users/imac/Working Folder/XLD/UFO - Strangers In The Night CD1 (2020) [FLAC]/04 - UFO - Doctor Doctor.flac
/Users/imac/Working Folder/XLD/UFO - Strangers In The Night CD1 (2020) [MP3-320]/04 - UFO - Doctor Doctor.mp3
/Users/imac/Working Folder/XLD/UFO - Strangers In The Night CD1 (2020) [MP3-V0]/04 - UFO - Doctor Doctor.mp3

Track gain : -8.13 dB
Peak : 0.970428
CRC32 hash (test run) : 401FD6EE
CRC32 hash : 401FD6EE
CRC32 hash (skip zero) : CD96DE42
AccurateRip v1 signature : 2664AABA
AccurateRip v2 signature : 21EB61FB
->Track not present in AccurateRip database.
Statistics
Read error : 0
Jitter error (maybe fixed) : 0
Retry sector count : 0
Damaged sector count : 0

Track 05
Filename : /Users/imac/Working Folder/XLD/UFO - Strangers In The Night CD1 (2020) [FLAC]/05 - UFO - Mother Mary.flac
/Users/imac/Working Folder/XLD/UFO - Strangers In The Night CD1 (2020) [MP3-320]/05 - UFO - Mother Mary.mp3
/Users/imac/Working Folder/XLD/UFO - Strangers In The Night CD1 (2020) [MP3-V0]/05 - UFO - Mother Mary.mp3

Track gain : -9.00 dB
Peak : 0.970428
CRC32 hash (test run) : 305DC1C1
CRC32 hash : 305DC1C1
CRC32 hash (skip zero) : CACDEAC7
AccurateRip v1 signature : 2C6225DD
AccurateRip v2 signature : 1F3A69C9
->Track not present in AccurateRip database.
Statistics
Read error : 0
Jitter error (maybe fixed) : 0
Retry sector count : 0
Damaged sector count : 0

Track 06
Filename : /Users/imac/Working Folder/XLD/UFO - Strangers In The Night CD1 (2020) [FLAC]/06 - UFO - This Kid's.flac
/Users/imac/Working Folder/XLD/UFO - Strangers In The Night CD1 (2020) [MP3-320]/06 - UFO - This Kid's.mp3
/Users/imac/Working Folder/XLD/UFO - Strangers In The Night CD1 (2020) [MP3-V0]/06 - UFO - This Kid's.mp3

Track gain : -8.89 dB
Peak : 0.970428
CRC32 hash (test run) : 50B6D422
CRC32 hash : 50B6D422
CRC32 hash (skip zero) : 77402D87
AccurateRip v1 signature : FCA93BED
AccurateRip v2 signature : C4A2D976
->Track not present in AccurateRip database.
Statistics
Read error : 0
Jitter error (maybe fixed) : 0
Retry sector count : 0
Damaged sector count : 0

Track 07
Filename : /Users/imac/Working Folder/XLD/UFO - Strangers In The Night CD1 (2020) [FLAC]/07 - UFO - Love To Love.flac
/Users/imac/Working Folder/XLD/UFO - Strangers In The Night CD1 (2020) [MP3-320]/07 - UFO - Love To Love.mp3
/Users/imac/Working Folder/XLD/UFO - Strangers In The Night CD1 (2020) [MP3-V0]/07 - UFO - Love To Love.mp3

Track gain : -7.87 dB
Peak : 0.970428
CRC32 hash (test run) : 5707F1CD
CRC32 hash : 5707F1CD
CRC32 hash (skip zero) : 6388DF4B
AccurateRip v1 signature : 09924368
AccurateRip v2 signature : B3F15D8E
->Track not present in AccurateRip database.
Statistics
Read error : 0
Jitter error (maybe fixed) : 0
Retry sector count : 0
Damaged sector count : 0

No errors occurred

End of status report

––-BEGIN XLD SIGNATURE––-
AwWsb4DViFGTbdPTz3qBwQGXuifJIXg_unHeeu5B3mPHsgc5BJSGb5CNTeI3zkvscid_vGjHL5552wpfNdzlDsa3uyPc5jg9MszAYlW
––-END XLD SIGNATURE––-
X Lossless Decoder version 20191004 (152.0)

XLD extraction logfile from 2020-11-20 18:51:07 +0000

UFO / Strangers In The Night CD2

Used drive : MATSHITA BD-MLT UJ240AF (revision 1.00)
Media type : Pressed CD

Ripper mode : XLD Secure Ripper
Disable audio cache : OK for the drive with a cache less than 1375KiB
Make use of C2 pointers : NO
Read offset correction : 103
Max retry count : 25
Gap status : Analyzed, Appended (except HTOA)

TOC of the extracted CD
Track | Start | Length | Start sector | End sector
––––––––––––––––––––––––––––-
1 | 00:00:00 | 05:32:21 | 0 | 24920
2 | 05:32:21 | 11:06:69 | 24921 | 74939
3 | 16:39:15 | 04:27:53 | 74940 | 95017
4 | 21:06:68 | 04:14:13 | 95018 | 114080
5 | 25:21:06 | 04:49:20 | 114081 | 135775
6 | 30:10:26 | 04:09:49 | 135776 | 154499

AccurateRip Summary
Disc not found in AccurateRip DB.

All Tracks
Album gain : -8.11 dB
Peak : 0.970428
Statistics
Read error : 0
Jitter error (maybe fixed) : 0
Retry sector count : 0
Damaged sector count : 0

Track 01
Filename : /Users/imac/Working Folder/XLD/UFO - Strangers In The Night CD2 (2020) [FLAC]/01 - UFO - Lights Out.flac
/Users/imac/Working Folder/XLD/UFO - Strangers In The Night CD2 (2020) [MP3-320]/01 - UFO - Lights Out.mp3
/Users/imac/Working Folder/XLD/UFO - Strangers In The Night CD2 (2020) [MP3-V0]/01 - UFO - Lights Out.mp3
Pre-gap length : 00:02:00

Track gain : -9.00 dB
Peak : 0.970428
CRC32 hash (test run) : 20C784DB
CRC32 hash : 20C784DB
CRC32 hash (skip zero) : A9685A12
AccurateRip v1 signature : B845A75F
AccurateRip v2 signature : FF07207B
->Track not present in AccurateRip database.
Statistics
Read error : 0
Jitter error (maybe fixed) : 0
Retry sector count : 0
Damaged sector count : 0

Track 02
Filename : /Users/imac/Working Folder/XLD/UFO - Strangers In The Night CD2 (2020) [FLAC]/02 - UFO - Rock Bottom.flac
/Users/imac/Working Folder/XLD/UFO - Strangers In The Night CD2 (2020) [MP3-320]/02 - UFO - Rock Bottom.mp3
/Users/imac/Working Folder/XLD/UFO - Strangers In The Night CD2 (2020) [MP3-V0]/02 - UFO - Rock Bottom.mp3

Track gain : -7.92 dB
Peak : 0.970428
CRC32 hash (test run) : 890139A9
CRC32 hash : 890139A9
CRC32 hash (skip zero) : 76D94838
AccurateRip v1 signature : DF214EDA
AccurateRip v2 signature : 2B3DF08E
->Track not present in AccurateRip database.
Statistics
Read error : 0
Jitter error (maybe fixed) : 0
Retry sector count : 0
Damaged sector count : 0

Track 03
Filename : /Users/imac/Working Folder/XLD/UFO - Strangers In The Night CD2 (2020) [FLAC]/03 - UFO - Too Hot To Handle.flac
/Users/imac/Working Folder/XLD/UFO - Strangers In The Night CD2 (2020) [MP3-320]/03 - UFO - Too Hot To Handle.mp3
/Users/imac/Working Folder/XLD/UFO - Strangers In The Night CD2 (2020) [MP3-V0]/03 - UFO - Too Hot To Handle.mp3

Track gain : -8.08 dB
Peak : 0.970428
CRC32 hash (test run) : 36A19FD6
CRC32 hash : 36A19FD6
CRC32 hash (skip zero) : 41672714
AccurateRip v1 signature : 35619589
AccurateRip v2 signature : A71924FA
->Track not present in AccurateRip database.
Statistics
Read error : 0
Jitter error (maybe fixed) : 0
Retry sector count : 0
Damaged sector count : 0

Track 04
Filename : /Users/imac/Working Folder/XLD/UFO - Strangers In The Night CD2 (2020) [FLAC]/04 - UFO - I'm A Loser.flac
/Users/imac/Working Folder/XLD/UFO - Strangers In The Night CD2 (2020) [MP3-320]/04 - UFO - I'm A Loser.mp3
/Users/imac/Working Folder/XLD/UFO - Strangers In The Night CD2 (2020) [MP3-V0]/04 - UFO - I'm A Loser.mp3

Track gain : -7.27 dB
Peak : 0.970428
CRC32 hash (test run) : B5AB3291
CRC32 hash : B5AB3291
CRC32 hash (skip zero) : D067B5CF
AccurateRip v1 signature : 2FD300DE
AccurateRip v2 signature : 1FAE3B44
->Track not present in AccurateRip database.
Statistics
Read error : 0
Jitter error (maybe fixed) : 0
Retry sector count : 0
Damaged sector count : 0

Track 05
Filename : /Users/imac/Working Folder/XLD/UFO - Strangers In The Night CD2 (2020) [FLAC]/05 - UFO - Let It Roll.flac
/Users/imac/Working Folder/XLD/UFO - Strangers In The Night CD2 (2020) [MP3-320]/05 - UFO - Let It Roll.mp3
/Users/imac/Working Folder/XLD/UFO - Strangers In The Night CD2 (2020) [MP3-V0]/05 - UFO - Let It Roll.mp3

Track gain : -8.04 dB
Peak : 0.970428
CRC32 hash (test run) : BB45A47B
CRC32 hash : BB45A47B
CRC32 hash (skip zero) : CD551AEB
AccurateRip v1 signature : 69090357
AccurateRip v2 signature : 286B76E1
->Track not present in AccurateRip database.
Statistics
Read error : 0
Jitter error (maybe fixed) : 0
Retry sector count : 0
Damaged sector count : 0

Track 06
Filename : /Users/imac/Working Folder/XLD/UFO - Strangers In The Night CD2 (2020) [FLAC]/06 - UFO - Shoot Shoot.flac
/Users/imac/Working Folder/XLD/UFO - Strangers In The Night CD2 (2020) [MP3-320]/06 - UFO - Shoot Shoot.mp3
/Users/imac/Working Folder/XLD/UFO - Strangers In The Night CD2 (2020) [MP3-V0]/06 - UFO - Shoot Shoot.mp3

Track gain : -8.09 dB
Peak : 0.970428
CRC32 hash (test run) : DEA625E2
CRC32 hash : DEA625E2
CRC32 hash (skip zero) : C5C76DD9
AccurateRip v1 signature : 3F99795D
AccurateRip v2 signature : 10AC66B9
->Track not present in AccurateRip database.
Statistics
Read error : 0
Jitter error (maybe fixed) : 0
Retry sector count : 0
Damaged sector count : 0

No errors occurred

End of status report

––-BEGIN XLD SIGNATURE––-
5ssonZ3vLEQBSPsfZRgiAx2.2xpE4dwCQL09.Az5nOyCgNROTNkP3YKebBa2UnkzYM6nImSvO22htuIN4fPQoXey3I8xq_pnCPBIMde
––-END XLD SIGNATURE––-
X Lossless Decoder version 20191004 (152.0)

XLD extraction logfile from 2020-11-20 19:05:46 +0000

UFO / Strangers In The Night CD3

Used drive : MATSHITA BD-MLT UJ240AF (revision 1.00)
Media type : Pressed CD

Ripper mode : XLD Secure Ripper
Disable audio cache : OK for the drive with a cache less than 1375KiB
Make use of C2 pointers : NO
Read offset correction : 103
Max retry count : 25
Gap status : Analyzed, Appended (except HTOA)

TOC of the extracted CD
Track | Start | Length | Start sector | End sector
––––––––––––––––––––––––––––-
1 | 00:00:00 | 03:54:22 | 0 | 17571
2 | 03:54:22 | 03:14:42 | 17572 | 32163
3 | 07:08:64 | 03:32:28 | 32164 | 48091
4 | 10:41:17 | 04:29:07 | 48092 | 68273
5 | 15:10:24 | 08:00:73 | 68274 | 104346
6 | 23:11:22 | 04:14:36 | 104347 | 123432
7 | 27:25:58 | 04:07:13 | 123433 | 141970
8 | 31:32:71 | 05:03:50 | 141971 | 164745
9 | 36:36:46 | 04:51:38 | 164746 | 186608
10 | 41:28:09 | 05:11:37 | 186609 | 209970
11 | 46:39:46 | 10:12:64 | 209971 | 255934
12 | 56:52:35 | 04:24:09 | 255935 | 275743
13 | 61:16:44 | 03:58:34 | 275744 | 293627

AccurateRip Summary
Disc not found in AccurateRip DB.

All Tracks
Album gain : -6.92 dB
Peak : 0.970428
Statistics
Read error : 0
Jitter error (maybe fixed) : 0
Retry sector count : 0
Damaged sector count : 0

Track 01
Filename : /Users/imac/Working Folder/XLD/UFO - Strangers In The Night CD3 (2020) [FLAC]/01 - UFO - Hot 'n' Ready.flac
/Users/imac/Working Folder/XLD/UFO - Strangers In The Night CD3 (2020) [MP3-320]/01 - UFO - Hot 'n' Ready.mp3
/Users/imac/Working Folder/XLD/UFO - Strangers In The Night CD3 (2020) [MP3-V0]/01 - UFO - Hot 'n' Ready.mp3
Pre-gap length : 00:02:00

Track gain : -7.21 dB
Peak : 0.970428
CRC32 hash (test run) : F089F4B6
CRC32 hash : F089F4B6
CRC32 hash (skip zero) : CBFB612F
AccurateRip v1 signature : 58DAC076
AccurateRip v2 signature : EA623CAF
->Track not present in AccurateRip database.
Statistics
Read error : 0
Jitter error (maybe fixed) : 0
Retry sector count : 0
Damaged sector count : 0

Track 02
Filename : /Users/imac/Working Folder/XLD/UFO - Strangers In The Night CD3 (2020) [FLAC]/02 - UFO - Pack It Up (And Go).flac
/Users/imac/Working Folder/XLD/UFO - Strangers In The Night CD3 (2020) [MP3-320]/02 - UFO - Pack It Up (And Go).mp3
/Users/imac/Working Folder/XLD/UFO - Strangers In The Night CD3 (2020) [MP3-V0]/02 - UFO - Pack It Up (And Go).mp3

Track gain : -7.09 dB
Peak : 0.970428
CRC32 hash (test run) : D9005441
CRC32 hash : D9005441
CRC32 hash (skip zero) : 87201800
AccurateRip v1 signature : 4B905AC0
AccurateRip v2 signature : E62E42A3
->Track not present in AccurateRip database.
Statistics
Read error : 0
Jitter error (maybe fixed) : 0
Retry sector count : 0
Damaged sector count : 0

Track 03
Filename : /Users/imac/Working Folder/XLD/UFO - Strangers In The Night CD3 (2020) [FLAC]/03 - UFO - Cherry.flac
/Users/imac/Working Folder/XLD/UFO - Strangers In The Night CD3 (2020) [MP3-320]/03 - UFO - Cherry.mp3
/Users/imac/Working Folder/XLD/UFO - Strangers In The Night CD3 (2020) [MP3-V0]/03 - UFO - Cherry.mp3

Track gain : -6.73 dB
Peak : 0.970428
CRC32 hash (test run) : 19FFB766
CRC32 hash : 19FFB766
CRC32 hash (skip zero) : 8D4789BA
AccurateRip v1 signature : 77470D52
AccurateRip v2 signature : 74E281AE
->Track not present in AccurateRip database.
Statistics
Read error : 0
Jitter error (maybe fixed) : 0
Retry sector count : 0
Damaged sector count : 0

Track 04
Filename : /Users/imac/Working Folder/XLD/UFO - Strangers In The Night CD3 (2020) [FLAC]/04 - UFO - Let It Roll.flac
/Users/imac/Working Folder/XLD/UFO - Strangers In The Night CD3 (2020) [MP3-320]/04 - UFO - Let It Roll.mp3
/Users/imac/Working Folder/XLD/UFO - Strangers In The Night CD3 (2020) [MP3-V0]/04 - UFO - Let It Roll.mp3

Track gain : -6.52 dB
Peak : 0.970428
CRC32 hash (test run) : A63B23B1
CRC32 hash : A63B23B1
CRC32 hash (skip zero) : 1CEDD75D
AccurateRip v1 signature : 1C33DBD5
AccurateRip v2 signature : 45488FDE
->Track not present in AccurateRip database.
Statistics
Read error : 0
Jitter error (maybe fixed) : 0
Retry sector count : 0
Damaged sector count : 0

Track 05
Filename : /Users/imac/Working Folder/XLD/UFO - Strangers In The Night CD3 (2020) [FLAC]/05 - UFO - Love To Love.flac
/Users/imac/Working Folder/XLD/UFO - Strangers In The Night CD3 (2020) [MP3-320]/05 - UFO - Love To Love.mp3
/Users/imac/Working Folder/XLD/UFO - Strangers In The Night CD3 (2020) [MP3-V0]/05 - UFO - Love To Love.mp3

Track gain : -4.89 dB
Peak : 0.970398
CRC32 hash (test run) : 1E63490C
CRC32 hash : 1E63490C
CRC32 hash (skip zero) : 330831BA
AccurateRip v1 signature : 1B6B822E
AccurateRip v2 signature : 4A2E1B36
->Track not present in AccurateRip database.
Statistics
Read error : 0
Jitter error (maybe fixed) : 0
Retry sector count : 0
Damaged sector count : 0

Track 06
Filename : /Users/imac/Working Folder/XLD/UFO - Strangers In The Night CD3 (2020) [FLAC]/06 - UFO - Only You Can Rock Me.flac
/Users/imac/Working Folder/XLD/UFO - Strangers In The Night CD3 (2020) [MP3-320]/06 - UFO - Only You Can Rock Me.mp3
/Users/imac/Working Folder/XLD/UFO - Strangers In The Night CD3 (2020) [MP3-V0]/06 - UFO - Only You Can Rock Me.mp3

Track gain : -6.87 dB
Peak : 0.970428
CRC32 hash (test run) : 2FC5CDFC
CRC32 hash : 2FC5CDFC
CRC32 hash (skip zero) : DEF93858
AccurateRip v1 signature : FE22E2F9
AccurateRip v2 signature : BF7F926A
->Track not present in AccurateRip database.
Statistics
Read error : 0
Jitter error (maybe fixed) : 0
Retry sector count : 0
Damaged sector count : 0

Track 07
Filename : /Users/imac/Working Folder/XLD/UFO - Strangers In The Night CD3 (2020) [FLAC]/07 - UFO - Ain't No Baby.flac
/Users/imac/Working Folder/XLD/UFO - Strangers In The Night CD3 (2020) [MP3-320]/07 - UFO - Ain't No Baby.mp3
/Users/imac/Working Folder/XLD/UFO - Strangers In The Night CD3 (2020) [MP3-V0]/07 - UFO - Ain't No Baby.mp3

Track gain : -6.37 dB
Peak : 0.970428
CRC32 hash (test run) : D057ED30
CRC32 hash : D057ED30
CRC32 hash (skip zero) : 85EE6753
AccurateRip v1 signature : 058C33B7
AccurateRip v2 signature : 91868FD0
->Track not present in AccurateRip database.
Statistics
Read error : 0
Jitter error (maybe fixed) : 0
Retry sector count : 0
Damaged sector count : 0

Track 08
Filename : /Users/imac/Working Folder/XLD/UFO - Strangers In The Night CD3 (2020) [FLAC]/08 - UFO - Out In The Street.flac
/Users/imac/Working Folder/XLD/UFO - Strangers In The Night CD3 (2020) [MP3-320]/08 - UFO - Out In The Street.mp3
/Users/imac/Working Folder/XLD/UFO - Strangers In The Night CD3 (2020) [MP3-V0]/08 - UFO - Out In The Street.mp3

Track gain : -6.93 dB
Peak : 0.970428
CRC32 hash (test run) : 483B6495
CRC32 hash : 483B6495
CRC32 hash (skip zero) : 75042E1B
AccurateRip v1 signature : F713FCB5
AccurateRip v2 signature : 3888670C
->Track not present in AccurateRip database.
Statistics
Read error : 0
Jitter error (maybe fixed) : 0
Retry sector count : 0
Damaged sector count : 0

Track 09
Filename : /Users/imac/Working Folder/XLD/UFO - Strangers In The Night CD3 (2020) [FLAC]/09 - UFO - Doctor Doctor.flac
/Users/imac/Working Folder/XLD/UFO - Strangers In The Night CD3 (2020) [MP3-320]/09 - UFO - Doctor Doctor.mp3
/Users/imac/Working Folder/XLD/UFO - Strangers In The Night CD3 (2020) [MP3-V0]/09 - UFO - Doctor Doctor.mp3

Track gain : -6.42 dB
Peak : 0.970428
CRC32 hash (test run) : 2C2E92D3
CRC32 hash : 2C2E92D3
CRC32 hash (skip zero) : AE44718D
AccurateRip v1 signature : 836D0FE4
AccurateRip v2 signature : B9295637
->Track not present in AccurateRip database.
Statistics
Read error : 0
Jitter error (maybe fixed) : 0
Retry sector count : 0
Damaged sector count : 0

Track 10
Filename : /Users/imac/Working Folder/XLD/UFO - Strangers In The Night CD3 (2020) [FLAC]/10 - UFO - Lights Out.flac
/Users/imac/Working Folder/XLD/UFO - Strangers In The Night CD3 (2020) [MP3-320]/10 - UFO - Lights Out.mp3
/Users/imac/Working Folder/XLD/UFO - Strangers In The Night CD3 (2020) [MP3-V0]/10 - UFO - Lights Out.mp3

Track gain : -7.79 dB
Peak : 0.970428
CRC32 hash (test run) : 880D1613
CRC32 hash : 880D1613
CRC32 hash (skip zero) : 00DD88D0
AccurateRip v1 signature : 7CC7CBC0
AccurateRip v2 signature : 364CDA93
->Track not present in AccurateRip database.
Statistics
Read error : 0
Jitter error (maybe fixed) : 0
Retry sector count : 0
Damaged sector count : 0

Track 11
Filename : /Users/imac/Working Folder/XLD/UFO - Strangers In The Night CD3 (2020) [FLAC]/11 - UFO - Rock Bottom.flac
/Users/imac/Working Folder/XLD/UFO - Strangers In The Night CD3 (2020) [MP3-320]/11 - UFO - Rock Bottom.mp3
/Users/imac/Working Folder/XLD/UFO - Strangers In The Night CD3 (2020) [MP3-V0]/11 - UFO - Rock Bottom.mp3

Track gain : -7.09 dB
Peak : 0.970428
CRC32 hash (test run) : BA20A4A0
CRC32 hash : BA20A4A0
CRC32 hash (skip zero) : 94BBA2FF
AccurateRip v1 signature : 8B4EA2A0
AccurateRip v2 signature : AB32B898
->Track not present in AccurateRip database.
Statistics
Read error : 0
Jitter error (maybe fixed) : 0
Retry sector count : 0
Damaged sector count : 0

Track 12
Filename : /Users/imac/Working Folder/XLD/UFO - Strangers In The Night CD3 (2020) [FLAC]/12 - UFO - Too Hot To Handle.flac
/Users/imac/Working Folder/XLD/UFO - Strangers In The Night CD3 (2020) [MP3-320]/12 - UFO - Too Hot To Handle.mp3
/Users/imac/Working Folder/XLD/UFO - Strangers In The Night CD3 (2020) [MP3-V0]/12 - UFO - Too Hot To Handle.mp3

Track gain : -8.07 dB
Peak : 0.970428
CRC32 hash (test run) : 96E5AC4F
CRC32 hash : 96E5AC4F
CRC32 hash (skip zero) : B76EF348
AccurateRip v1 signature : 07872BE9
AccurateRip v2 signature : 1AEA11F3
->Track not present in AccurateRip database.
Statistics
Read error : 0
Jitter error (maybe fixed) : 0
Retry sector count : 0
Damaged sector count : 0

Track 13
Filename : /Users/imac/Working Folder/XLD/UFO - Strangers In The Night CD3 (2020) [FLAC]/13 - UFO - Shoot Shoot.flac
/Users/imac/Working Folder/XLD/UFO - Strangers In The Night CD3 (2020) [MP3-320]/13 - UFO - Shoot Shoot.mp3
/Users/imac/Working Folder/XLD/UFO - Strangers In The Night CD3 (2020) [MP3-V0]/13 - UFO - Shoot Shoot.mp3

Track gain : -8.10 dB
Peak : 0.970428
CRC32 hash (test run) : 80A622D4
CRC32 hash : 80A622D4
CRC32 hash (skip zero) : F89DECF7
AccurateRip v1 signature : 83619E3B
AccurateRip v2 signature : 170DEF57
->Track not present in AccurateRip database.
Statistics
Read error : 0
Jitter error (maybe fixed) : 0
Retry sector count : 0
Damaged sector count : 0

No errors occurred

End of status report

––-BEGIN XLD SIGNATURE––-
xB_dSdnvvzTzrDoKIh8v7WrGPskGufaz7uiBFW0O8u9NeeB4aHuPefI.pudqFmbpEpF9N0vt83Ksd62SBacx5fgtMbqQUu65489caea
––-END XLD SIGNATURE––-
X Lossless Decoder version 20191004 (152.0)

XLD extraction logfile from 2020-11-20 19:27:31 +0000

UFO / Strangers In The Night CD4

Used drive : MATSHITA BD-MLT UJ240AF (revision 1.00)
Media type : Pressed CD

Ripper mode : XLD Secure Ripper
Disable audio cache : OK for the drive with a cache less than 1375KiB
Make use of C2 pointers : NO
Read offset correction : 103
Max retry count : 25
Gap status : Analyzed, Appended (except HTOA)

TOC of the extracted CD
Track | Start | Length | Start sector | End sector
––––––––––––––––––––––––––––-
1 | 00:00:00 | 03:34:74 | 0 | 16123
2 | 03:34:74 | 03:15:01 | 16124 | 30749
3 | 06:50:00 | 03:46:37 | 30750 | 47736
4 | 10:36:37 | 04:40:13 | 47737 | 68749
5 | 15:16:50 | 07:45:61 | 68750 | 103685
6 | 23:02:36 | 04:02:50 | 103686 | 121885
7 | 27:05:11 | 04:13:06 | 121886 | 140866
8 | 31:18:17 | 05:00:09 | 140867 | 163375
9 | 36:18:26 | 04:52:05 | 163376 | 185280
10 | 41:10:31 | 05:02:58 | 185281 | 207988
11 | 46:13:14 | 10:57:59 | 207989 | 257322
12 | 57:10:73 | 04:30:24 | 257323 | 277596

AccurateRip Summary
Disc not found in AccurateRip DB.

All Tracks
Album gain : -7.94 dB
Peak : 0.970428
Statistics
Read error : 0
Jitter error (maybe fixed) : 0
Retry sector count : 0
Damaged sector count : 0

Track 01
Filename : /Users/imac/Working Folder/XLD/UFO - Strangers In The Night CD4 (2020) [FLAC]/01 - UFO - Hot 'n' Ready.flac
/Users/imac/Working Folder/XLD/UFO - Strangers In The Night CD4 (2020) [MP3-320]/01 - UFO - Hot 'n' Ready.mp3
/Users/imac/Working Folder/XLD/UFO - Strangers In The Night CD4 (2020) [MP3-V0]/01 - UFO - Hot 'n' Ready.mp3
Pre-gap length : 00:02:00

Track gain : -8.44 dB
Peak : 0.970428
CRC32 hash (test run) : 7F3FEDF4
CRC32 hash : 7F3FEDF4
CRC32 hash (skip zero) : A0C2E03E
AccurateRip v1 signature : 3404FB2F
AccurateRip v2 signature : 1A87A08A
->Track not present in AccurateRip database.
Statistics
Read error : 0
Jitter error (maybe fixed) : 0
Retry sector count : 0
Damaged sector count : 0

Track 02
Filename : /Users/imac/Working Folder/XLD/UFO - Strangers In The Night CD4 (2020) [FLAC]/02 - UFO - Pack It Up (And Go).flac
/Users/imac/Working Folder/XLD/UFO - Strangers In The Night CD4 (2020) [MP3-320]/02 - UFO - Pack It Up (And Go).mp3
/Users/imac/Working Folder/XLD/UFO - Strangers In The Night CD4 (2020) [MP3-V0]/02 - UFO - Pack It Up (And Go).mp3

Track gain : -8.03 dB
Peak : 0.970428
CRC32 hash (test run) : C67417B0
CRC32 hash : C67417B0
CRC32 hash (skip zero) : 19A03021
AccurateRip v1 signature : 608247C0
AccurateRip v2 signature : C9A7A9E3
->Track not present in AccurateRip database.
Statistics
Read error : 0
Jitter error (maybe fixed) : 0
Retry sector count : 0
Damaged sector count : 0

Track 03
Filename : /Users/imac/Working Folder/XLD/UFO - Strangers In The Night CD4 (2020) [FLAC]/03 - UFO - Cherry.flac
/Users/imac/Working Folder/XLD/UFO - Strangers In The Night CD4 (2020) [MP3-320]/03 - UFO - Cherry.mp3
/Users/imac/Working Folder/XLD/UFO - Strangers In The Night CD4 (2020) [MP3-V0]/03 - UFO - Cherry.mp3

Track gain : -7.67 dB
Peak : 0.970428
CRC32 hash (test run) : D4F97F8F
CRC32 hash : D4F97F8F
CRC32 hash (skip zero) : D9811A85
AccurateRip v1 signature : 58B9452A
AccurateRip v2 signature : 803B6962
->Track not present in AccurateRip database.
Statistics
Read error : 0
Jitter error (maybe fixed) : 0
Retry sector count : 0
Damaged sector count : 0

Track 04
Filename : /Users/imac/Working Folder/XLD/UFO - Strangers In The Night CD4 (2020) [FLAC]/04 - UFO - Let It Roll.flac
/Users/imac/Working Folder/XLD/UFO - Strangers In The Night CD4 (2020) [MP3-320]/04 - UFO - Let It Roll.mp3
/Users/imac/Working Folder/XLD/UFO - Strangers In The Night CD4 (2020) [MP3-V0]/04 - UFO - Let It Roll.mp3

Track gain : -8.41 dB
Peak : 0.970428
CRC32 hash (test run) : 51240AD6
CRC32 hash : 51240AD6
CRC32 hash (skip zero) : 3CA07B5D
AccurateRip v1 signature : 8D1FF7F2
AccurateRip v2 signature : B6957DEE
->Track not present in AccurateRip database.
Statistics
Read error : 0
Jitter error (maybe fixed) : 0
Retry sector count : 0
Damaged sector count : 0

Track 05
Filename : /Users/imac/Working Folder/XLD/UFO - Strangers In The Night CD4 (2020) [FLAC]/05 - UFO - Love To Love.flac
/Users/imac/Working Folder/XLD/UFO - Strangers In The Night CD4 (2020) [MP3-320]/05 - UFO - Love To Love.mp3
/Users/imac/Working Folder/XLD/UFO - Strangers In The Night CD4 (2020) [MP3-V0]/05 - UFO - Love To Love.mp3

Track gain : -6.40 dB
Peak : 0.970428
CRC32 hash (test run) : 4AE9C010
CRC32 hash : 4AE9C010
CRC32 hash (skip zero) : 2F2F4817
AccurateRip v1 signature : 1F28A4A5
AccurateRip v2 signature : F83DC12F
->Track not present in AccurateRip database.
Statistics
Read error : 0
Jitter error (maybe fixed) : 0
Retry sector count : 0
Damaged sector count : 0

Track 06
Filename : /Users/imac/Working Folder/XLD/UFO - Strangers In The Night CD4 (2020) [FLAC]/06 - UFO - Only You Can Rock Me.flac
/Users/imac/Working Folder/XLD/UFO - Strangers In The Night CD4 (2020) [MP3-320]/06 - UFO - Only You Can Rock Me.mp3
/Users/imac/Working Folder/XLD/UFO - Strangers In The Night CD4 (2020) [MP3-V0]/06 - UFO - Only You Can Rock Me.mp3

Track gain : -8.58 dB
Peak : 0.970428
CRC32 hash (test run) : 4D75688D
CRC32 hash : 4D75688D
CRC32 hash (skip zero) : 3337EE1B
AccurateRip v1 signature : 502B9963
AccurateRip v2 signature : 5710279F
->Track not present in AccurateRip database.
Statistics
Read error : 0
Jitter error (maybe fixed) : 0
Retry sector count : 0
Damaged sector count : 0

Track 07
Filename : /Users/imac/Working Folder/XLD/UFO - Strangers In The Night CD4 (2020) [FLAC]/07 - UFO - Ain't No Baby.flac
/Users/imac/Working Folder/XLD/UFO - Strangers In The Night CD4 (2020) [MP3-320]/07 - UFO - Ain't No Baby.mp3
/Users/imac/Working Folder/XLD/UFO - Strangers In The Night CD4 (2020) [MP3-V0]/07 - UFO - Ain't No Baby.mp3

Track gain : -7.92 dB
Peak : 0.970428
CRC32 hash (test run) : 50BBD385
CRC32 hash : 50BBD385
CRC32 hash (skip zero) : 8B85B742
AccurateRip v1 signature : 99B1AAA6
AccurateRip v2 signature : 57956F7A
->Track not present in AccurateRip database.
Statistics
Read error : 0
Jitter error (maybe fixed) : 0
Retry sector count : 0
Damaged sector count : 0

Track 08
Filename : /Users/imac/Working Folder/XLD/UFO - Strangers In The Night CD4 (2020) [FLAC]/08 - UFO - Out In The Street.flac
/Users/imac/Working Folder/XLD/UFO - Strangers In The Night CD4 (2020) [MP3-320]/08 - UFO - Out In The Street.mp3
/Users/imac/Working Folder/XLD/UFO - Strangers In The Night CD4 (2020) [MP3-V0]/08 - UFO - Out In The Street.mp3

Track gain : -7.31 dB
Peak : 0.970428
CRC32 hash (test run) : FFC91C6E
CRC32 hash : FFC91C6E
CRC32 hash (skip zero) : 175F1048
AccurateRip v1 signature : 63F05492
AccurateRip v2 signature : 2064B661
->Track not present in AccurateRip database.
Statistics
Read error : 0
Jitter error (maybe fixed) : 0
Retry sector count : 0
Damaged sector count : 0

Track 09
Filename : /Users/imac/Working Folder/XLD/UFO - Strangers In The Night CD4 (2020) [FLAC]/09 - UFO - Doctor Doctor.flac
/Users/imac/Working Folder/XLD/UFO - Strangers In The Night CD4 (2020) [MP3-320]/09 - UFO - Doctor Doctor.mp3
/Users/imac/Working Folder/XLD/UFO - Strangers In The Night CD4 (2020) [MP3-V0]/09 - UFO - Doctor Doctor.mp3

Track gain : -7.81 dB
Peak : 0.970428
CRC32 hash (test run) : 9D8247A7
CRC32 hash : 9D8247A7
CRC32 hash (skip zero) : 0C21BD01
AccurateRip v1 signature : EF3872F6
AccurateRip v2 signature : 7035508A
->Track not present in AccurateRip database.
Statistics
Read error : 0
Jitter error (maybe fixed) : 0
Retry sector count : 0
Damaged sector count : 0

Track 10
Filename : /Users/imac/Working Folder/XLD/UFO - Strangers In The Night CD4 (2020) [FLAC]/10 - UFO - Lights Out.flac
/Users/imac/Working Folder/XLD/UFO - Strangers In The Night CD4 (2020) [MP3-320]/10 - UFO - Lights Out.mp3
/Users/imac/Working Folder/XLD/UFO - Strangers In The Night CD4 (2020) [MP3-V0]/10 - UFO - Lights Out.mp3

Track gain : -9.28 dB
Peak : 0.970428
CRC32 hash (test run) : 24B6EDA3
CRC32 hash : 24B6EDA3
CRC32 hash (skip zero) : CF6B02F7
AccurateRip v1 signature : E6B6F8B4
AccurateRip v2 signature : 523A5749
->Track not present in AccurateRip database.
Statistics
Read error : 0
Jitter error (maybe fixed) : 0
Retry sector count : 0
Damaged sector count : 0

Track 11
Filename : /Users/imac/Working Folder/XLD/UFO - Strangers In The Night CD4 (2020) [FLAC]/11 - UFO - Rock Bottom.flac
/Users/imac/Working Folder/XLD/UFO - Strangers In The Night CD4 (2020) [MP3-320]/11 - UFO - Rock Bottom.mp3
/Users/imac/Working Folder/XLD/UFO - Strangers In The Night CD4 (2020) [MP3-V0]/11 - UFO - Rock Bottom.mp3

Track gain : -7.65 dB
Peak : 0.970428
CRC32 hash (test run) : FB4C4D5C
CRC32 hash : FB4C4D5C
CRC32 hash (skip zero) : 9B9CB340
AccurateRip v1 signature : 0CE5EFF4
AccurateRip v2 signature : D678D606
->Track not present in AccurateRip database.
Statistics
Read error : 0
Jitter error (maybe fixed) : 0
Retry sector count : 0
Damaged sector count : 0

Track 12
Filename : /Users/imac/Working Folder/XLD/UFO - Strangers In The Night CD4 (2020) [FLAC]/12 - UFO - Too Hot To Handle.flac
/Users/imac/Working Folder/XLD/UFO - Strangers In The Night CD4 (2020) [MP3-320]/12 - UFO - Too Hot To Handle.mp3
/Users/imac/Working Folder/XLD/UFO - Strangers In The Night CD4 (2020) [MP3-V0]/12 - UFO - Too Hot To Handle.mp3

Track gain : -8.27 dB
Peak : 0.970428
CRC32 hash (test run) : 39DDD9E6
CRC32 hash : 39DDD9E6
CRC32 hash (skip zero) : 7FDF5FF0
AccurateRip v1 signature : 965AD970
AccurateRip v2 signature : B4AD2263
->Track not present in AccurateRip database.
Statistics
Read error : 0
Jitter error (maybe fixed) : 0
Retry sector count : 0
Damaged sector count : 0

No errors occurred

End of status report

––-BEGIN XLD SIGNATURE––-
zHnMBu0NCgioqVY3jMzNjtymKspvr0W7wip9kxQkhyHWzt_9w7EyM5Zwdk2b9nTPh2ourwP4BHgRqp48si.JnV_XUG6eIeCvBmpS9Si
––-END XLD SIGNATURE––-
X Lossless Decoder version 20191004 (152.0)

XLD extraction logfile from 2020-11-20 20:30:52 +0000

UFO / Strangers In The Night CD5

Used drive : MATSHITA BD-MLT UJ240AF (revision 1.00)
Media type : Pressed CD

Ripper mode : XLD Secure Ripper
Disable audio cache : OK for the drive with a cache less than 1375KiB
Make use of C2 pointers : NO
Read offset correction : 103
Max retry count : 25
Gap status : Analyzed, Appended (except HTOA)

TOC of the extracted CD
Track | Start | Length | Start sector | End sector
––––––––––––––––––––––––––––-
1 | 00:00:00 | 03:48:50 | 0 | 17149
2 | 03:48:50 | 03:38:10 | 17150 | 33509
3 | 07:26:60 | 03:41:17 | 33510 | 50101
4 | 11:08:02 | 04:41:07 | 50102 | 71183
5 | 15:49:09 | 07:54:59 | 71184 | 106792
6 | 23:43:68 | 03:26:63 | 106793 | 122305
7 | 27:10:56 | 05:07:66 | 122306 | 145396
8 | 32:18:47 | 04:05:47 | 145397 | 163818
9 | 36:24:19 | 04:47:18 | 163819 | 185361
10 | 41:11:37 | 04:51:21 | 185362 | 207207
11 | 46:02:58 | 05:08:28 | 207208 | 230335
12 | 51:11:11 | 10:23:63 | 230336 | 277123
13 | 61:34:74 | 04:34:51 | 277124 | 297724
14 | 66:09:50 | 03:46:22 | 297725 | 314696

AccurateRip Summary
Disc not found in AccurateRip DB.

All Tracks
Album gain : -8.37 dB
Peak : 0.970428
Statistics
Read error : 0
Jitter error (maybe fixed) : 0
Retry sector count : 0
Damaged sector count : 0

Track 01
Filename : /Users/imac/Working Folder/XLD/UFO - Strangers In The Night CD5 (2020) [FLAC]/01 - UFO - Intro - Hot 'n' Ready.flac
/Users/imac/Working Folder/XLD/UFO - Strangers In The Night CD5 (2020) [MP3-320]/01 - UFO - Intro - Hot 'n' Ready.mp3
/Users/imac/Working Folder/XLD/UFO - Strangers In The Night CD5 (2020) [MP3-V0]/01 - UFO - Intro - Hot 'n' Ready.mp3
Pre-gap length : 00:02:00

Track gain : -8.38 dB
Peak : 0.970428
CRC32 hash (test run) : FD1CEAE3
CRC32 hash : FD1CEAE3
CRC32 hash (skip zero) : E491FEA9
AccurateRip v1 signature : 46D07278
AccurateRip v2 signature : 0C4E72FB
->Track not present in AccurateRip database.
Statistics
Read error : 0
Jitter error (maybe fixed) : 0
Retry sector count : 0
Damaged sector count : 0

Track 02
Filename : /Users/imac/Working Folder/XLD/UFO - Strangers In The Night CD5 (2020) [FLAC]/02 - UFO - Pack It Up (And Go).flac
/Users/imac/Working Folder/XLD/UFO - Strangers In The Night CD5 (2020) [MP3-320]/02 - UFO - Pack It Up (And Go).mp3
/Users/imac/Working Folder/XLD/UFO - Strangers In The Night CD5 (2020) [MP3-V0]/02 - UFO - Pack It Up (And Go).mp3

Track gain : -8.72 dB
Peak : 0.970428
CRC32 hash (test run) : 27ECCBE8
CRC32 hash : 27ECCBE8
CRC32 hash (skip zero) : 8FD09347
AccurateRip v1 signature : E492087D
AccurateRip v2 signature : C4BE1631
->Track not present in AccurateRip database.
Statistics
Read error : 0
Jitter error (maybe fixed) : 0
Retry sector count : 0
Damaged sector count : 0

Track 03
Filename : /Users/imac/Working Folder/XLD/UFO - Strangers In The Night CD5 (2020) [FLAC]/03 - UFO - Cherry.flac
/Users/imac/Working Folder/XLD/UFO - Strangers In The Night CD5 (2020) [MP3-320]/03 - UFO - Cherry.mp3
/Users/imac/Working Folder/XLD/UFO - Strangers In The Night CD5 (2020) [MP3-V0]/03 - UFO - Cherry.mp3

Track gain : -8.14 dB
Peak : 0.970428
CRC32 hash (test run) : B0B18BF2
CRC32 hash : B0B18BF2
CRC32 hash (skip zero) : 16E6DACC
AccurateRip v1 signature : 2EF0E15C
AccurateRip v2 signature : 45713E4A
->Track not present in AccurateRip database.
Statistics
Read error : 0
Jitter error (maybe fixed) : 0
Retry sector count : 0
Damaged sector count : 0

Track 04
Filename : /Users/imac/Working Folder/XLD/UFO - Strangers In The Night CD5 (2020) [FLAC]/04 - UFO - Let It Roll.flac
/Users/imac/Working Folder/XLD/UFO - Strangers In The Night CD5 (2020) [MP3-320]/04 - UFO - Let It Roll.mp3
/Users/imac/Working Folder/XLD/UFO - Strangers In The Night CD5 (2020) [MP3-V0]/04 - UFO - Let It Roll.mp3

Track gain : -8.61 dB
Peak : 0.970428
CRC32 hash (test run) : 238CAEEA
CRC32 hash : 238CAEEA
CRC32 hash (skip zero) : B6CF0370
AccurateRip v1 signature : 72468FBC
AccurateRip v2 signature : 7600F21B
->Track not present in AccurateRip database.
Statistics
Read error : 0
Jitter error (maybe fixed) : 0
Retry sector count : 0
Damaged sector count : 0

Track 05
Filename : /Users/imac/Working Folder/XLD/UFO - Strangers In The Night CD5 (2020) [FLAC]/05 - UFO - Love To Love.flac
/Users/imac/Working Folder/XLD/UFO - Strangers In The Night CD5 (2020) [MP3-320]/05 - UFO - Love To Love.mp3
/Users/imac/Working Folder/XLD/UFO - Strangers In The Night CD5 (2020) [MP3-V0]/05 - UFO - Love To Love.mp3

Track gain : -6.56 dB
Peak : 0.970428
CRC32 hash (test run) : 54E0737E
CRC32 hash : 54E0737E
CRC32 hash (skip zero) : 022B93EA
AccurateRip v1 signature : 660BA72E
AccurateRip v2 signature : AF317D52
->Track not present in AccurateRip database.
Statistics
Read error : 0
Jitter error (maybe fixed) : 0
Retry sector count : 0
Damaged sector count : 0

Track 06
Filename : /Users/imac/Working Folder/XLD/UFO - Strangers In The Night CD5 (2020) [FLAC]/06 - UFO - Natural Thing.flac
/Users/imac/Working Folder/XLD/UFO - Strangers In The Night CD5 (2020) [MP3-320]/06 - UFO - Natural Thing.mp3
/Users/imac/Working Folder/XLD/UFO - Strangers In The Night CD5 (2020) [MP3-V0]/06 - UFO - Natural Thing.mp3

Track gain : -8.97 dB
Peak : 0.970428
CRC32 hash (test run) : 80EE19E3
CRC32 hash : 80EE19E3
CRC32 hash (skip zero) : 26140E85
AccurateRip v1 signature : 5CFB2768
AccurateRip v2 signature : B97C02BA
->Track not present in AccurateRip database.
Statistics
Read error : 0
Jitter error (maybe fixed) : 0
Retry sector count : 0
Damaged sector count : 0

Track 07
Filename : /Users/imac/Working Folder/XLD/UFO - Strangers In The Night CD5 (2020) [FLAC]/07 - UFO - Out On The Street.flac
/Users/imac/Working Folder/XLD/UFO - Strangers In The Night CD5 (2020) [MP3-320]/07 - UFO - Out On The Street.mp3
/Users/imac/Working Folder/XLD/UFO - Strangers In The Night CD5 (2020) [MP3-V0]/07 - UFO - Out On The Street.mp3

Track gain : -7.93 dB
Peak : 0.970428
CRC32 hash (test run) : D3785AC5
CRC32 hash : D3785AC5
CRC32 hash (skip zero) : 7D45DB08
AccurateRip v1 signature : A5E9D824
AccurateRip v2 signature : 374DA5D0
->Track not present in AccurateRip database.
Statistics
Read error : 0
Jitter error (maybe fixed) : 0
Retry sector count : 0
Damaged sector count : 0

Track 08
Filename : /Users/imac/Working Folder/XLD/UFO - Strangers In The Night CD5 (2020) [FLAC]/08 - UFO - Only You Can Rock Me.flac
/Users/imac/Working Folder/XLD/UFO - Strangers In The Night CD5 (2020) [MP3-320]/08 - UFO - Only You Can Rock Me.mp3
/Users/imac/Working Folder/XLD/UFO - Strangers In The Night CD5 (2020) [MP3-V0]/08 - UFO - Only You Can Rock Me.mp3

Track gain : -8.37 dB
Peak : 0.970428
CRC32 hash (test run) : CC3EA6D4
CRC32 hash : CC3EA6D4
CRC32 hash (skip zero) : DA1F8C83
AccurateRip v1 signature : 351216EE
AccurateRip v2 signature : 746B0F59
->Track not present in AccurateRip database.
Statistics
Read error : 0
Jitter error (maybe fixed) : 0
Retry sector count : 0
Damaged sector count : 0

Track 09
Filename : /Users/imac/Working Folder/XLD/UFO - Strangers In The Night CD5 (2020) [FLAC]/09 - UFO - On With The Action.flac
/Users/imac/Working Folder/XLD/UFO - Strangers In The Night CD5 (2020) [MP3-320]/09 - UFO - On With The Action.mp3
/Users/imac/Working Folder/XLD/UFO - Strangers In The Night CD5 (2020) [MP3-V0]/09 - UFO - On With The Action.mp3

Track gain : -8.43 dB
Peak : 0.970428
CRC32 hash (test run) : 50F00F00
CRC32 hash : 50F00F00
CRC32 hash (skip zero) : 637B28A1
AccurateRip v1 signature : FC353AAE
AccurateRip v2 signature : 441635C7
->Track not present in AccurateRip database.
Statistics
Read error : 0
Jitter error (maybe fixed) : 0
Retry sector count : 0
Damaged sector count : 0

Track 10
Filename : /Users/imac/Working Folder/XLD/UFO - Strangers In The Night CD5 (2020) [FLAC]/10 - UFO - Doctor Doctor.flac
/Users/imac/Working Folder/XLD/UFO - Strangers In The Night CD5 (2020) [MP3-320]/10 - UFO - Doctor Doctor.mp3
/Users/imac/Working Folder/XLD/UFO - Strangers In The Night CD5 (2020) [MP3-V0]/10 - UFO - Doctor Doctor.mp3

Track gain : -8.28 dB
Peak : 0.970428
CRC32 hash (test run) : 9A90C78E
CRC32 hash : 9A90C78E
CRC32 hash (skip zero) : 77573C1B
AccurateRip v1 signature : 0442D412
AccurateRip v2 signature : 63613434
->Track not present in AccurateRip database.
Statistics
Read error : 0
Jitter error (maybe fixed) : 0
Retry sector count : 0
Damaged sector count : 0

Track 11
Filename : /Users/imac/Working Folder/XLD/UFO - Strangers In The Night CD5 (2020) [FLAC]/11 - UFO - Lights Out.flac
/Users/imac/Working Folder/XLD/UFO - Strangers In The Night CD5 (2020) [MP3-320]/11 - UFO - Lights Out.mp3
/Users/imac/Working Folder/XLD/UFO - Strangers In The Night CD5 (2020) [MP3-V0]/11 - UFO - Lights Out.mp3

Track gain : -8.90 dB
Peak : 0.970428
CRC32 hash (test run) : 97FF8F70
CRC32 hash : 97FF8F70
CRC32 hash (skip zero) : ECD5FFF2
AccurateRip v1 signature : 489875B0
AccurateRip v2 signature : 8567050E
->Track not present in AccurateRip database.
Statistics
Read error : 0
Jitter error (maybe fixed) : 0
Retry sector count : 0
Damaged sector count : 0

Track 12
Filename : /Users/imac/Working Folder/XLD/UFO - Strangers In The Night CD5 (2020) [FLAC]/12 - UFO - Rock Bottom.flac
/Users/imac/Working Folder/XLD/UFO - Strangers In The Night CD5 (2020) [MP3-320]/12 - UFO - Rock Bottom.mp3
/Users/imac/Working Folder/XLD/UFO - Strangers In The Night CD5 (2020) [MP3-V0]/12 - UFO - Rock Bottom.mp3

Track gain : -8.47 dB
Peak : 0.970428
CRC32 hash (test run) : FAD6B082
CRC32 hash : FAD6B082
CRC32 hash (skip zero) : E1286141
AccurateRip v1 signature : B0A75120
AccurateRip v2 signature : 8F3BEFBA
->Track not present in AccurateRip database.
Statistics
Read error : 0
Jitter error (maybe fixed) : 0
Retry sector count : 0
Damaged sector count : 0

Track 13
Filename : /Users/imac/Working Folder/XLD/UFO - Strangers In The Night CD5 (2020) [FLAC]/13 - UFO - Too Hot To Handle.flac
/Users/imac/Working Folder/XLD/UFO - Strangers In The Night CD5 (2020) [MP3-320]/13 - UFO - Too Hot To Handle.mp3
/Users/imac/Working Folder/XLD/UFO - Strangers In The Night CD5 (2020) [MP3-V0]/13 - UFO - Too Hot To Handle.mp3

Track gain : -8.89 dB
Peak : 0.970428
CRC32 hash (test run) : A6324361
CRC32 hash : A6324361
CRC32 hash (skip zero) : 675E1E56
AccurateRip v1 signature : C2D491A8
AccurateRip v2 signature : B60A8C0C
->Track not present in AccurateRip database.
Statistics
Read error : 0
Jitter error (maybe fixed) : 0
Retry sector count : 0
Damaged sector count : 0

Track 14
Filename : /Users/imac/Working Folder/XLD/UFO - Strangers In The Night CD5 (2020) [FLAC]/14 - UFO - Shoot Shoot.flac
/Users/imac/Working Folder/XLD/UFO - Strangers In The Night CD5 (2020) [MP3-320]/14 - UFO - Shoot Shoot.mp3
/Users/imac/Working Folder/XLD/UFO - Strangers In The Night CD5 (2020) [MP3-V0]/14 - UFO - Shoot Shoot.mp3

Track gain : -9.11 dB
Peak : 0.970428
CRC32 hash (test run) : 2008E476
CRC32 hash : 2008E476
CRC32 hash (skip zero) : E938920A
AccurateRip v1 signature : 70BDE614
AccurateRip v2 signature : DE3597E0
->Track not present in AccurateRip database.
Statistics
Read error : 0
Jitter error (maybe fixed) : 0
Retry sector count : 0
Damaged sector count : 0

No errors occurred

End of status report

––-BEGIN XLD SIGNATURE––-
9E.trEugkSM0shDYEkAE0sejL02CHWsntzeyPacHpCDqlzSJdGXE5m.FWhk2Qkt5ztRaw.uOTXS5v0fw41jqBBuImQKLvVU.f2uFmiq
––-END XLD SIGNATURE––-
X Lossless Decoder version 20191004 (152.0)

XLD extraction logfile from 2020-11-20 20:59:31 +0000

UFO / Strangers In The Night CD6

Used drive : MATSHITA BD-MLT UJ240AF (revision 1.00)
Media type : Pressed CD

Ripper mode : XLD Secure Ripper
Disable audio cache : OK for the drive with a cache less than 1375KiB
Make use of C2 pointers : NO
Read offset correction : 103
Max retry count : 25
Gap status : Analyzed, Appended (except HTOA)

TOC of the extracted CD
Track | Start | Length | Start sector | End sector
––––––––––––––––––––––––––––-
1 | 00:00:00 | 03:56:57 | 0 | 17756
2 | 03:56:57 | 03:21:74 | 17757 | 32905
3 | 07:18:56 | 03:59:47 | 32906 | 50877
4 | 11:18:28 | 04:46:62 | 50878 | 72389
5 | 16:05:15 | 08:23:44 | 72390 | 110158
6 | 24:28:59 | 03:32:29 | 110159 | 126087
7 | 28:01:13 | 05:15:57 | 126088 | 149769
8 | 33:16:70 | 04:15:58 | 149770 | 168952
9 | 37:32:53 | 04:55:64 | 168953 | 191141
10 | 42:28:42 | 04:50:73 | 191142 | 212964
11 | 47:19:40 | 04:12:05 | 212965 | 231869
12 | 51:31:45 | 05:25:03 | 231870 | 256247
13 | 56:56:48 | 11:24:50 | 256248 | 307597
14 | 68:21:23 | 05:40:52 | 307598 | 333149
15 | 74:02:00 | 04:07:11 | 333150 | 351685

AccurateRip Summary
Disc not found in AccurateRip DB.

All Tracks
Album gain : -7.94 dB
Peak : 0.970459
Statistics
Read error : 0
Jitter error (maybe fixed) : 0
Retry sector count : 0
Damaged sector count : 0

Track 01
Filename : /Users/imac/Working Folder/XLD/UFO - Strangers In The Night CD6 (2020) [FLAC]/01 - UFO - Hot 'n' Ready.flac
/Users/imac/Working Folder/XLD/UFO - Strangers In The Night CD6 (2020) [MP3-320]/01 - UFO - Hot 'n' Ready.mp3
/Users/imac/Working Folder/XLD/UFO - Strangers In The Night CD6 (2020) [MP3-V0]/01 - UFO - Hot 'n' Ready.mp3
Pre-gap length : 00:02:00

Track gain : -8.25 dB
Peak : 0.970428
CRC32 hash (test run) : 109CA02C
CRC32 hash : 109CA02C
CRC32 hash (skip zero) : 1F0848DF
AccurateRip v1 signature : 8482C6E8
AccurateRip v2 signature : 6A813145
->Track not present in AccurateRip database.
Statistics
Read error : 0
Jitter error (maybe fixed) : 0
Retry sector count : 0
Damaged sector count : 0

Track 02
Filename : /Users/imac/Working Folder/XLD/UFO - Strangers In The Night CD6 (2020) [FLAC]/02 - UFO - Pack It Up (And Go).flac
/Users/imac/Working Folder/XLD/UFO - Strangers In The Night CD6 (2020) [MP3-320]/02 - UFO - Pack It Up (And Go).mp3
/Users/imac/Working Folder/XLD/UFO - Strangers In The Night CD6 (2020) [MP3-V0]/02 - UFO - Pack It Up (And Go).mp3

Track gain : -8.01 dB
Peak : 0.970428
CRC32 hash (test run) : 8BC483B1
CRC32 hash : 8BC483B1
CRC32 hash (skip zero) : D40E5D52
AccurateRip v1 signature : 81C80A8B
AccurateRip v2 signature : BA69FD45
->Track not present in AccurateRip database.
Statistics
Read error : 0
Jitter error (maybe fixed) : 0
Retry sector count : 0
Damaged sector count : 0

Track 03
Filename : /Users/imac/Working Folder/XLD/UFO - Strangers In The Night CD6 (2020) [FLAC]/03 - UFO - Cherry.flac
/Users/imac/Working Folder/XLD/UFO - Strangers In The Night CD6 (2020) [MP3-320]/03 - UFO - Cherry.mp3
/Users/imac/Working Folder/XLD/UFO - Strangers In The Night CD6 (2020) [MP3-V0]/03 - UFO - Cherry.mp3

Track gain : -6.46 dB
Peak : 0.970428
CRC32 hash (test run) : 7A3E9140
CRC32 hash : 7A3E9140
CRC32 hash (skip zero) : DC48B5CE
AccurateRip v1 signature : 1F90BE33
AccurateRip v2 signature : DE953F8D
->Track not present in AccurateRip database.
Statistics
Read error : 0
Jitter error (maybe fixed) : 0
Retry sector count : 0
Damaged sector count : 0

Track 04
Filename : /Users/imac/Working Folder/XLD/UFO - Strangers In The Night CD6 (2020) [FLAC]/04 - UFO - Let It Roll.flac
/Users/imac/Working Folder/XLD/UFO - Strangers In The Night CD6 (2020) [MP3-320]/04 - UFO - Let It Roll.mp3
/Users/imac/Working Folder/XLD/UFO - Strangers In The Night CD6 (2020) [MP3-V0]/04 - UFO - Let It Roll.mp3

Track gain : -7.95 dB
Peak : 0.970459
CRC32 hash (test run) : 0C476A7D
CRC32 hash : 0C476A7D
CRC32 hash (skip zero) : 606D3629
AccurateRip v1 signature : 8CF21A0C
AccurateRip v2 signature : 5B09F1E0
->Track not present in AccurateRip database.
Statistics
Read error : 0
Jitter error (maybe fixed) : 0
Retry sector count : 0
Damaged sector count : 0

Track 05
Filename : /Users/imac/Working Folder/XLD/UFO - Strangers In The Night CD6 (2020) [FLAC]/05 - UFO - Love To Love.flac
/Users/imac/Working Folder/XLD/UFO - Strangers In The Night CD6 (2020) [MP3-320]/05 - UFO - Love To Love.mp3
/Users/imac/Working Folder/XLD/UFO - Strangers In The Night CD6 (2020) [MP3-V0]/05 - UFO - Love To Love.mp3

Track gain : -6.52 dB
Peak : 0.970428
CRC32 hash (test run) : 9521775C
CRC32 hash : 9521775C
CRC32 hash (skip zero) : C27E0882
AccurateRip v1 signature : 7F2D5775
AccurateRip v2 signature : 7B89B682
->Track not present in AccurateRip database.
Statistics
Read error : 0
Jitter error (maybe fixed) : 0
Retry sector count : 0
Damaged sector count : 0

Track 06
Filename : /Users/imac/Working Folder/XLD/UFO - Strangers In The Night CD6 (2020) [FLAC]/06 - UFO - Natural Thing.flac
/Users/imac/Working Folder/XLD/UFO - Strangers In The Night CD6 (2020) [MP3-320]/06 - UFO - Natural Thing.mp3
/Users/imac/Working Folder/XLD/UFO - Strangers In The Night CD6 (2020) [MP3-V0]/06 - UFO - Natural Thing.mp3

Track gain : -8.46 dB
Peak : 0.970428
CRC32 hash (test run) : 4E6D2426
CRC32 hash : 4E6D2426
CRC32 hash (skip zero) : 80A188E5
AccurateRip v1 signature : 3C292DB8
AccurateRip v2 signature : 36A07472
->Track not present in AccurateRip database.
Statistics
Read error : 0
Jitter error (maybe fixed) : 0
Retry sector count : 0
Damaged sector count : 0

Track 07
Filename : /Users/imac/Working Folder/XLD/UFO - Strangers In The Night CD6 (2020) [FLAC]/07 - UFO - Out In The Street.flac
/Users/imac/Working Folder/XLD/UFO - Strangers In The Night CD6 (2020) [MP3-320]/07 - UFO - Out In The Street.mp3
/Users/imac/Working Folder/XLD/UFO - Strangers In The Night CD6 (2020) [MP3-V0]/07 - UFO - Out In The Street.mp3

Track gain : -7.14 dB
Peak : 0.970428
CRC32 hash (test run) : DF358B43
CRC32 hash : DF358B43
CRC32 hash (skip zero) : F36BC5B8
AccurateRip v1 signature : F9A93239
AccurateRip v2 signature : 94D03D5C
->Track not present in AccurateRip database.
Statistics
Read error : 0
Jitter error (maybe fixed) : 0
Retry sector count : 0
Damaged sector count : 0

Track 08
Filename : /Users/imac/Working Folder/XLD/UFO - Strangers In The Night CD6 (2020) [FLAC]/08 - UFO - Only You Can Rock Me.flac
/Users/imac/Working Folder/XLD/UFO - Strangers In The Night CD6 (2020) [MP3-320]/08 - UFO - Only You Can Rock Me.mp3
/Users/imac/Working Folder/XLD/UFO - Strangers In The Night CD6 (2020) [MP3-V0]/08 - UFO - Only You Can Rock Me.mp3

Track gain : -7.50 dB
Peak : 0.970428
CRC32 hash (test run) : D186EDA7
CRC32 hash : D186EDA7
CRC32 hash (skip zero) : 0AC0C127
AccurateRip v1 signature : B22C53FC
AccurateRip v2 signature : F8D393DD
->Track not present in AccurateRip database.
Statistics
Read error : 0
Jitter error (maybe fixed) : 0
Retry sector count : 0
Damaged sector count : 0

Track 09
Filename : /Users/imac/Working Folder/XLD/UFO - Strangers In The Night CD6 (2020) [FLAC]/09 - UFO - On With The Action.flac
/Users/imac/Working Folder/XLD/UFO - Strangers In The Night CD6 (2020) [MP3-320]/09 - UFO - On With The Action.mp3
/Users/imac/Working Folder/XLD/UFO - Strangers In The Night CD6 (2020) [MP3-V0]/09 - UFO - On With The Action.mp3

Track gain : -8.14 dB
Peak : 0.970459
CRC32 hash (test run) : 884F523F
CRC32 hash : 884F523F
CRC32 hash (skip zero) : 71B7F507
AccurateRip v1 signature : 8DABD754
AccurateRip v2 signature : 396A3A8D
->Track not present in AccurateRip database.
Statistics
Read error : 0
Jitter error (maybe fixed) : 0
Retry sector count : 0
Damaged sector count : 0

Track 10
Filename : /Users/imac/Working Folder/XLD/UFO - Strangers In The Night CD6 (2020) [FLAC]/10 - UFO - Doctor Doctor.flac
/Users/imac/Working Folder/XLD/UFO - Strangers In The Night CD6 (2020) [MP3-320]/10 - UFO - Doctor Doctor.mp3
/Users/imac/Working Folder/XLD/UFO - Strangers In The Night CD6 (2020) [MP3-V0]/10 - UFO - Doctor Doctor.mp3

Track gain : -7.94 dB
Peak : 0.970428
CRC32 hash (test run) : 6548B7BF
CRC32 hash : 6548B7BF
CRC32 hash (skip zero) : 3605935C
AccurateRip v1 signature : B32CB626
AccurateRip v2 signature : C84B7A0E
->Track not present in AccurateRip database.
Statistics
Read error : 0
Jitter error (maybe fixed) : 0
Retry sector count : 0
Damaged sector count : 0

Track 11
Filename : /Users/imac/Working Folder/XLD/UFO - Strangers In The Night CD6 (2020) [FLAC]/11 - UFO - I'm A Loser.flac
/Users/imac/Working Folder/XLD/UFO - Strangers In The Night CD6 (2020) [MP3-320]/11 - UFO - I'm A Loser.mp3
/Users/imac/Working Folder/XLD/UFO - Strangers In The Night CD6 (2020) [MP3-V0]/11 - UFO - I'm A Loser.mp3

Track gain : -7.18 dB
Peak : 0.970428
CRC32 hash (test run) : 9C0900E5
CRC32 hash : 9C0900E5
CRC32 hash (skip zero) : 37B1F799
AccurateRip v1 signature : 7DB591D4
AccurateRip v2 signature : EC36A49C
->Track not present in AccurateRip database.
Statistics
Read error : 0
Jitter error (maybe fixed) : 0
Retry sector count : 0
Damaged sector count : 0

Track 12
Filename : /Users/imac/Working Folder/XLD/UFO - Strangers In The Night CD6 (2020) [FLAC]/12 - UFO - Lights Out.flac
/Users/imac/Working Folder/XLD/UFO - Strangers In The Night CD6 (2020) [MP3-320]/12 - UFO - Lights Out.mp3
/Users/imac/Working Folder/XLD/UFO - Strangers In The Night CD6 (2020) [MP3-V0]/12 - UFO - Lights Out.mp3

Track gain : -8.70 dB
Peak : 0.970428
CRC32 hash (test run) : A44B0045
CRC32 hash : A44B0045
CRC32 hash (skip zero) : C6BD63C0
AccurateRip v1 signature : A5E62F18
AccurateRip v2 signature : A5D82A76
->Track not present in AccurateRip database.
Statistics
Read error : 0
Jitter error (maybe fixed) : 0
Retry sector count : 0
Damaged sector count : 0

Track 13
Filename : /Users/imac/Working Folder/XLD/UFO - Strangers In The Night CD6 (2020) [FLAC]/13 - UFO - Rock Bottom.flac
/Users/imac/Working Folder/XLD/UFO - Strangers In The Night CD6 (2020) [MP3-320]/13 - UFO - Rock Bottom.mp3
/Users/imac/Working Folder/XLD/UFO - Strangers In The Night CD6 (2020) [MP3-V0]/13 - UFO - Rock Bottom.mp3

Track gain : -8.33 dB
Peak : 0.970428
CRC32 hash (test run) : 8A1654B4
CRC32 hash : 8A1654B4
CRC32 hash (skip zero) : 0F82F14D
AccurateRip v1 signature : 0E1F8931
AccurateRip v2 signature : 16AFD142
->Track not present in AccurateRip database.
Statistics
Read error : 0
Jitter error (maybe fixed) : 0
Retry sector count : 0
Damaged sector count : 0

Track 14
Filename : /Users/imac/Working Folder/XLD/UFO - Strangers In The Night CD6 (2020) [FLAC]/14 - UFO - Too Hot To Handle.flac
/Users/imac/Working Folder/XLD/UFO - Strangers In The Night CD6 (2020) [MP3-320]/14 - UFO - Too Hot To Handle.mp3
/Users/imac/Working Folder/XLD/UFO - Strangers In The Night CD6 (2020) [MP3-V0]/14 - UFO - Too Hot To Handle.mp3

Track gain : -8.54 dB
Peak : 0.970428
CRC32 hash (test run) : CC446069
CRC32 hash : CC446069
CRC32 hash (skip zero) : AC6F8ABD
AccurateRip v1 signature : 95AE08B1
AccurateRip v2 signature : E40633FD
->Track not present in AccurateRip database.
Statistics
Read error : 0
Jitter error (maybe fixed) : 0
Retry sector count : 0
Damaged sector count : 0

Track 15
Filename : /Users/imac/Working Folder/XLD/UFO - Strangers In The Night CD6 (2020) [FLAC]/15 - UFO - Shoot Shoot.flac
/Users/imac/Working Folder/XLD/UFO - Strangers In The Night CD6 (2020) [MP3-320]/15 - UFO - Shoot Shoot.mp3
/Users/imac/Working Folder/XLD/UFO - Strangers In The Night CD6 (2020) [MP3-V0]/15 - UFO - Shoot Shoot.mp3

Track gain : -9.00 dB
Peak : 0.970428
CRC32 hash (test run) : EE2A1B4B
CRC32 hash : EE2A1B4B
CRC32 hash (skip zero) : 4560C685
AccurateRip v1 signature : 84945CC5
AccurateRip v2 signature : 4A2C3B1A
->Track not present in AccurateRip database.
Statistics
Read error : 0
Jitter error (maybe fixed) : 0
Retry sector count : 0
Damaged sector count : 0

No errors occurred

End of status report

––-BEGIN XLD SIGNATURE––-
KkMRQ3CE8hi7iL3_ckHRjLhhMyIG96AYJ0zlA4rO0_GRmYc3Biw_3lFSRXeZSQrgkR5Vv0f8i__O9od6utW1D0Zgh.E38IpcgxkifAO
––-END XLD SIGNATURE––-
X Lossless Decoder version 20191004 (152.0)

XLD extraction logfile from 2020-11-21 10:14:54 +0000

UFO / Strangers In The Night CD7

Used drive : MATSHITA BD-MLT UJ240AF (revision 1.00)
Media type : Pressed CD

Ripper mode : XLD Secure Ripper
Disable audio cache : OK for the drive with a cache less than 1375KiB
Make use of C2 pointers : NO
Read offset correction : 103
Max retry count : 25
Gap status : Analyzed, Appended (except HTOA)

TOC of the extracted CD
Track | Start | Length | Start sector | End sector
––––––––––––––––––––––––––––-
1 | 00:00:00 | 03:50:21 | 0 | 17270
2 | 03:50:21 | 03:35:61 | 17271 | 33456
3 | 07:26:07 | 03:59:16 | 33457 | 51397
4 | 11:25:23 | 05:06:47 | 51398 | 74394
5 | 16:31:70 | 08:42:02 | 74395 | 113546
6 | 25:13:72 | 03:55:57 | 113547 | 131228
7 | 29:09:54 | 05:43:59 | 131229 | 157012
8 | 34:53:38 | 05:37:61 | 157013 | 182348
9 | 40:31:24 | 04:44:01 | 182349 | 203649
10 | 45:15:25 | 05:03:42 | 203650 | 226416
11 | 50:18:67 | 05:29:36 | 226417 | 251127
12 | 55:48:28 | 05:47:49 | 251128 | 277201
13 | 61:36:02 | 13:58:20 | 277202 | 340071
14 | 75:34:22 | 04:11:30 | 340072 | 358926

AccurateRip Summary
Disc not found in AccurateRip DB.

All Tracks
Album gain : -8.02 dB
Peak : 0.970428
Statistics
Read error : 0
Jitter error (maybe fixed) : 0
Retry sector count : 0
Damaged sector count : 0

Track 01
Filename : /Users/imac/Working Folder/XLD/UFO - Strangers In The Night CD7 (2020) [FLAC]/01 - UFO - Hot 'n' Ready.flac
/Users/imac/Working Folder/XLD/UFO - Strangers In The Night CD7 (2020) [MP3-320]/01 - UFO - Hot 'n' Ready.mp3
/Users/imac/Working Folder/XLD/UFO - Strangers In The Night CD7 (2020) [MP3-V0]/01 - UFO - Hot 'n' Ready.mp3
Pre-gap length : 00:02:00

Track gain : -8.19 dB
Peak : 0.970428
CRC32 hash (test run) : AFB81E0B
CRC32 hash : AFB81E0B
CRC32 hash (skip zero) : EB8AA522
AccurateRip v1 signature : BEE61692
AccurateRip v2 signature : EC0FA8A3
->Track not present in AccurateRip database.
Statistics
Read error : 0
Jitter error (maybe fixed) : 0
Retry sector count : 0
Damaged sector count : 0

Track 02
Filename : /Users/imac/Working Folder/XLD/UFO - Strangers In The Night CD7 (2020) [FLAC]/02 - UFO - Pack It Up (And Go).flac
/Users/imac/Working Folder/XLD/UFO - Strangers In The Night CD7 (2020) [MP3-320]/02 - UFO - Pack It Up (And Go).mp3
/Users/imac/Working Folder/XLD/UFO - Strangers In The Night CD7 (2020) [MP3-V0]/02 - UFO - Pack It Up (And Go).mp3

Track gain : -8.08 dB
Peak : 0.970428
CRC32 hash (test run) : 572A4831
CRC32 hash : 572A4831
CRC32 hash (skip zero) : EBE41854
AccurateRip v1 signature : 563CF214
AccurateRip v2 signature : 4E2E82B8
->Track not present in AccurateRip database.
Statistics
Read error : 0
Jitter error (maybe fixed) : 0
Retry sector count : 0
Damaged sector count : 0

Track 03
Filename : /Users/imac/Working Folder/XLD/UFO - Strangers In The Night CD7 (2020) [FLAC]/03 - UFO - Cherry.flac
/Users/imac/Working Folder/XLD/UFO - Strangers In The Night CD7 (2020) [MP3-320]/03 - UFO - Cherry.mp3
/Users/imac/Working Folder/XLD/UFO - Strangers In The Night CD7 (2020) [MP3-V0]/03 - UFO - Cherry.mp3

Track gain : -7.16 dB
Peak : 0.970428
CRC32 hash (test run) : 4F60F6A2
CRC32 hash : 4F60F6A2
CRC32 hash (skip zero) : 10487222
AccurateRip v1 signature : 0F897D23
AccurateRip v2 signature : 2C1957D5
->Track not present in AccurateRip database.
Statistics
Read error : 0
Jitter error (maybe fixed) : 0
Retry sector count : 0
Damaged sector count : 0

Track 04
Filename : /Users/imac/Working Folder/XLD/UFO - Strangers In The Night CD7 (2020) [FLAC]/04 - UFO - Let It Roll.flac
/Users/imac/Working Folder/XLD/UFO - Strangers In The Night CD7 (2020) [MP3-320]/04 - UFO - Let It Roll.mp3
/Users/imac/Working Folder/XLD/UFO - Strangers In The Night CD7 (2020) [MP3-V0]/04 - UFO - Let It Roll.mp3

Track gain : -8.12 dB
Peak : 0.970428
CRC32 hash (test run) : E95A76AF
CRC32 hash : E95A76AF
CRC32 hash (skip zero) : F606E5B7
AccurateRip v1 signature : D1B7FA92
AccurateRip v2 signature : 3AF398E5
->Track not present in AccurateRip database.
Statistics
Read error : 0
Jitter error (maybe fixed) : 0
Retry sector count : 0
Damaged sector count : 0

Track 05
Filename : /Users/imac/Working Folder/XLD/UFO - Strangers In The Night CD7 (2020) [FLAC]/05 - UFO - Love To Love.flac
/Users/imac/Working Folder/XLD/UFO - Strangers In The Night CD7 (2020) [MP3-320]/05 - UFO - Love To Love.mp3
/Users/imac/Working Folder/XLD/UFO - Strangers In The Night CD7 (2020) [MP3-V0]/05 - UFO - Love To Love.mp3

Track gain : -7.11 dB
Peak : 0.970428
CRC32 hash (test run) : 4464F493
CRC32 hash : 4464F493
CRC32 hash (skip zero) : DA3C70C8
AccurateRip v1 signature : 27BC4A40
AccurateRip v2 signature : 69E8AEFF
->Track not present in AccurateRip database.
Statistics
Read error : 0
Jitter error (maybe fixed) : 0
Retry sector count : 0
Damaged sector count : 0

Track 06
Filename : /Users/imac/Working Folder/XLD/UFO - Strangers In The Night CD7 (2020) [FLAC]/06 - UFO - Natural Thing.flac
/Users/imac/Working Folder/XLD/UFO - Strangers In The Night CD7 (2020) [MP3-320]/06 - UFO - Natural Thing.mp3
/Users/imac/Working Folder/XLD/UFO - Strangers In The Night CD7 (2020) [MP3-V0]/06 - UFO - Natural Thing.mp3

Track gain : -8.94 dB
Peak : 0.970428
CRC32 hash (test run) : AFFF7639
CRC32 hash : AFFF7639
CRC32 hash (skip zero) : 9F9B546D
AccurateRip v1 signature : C187983A
AccurateRip v2 signature : 1BD64D3E
->Track not present in AccurateRip database.
Statistics
Read error : 0
Jitter error (maybe fixed) : 0
Retry sector count : 0
Damaged sector count : 0

Track 07
Filename : /Users/imac/Working Folder/XLD/UFO - Strangers In The Night CD7 (2020) [FLAC]/07 - UFO - Out In The Street.flac
/Users/imac/Working Folder/XLD/UFO - Strangers In The Night CD7 (2020) [MP3-320]/07 - UFO - Out In The Street.mp3
/Users/imac/Working Folder/XLD/UFO - Strangers In The Night CD7 (2020) [MP3-V0]/07 - UFO - Out In The Street.mp3

Track gain : -7.79 dB
Peak : 0.970428
CRC32 hash (test run) : 71AEE384
CRC32 hash : 71AEE384
CRC32 hash (skip zero) : EE95C17B
AccurateRip v1 signature : 0ABBFECB
AccurateRip v2 signature : 5F4D8F96
->Track not present in AccurateRip database.
Statistics
Read error : 0
Jitter error (maybe fixed) : 0
Retry sector count : 0
Damaged sector count : 0

Track 08
Filename : /Users/imac/Working Folder/XLD/UFO - Strangers In The Night CD7 (2020) [FLAC]/08 - UFO - Too Hot To Handle.flac
/Users/imac/Working Folder/XLD/UFO - Strangers In The Night CD7 (2020) [MP3-320]/08 - UFO - Too Hot To Handle.mp3
/Users/imac/Working Folder/XLD/UFO - Strangers In The Night CD7 (2020) [MP3-V0]/08 - UFO - Too Hot To Handle.mp3

Track gain : -8.78 dB
Peak : 0.970428
CRC32 hash (test run) : 0B6A7C45
CRC32 hash : 0B6A7C45
CRC32 hash (skip zero) : 40A2D5D1
AccurateRip v1 signature : F44B3BFA
AccurateRip v2 signature : 8F130F51
->Track not present in AccurateRip database.
Statistics
Read error : 0
Jitter error (maybe fixed) : 0
Retry sector count : 0
Damaged sector count : 0

Track 09
Filename : /Users/imac/Working Folder/XLD/UFO - Strangers In The Night CD7 (2020) [FLAC]/09 - UFO - I'm A Loser.flac
/Users/imac/Working Folder/XLD/UFO - Strangers In The Night CD7 (2020) [MP3-320]/09 - UFO - I'm A Loser.mp3
/Users/imac/Working Folder/XLD/UFO - Strangers In The Night CD7 (2020) [MP3-V0]/09 - UFO - I'm A Loser.mp3

Track gain : -7.43 dB
Peak : 0.970428
CRC32 hash (test run) : 773EB52F
CRC32 hash : 773EB52F
CRC32 hash (skip zero) : 9F3FB9C3
AccurateRip v1 signature : F2733B8D
AccurateRip v2 signature : 90EF2BEF
->Track not present in AccurateRip database.
Statistics
Read error : 0
Jitter error (maybe fixed) : 0
Retry sector count : 0
Damaged sector count : 0

Track 10
Filename : /Users/imac/Working Folder/XLD/UFO - Strangers In The Night CD7 (2020) [FLAC]/10 - UFO - On With The Action.flac
/Users/imac/Working Folder/XLD/UFO - Strangers In The Night CD7 (2020) [MP3-320]/10 - UFO - On With The Action.mp3
/Users/imac/Working Folder/XLD/UFO - Strangers In The Night CD7 (2020) [MP3-V0]/10 - UFO - On With The Action.mp3

Track gain : -8.65 dB
Peak : 0.970428
CRC32 hash (test run) : 337364B3
CRC32 hash : 337364B3
CRC32 hash (skip zero) : 0F32C6AC
AccurateRip v1 signature : 13542C8C
AccurateRip v2 signature : 97E2ACAA
->Track not present in AccurateRip database.
Statistics
Read error : 0
Jitter error (maybe fixed) : 0
Retry sector count : 0
Damaged sector count : 0

Track 11
Filename : /Users/imac/Working Folder/XLD/UFO - Strangers In The Night CD7 (2020) [FLAC]/11 - UFO - Doctor Doctor.flac
/Users/imac/Working Folder/XLD/UFO - Strangers In The Night CD7 (2020) [MP3-320]/11 - UFO - Doctor Doctor.mp3
/Users/imac/Working Folder/XLD/UFO - Strangers In The Night CD7 (2020) [MP3-V0]/11 - UFO - Doctor Doctor.mp3

Track gain : -8.26 dB
Peak : 0.970428
CRC32 hash (test run) : 9B0C2646
CRC32 hash : 9B0C2646
CRC32 hash (skip zero) : A6AF0265
AccurateRip v1 signature : 9C5ECF96
AccurateRip v2 signature : 0554F13E
->Track not present in AccurateRip database.
Statistics
Read error : 0
Jitter error (maybe fixed) : 0
Retry sector count : 0
Damaged sector count : 0

Track 12
Filename : /Users/imac/Working Folder/XLD/UFO - Strangers In The Night CD7 (2020) [FLAC]/12 - UFO - Lights Out.flac
/Users/imac/Working Folder/XLD/UFO - Strangers In The Night CD7 (2020) [MP3-320]/12 - UFO - Lights Out.mp3
/Users/imac/Working Folder/XLD/UFO - Strangers In The Night CD7 (2020) [MP3-V0]/12 - UFO - Lights Out.mp3

Track gain : -8.08 dB
Peak : 0.970428
CRC32 hash (test run) : 80EF0DDB
CRC32 hash : 80EF0DDB
CRC32 hash (skip zero) : D53A975A
AccurateRip v1 signature : 5B3642CD
AccurateRip v2 signature : 9E78FAEF
->Track not present in AccurateRip database.
Statistics
Read error : 0
Jitter error (maybe fixed) : 0
Retry sector count : 0
Damaged sector count : 0

Track 13
Filename : /Users/imac/Working Folder/XLD/UFO - Strangers In The Night CD7 (2020) [FLAC]/13 - UFO - Rock Bottom.flac
/Users/imac/Working Folder/XLD/UFO - Strangers In The Night CD7 (2020) [MP3-320]/13 - UFO - Rock Bottom.mp3
/Users/imac/Working Folder/XLD/UFO - Strangers In The Night CD7 (2020) [MP3-V0]/13 - UFO - Rock Bottom.mp3

Track gain : -7.60 dB
Peak : 0.970428
CRC32 hash (test run) : 290D44FF
CRC32 hash : 290D44FF
CRC32 hash (skip zero) : F4966313
AccurateRip v1 signature : 4F08B0E4
AccurateRip v2 signature : 24BC2D09
->Track not present in AccurateRip database.
Statistics
Read error : 0
Jitter error (maybe fixed) : 0
Retry sector count : 0
Damaged sector count : 0

Track 14
Filename : /Users/imac/Working Folder/XLD/UFO - Strangers In The Night CD7 (2020) [FLAC]/14 - UFO - Shoot Shoot.flac
/Users/imac/Working Folder/XLD/UFO - Strangers In The Night CD7 (2020) [MP3-320]/14 - UFO - Shoot Shoot.mp3
/Users/imac/Working Folder/XLD/UFO - Strangers In The Night CD7 (2020) [MP3-V0]/14 - UFO - Shoot Shoot.mp3

Track gain : -8.67 dB
Peak : 0.970428
CRC32 hash (test run) : 6EB1C0F4
CRC32 hash : 6EB1C0F4
CRC32 hash (skip zero) : 3988CDA0
AccurateRip v1 signature : 3870F70F
AccurateRip v2 signature : 596FC572
->Track not present in AccurateRip database.
Statistics
Read error : 0
Jitter error (maybe fixed) : 0
Retry sector count : 0
Damaged sector count : 0

No errors occurred

End of status report

––-BEGIN XLD SIGNATURE––-
jxy2fcvLcwnTgXVgvsKVWUaOMCsB18PYk3zDMxjHOb9S9s1HdjaKV9Sgo5jDXIuuRdPML60WRYWvdAqvs97zXEEHTrhPkg0Dbvj3mX4
––-END XLD SIGNATURE––-
X Lossless Decoder version 20191004 (152.0)

XLD extraction logfile from 2020-11-21 10:53:50 +0000

UFO / Strangers In The Night CD8

Used drive : MATSHITA BD-MLT UJ240AF (revision 1.00)
Media type : Pressed CD

Ripper mode : XLD Secure Ripper
Disable audio cache : OK for the drive with a cache less than 1375KiB
Make use of C2 pointers : NO
Read offset correction : 103
Max retry count : 25
Gap status : Analyzed, Appended (except HTOA)

TOC of the extracted CD
Track | Start | Length | Start sector | End sector
––––––––––––––––––––––––––––-
1 | 00:00:00 | 03:46:01 | 0 | 16950
2 | 03:46:01 | 03:29:25 | 16951 | 32650
3 | 07:15:26 | 04:06:35 | 32651 | 51135
4 | 11:21:61 | 04:46:13 | 51136 | 72598
5 | 16:07:74 | 08:07:74 | 72599 | 109197
6 | 24:15:73 | 03:38:58 | 109198 | 125605
7 | 27:54:56 | 05:32:13 | 125606 | 150518
8 | 33:26:69 | 04:32:00 | 150519 | 170918
9 | 37:58:69 | 05:18:43 | 170919 | 194811
10 | 43:17:37 | 05:05:03 | 194812 | 217689
11 | 48:22:40 | 04:25:47 | 217690 | 237611
12 | 52:48:12 | 05:50:13 | 237612 | 263874
13 | 58:38:25 | 11:17:33 | 263875 | 314682
14 | 69:55:58 | 04:31:68 | 314683 | 335075
15 | 74:27:51 | 04:08:45 | 335076 | 353720

AccurateRip Summary
Disc not found in AccurateRip DB.

All Tracks
Album gain : -7.56 dB
Peak : 0.970428
Statistics
Read error : 0
Jitter error (maybe fixed) : 0
Retry sector count : 0
Damaged sector count : 0

Track 01
Filename : /Users/imac/Working Folder/XLD/UFO - Strangers In The Night CD8 (2020) [FLAC]/01 - UFO - Hot 'n' Ready.flac
/Users/imac/Working Folder/XLD/UFO - Strangers In The Night CD8 (2020) [MP3-320]/01 - UFO - Hot 'n' Ready.mp3
/Users/imac/Working Folder/XLD/UFO - Strangers In The Night CD8 (2020) [MP3-V0]/01 - UFO - Hot 'n' Ready.mp3
Pre-gap length : 00:02:00

Track gain : -8.43 dB
Peak : 0.970428
CRC32 hash (test run) : 01377230
CRC32 hash : 01377230
CRC32 hash (skip zero) : 5820412D
AccurateRip v1 signature : E848CD5E
AccurateRip v2 signature : 8789F0E9
->Track not present in AccurateRip database.
Statistics
Read error : 0
Jitter error (maybe fixed) : 0
Retry sector count : 0
Damaged sector count : 0

Track 02
Filename : /Users/imac/Working Folder/XLD/UFO - Strangers In The Night CD8 (2020) [FLAC]/02 - UFO - Pack It Up (And Go).flac
/Users/imac/Working Folder/XLD/UFO - Strangers In The Night CD8 (2020) [MP3-320]/02 - UFO - Pack It Up (And Go).mp3
/Users/imac/Working Folder/XLD/UFO - Strangers In The Night CD8 (2020) [MP3-V0]/02 - UFO - Pack It Up (And Go).mp3

Track gain : -8.23 dB
Peak : 0.970428
CRC32 hash (test run) : E5DE2662
CRC32 hash : E5DE2662
CRC32 hash (skip zero) : 9037EBE6
AccurateRip v1 signature : 545D53B2
AccurateRip v2 signature : 91BD908E
->Track not present in AccurateRip database.
Statistics
Read error : 0
Jitter error (maybe fixed) : 0
Retry sector count : 0
Damaged sector count : 0

Track 03
Filename : /Users/imac/Working Folder/XLD/UFO - Strangers In The Night CD8 (2020) [FLAC]/03 - UFO - Cherry.flac
/Users/imac/Working Folder/XLD/UFO - Strangers In The Night CD8 (2020) [MP3-320]/03 - UFO - Cherry.mp3
/Users/imac/Working Folder/XLD/UFO - Strangers In The Night CD8 (2020) [MP3-V0]/03 - UFO - Cherry.mp3

Track gain : -7.60 dB
Peak : 0.970428
CRC32 hash (test run) : 75CA985E
CRC32 hash : 75CA985E
CRC32 hash (skip zero) : 5C93870E
AccurateRip v1 signature : 879CF050
AccurateRip v2 signature : 9E9736DC
->Track not present in AccurateRip database.
Statistics
Read error : 0
Jitter error (maybe fixed) : 0
Retry sector count : 0
Damaged sector count : 0

Track 04
Filename : /Users/imac/Working Folder/XLD/UFO - Strangers In The Night CD8 (2020) [FLAC]/04 - UFO - Let It Roll.flac
/Users/imac/Working Folder/XLD/UFO - Strangers In The Night CD8 (2020) [MP3-320]/04 - UFO - Let It Roll.mp3
/Users/imac/Working Folder/XLD/UFO - Strangers In The Night CD8 (2020) [MP3-V0]/04 - UFO - Let It Roll.mp3

Track gain : -7.18 dB
Peak : 0.970428
CRC32 hash (test run) : 95E7DB9B
CRC32 hash : 95E7DB9B
CRC32 hash (skip zero) : 17774C7F
AccurateRip v1 signature : 885CFC4B
AccurateRip v2 signature : 78029FD6
->Track not present in AccurateRip database.
Statistics
Read error : 0
Jitter error (maybe fixed) : 0
Retry sector count : 0
Damaged sector count : 0

Track 05
Filename : /Users/imac/Working Folder/XLD/UFO - Strangers In The Night CD8 (2020) [FLAC]/05 - UFO - Love To Love.flac
/Users/imac/Working Folder/XLD/UFO - Strangers In The Night CD8 (2020) [MP3-320]/05 - UFO - Love To Love.mp3
/Users/imac/Working Folder/XLD/UFO - Strangers In The Night CD8 (2020) [MP3-V0]/05 - UFO - Love To Love.mp3

Track gain : -5.93 dB
Peak : 0.970428
CRC32 hash (test run) : B4C50E8D
CRC32 hash : B4C50E8D
CRC32 hash (skip zero) : 71D35050
AccurateRip v1 signature : 843CFE09
AccurateRip v2 signature : F2C20A07
->Track not present in AccurateRip database.
Statistics
Read error : 0
Jitter error (maybe fixed) : 0
Retry sector count : 0
Damaged sector count : 0

Track 06
Filename : /Users/imac/Working Folder/XLD/UFO - Strangers In The Night CD8 (2020) [FLAC]/06 - UFO - Natural Thing.flac
/Users/imac/Working Folder/XLD/UFO - Strangers In The Night CD8 (2020) [MP3-320]/06 - UFO - Natural Thing.mp3
/Users/imac/Working Folder/XLD/UFO - Strangers In The Night CD8 (2020) [MP3-V0]/06 - UFO - Natural Thing.mp3

Track gain : -7.98 dB
Peak : 0.970428
CRC32 hash (test run) : B11502C9
CRC32 hash : B11502C9
CRC32 hash (skip zero) : EAF9006C
AccurateRip v1 signature : 3E6100BA
AccurateRip v2 signature : 7510EA66
->Track not present in AccurateRip database.
Statistics
Read error : 0
Jitter error (maybe fixed) : 0
Retry sector count : 0
Damaged sector count : 0

Track 07
Filename : /Users/imac/Working Folder/XLD/UFO - Strangers In The Night CD8 (2020) [FLAC]/07 - UFO - Out In The Street.flac
/Users/imac/Working Folder/XLD/UFO - Strangers In The Night CD8 (2020) [MP3-320]/07 - UFO - Out In The Street.mp3
/Users/imac/Working Folder/XLD/UFO - Strangers In The Night CD8 (2020) [MP3-V0]/07 - UFO - Out In The Street.mp3

Track gain : -6.95 dB
Peak : 0.970428
CRC32 hash (test run) : BD6CEC43
CRC32 hash : BD6CEC43
CRC32 hash (skip zero) : 67EF2940
AccurateRip v1 signature : D288AF41
AccurateRip v2 signature : 69EE0F48
->Track not present in AccurateRip database.
Statistics
Read error : 0
Jitter error (maybe fixed) : 0
Retry sector count : 0
Damaged sector count : 0

Track 08
Filename : /Users/imac/Working Folder/XLD/UFO - Strangers In The Night CD8 (2020) [FLAC]/08 - UFO - Only You Can Rock Me.flac
/Users/imac/Working Folder/XLD/UFO - Strangers In The Night CD8 (2020) [MP3-320]/08 - UFO - Only You Can Rock Me.mp3
/Users/imac/Working Folder/XLD/UFO - Strangers In The Night CD8 (2020) [MP3-V0]/08 - UFO - Only You Can Rock Me.mp3

Track gain : -7.64 dB
Peak : 0.970428
CRC32 hash (test run) : 5013DBAD
CRC32 hash : 5013DBAD
CRC32 hash (skip zero) : 1678F71D
AccurateRip v1 signature : 53D9827E
AccurateRip v2 signature : 2A93494C
->Track not present in AccurateRip database.
Statistics
Read error : 0
Jitter error (maybe fixed) : 0
Retry sector count : 0
Damaged sector count : 0

Track 09
Filename : /Users/imac/Working Folder/XLD/UFO - Strangers In The Night CD8 (2020) [FLAC]/09 - UFO - On With The Action.flac
/Users/imac/Working Folder/XLD/UFO - Strangers In The Night CD8 (2020) [MP3-320]/09 - UFO - On With The Action.mp3
/Users/imac/Working Folder/XLD/UFO - Strangers In The Night CD8 (2020) [MP3-V0]/09 - UFO - On With The Action.mp3

Track gain : -8.20 dB
Peak : 0.970428
CRC32 hash (test run) : 5442AFB9
CRC32 hash : 5442AFB9
CRC32 hash (skip zero) : B5DF07F3
AccurateRip v1 signature : 6B5B1ACC
AccurateRip v2 signature : 890B0950
->Track not present in AccurateRip database.
Statistics
Read error : 0
Jitter error (maybe fixed) : 0
Retry sector count : 0
Damaged sector count : 0

Track 10
Filename : /Users/imac/Working Folder/XLD/UFO - Strangers In The Night CD8 (2020) [FLAC]/10 - UFO - Doctor Doctor.flac
/Users/imac/Working Folder/XLD/UFO - Strangers In The Night CD8 (2020) [MP3-320]/10 - UFO - Doctor Doctor.mp3
/Users/imac/Working Folder/XLD/UFO - Strangers In The Night CD8 (2020) [MP3-V0]/10 - UFO - Doctor Doctor.mp3

Track gain : -7.69 dB
Peak : 0.970428
CRC32 hash (test run) : C57AF5E9
CRC32 hash : C57AF5E9
CRC32 hash (skip zero) : 7903B650
AccurateRip v1 signature : 8304023D
AccurateRip v2 signature : 5DCE90FE
->Track not present in AccurateRip database.
Statistics
Read error : 0
Jitter error (maybe fixed) : 0
Retry sector count : 0
Damaged sector count : 0

Track 11
Filename : /Users/imac/Working Folder/XLD/UFO - Strangers In The Night CD8 (2020) [FLAC]/11 - UFO - I'm A Loser.flac
/Users/imac/Working Folder/XLD/UFO - Strangers In The Night CD8 (2020) [MP3-320]/11 - UFO - I'm A Loser.mp3
/Users/imac/Working Folder/XLD/UFO - Strangers In The Night CD8 (2020) [MP3-V0]/11 - UFO - I'm A Loser.mp3

Track gain : -7.05 dB
Peak : 0.970428
CRC32 hash (test run) : DC148216
CRC32 hash : DC148216
CRC32 hash (skip zero) : 639FB4B7
AccurateRip v1 signature : 80C43768
AccurateRip v2 signature : BB3BF852
->Track not present in AccurateRip database.
Statistics
Read error : 0
Jitter error (maybe fixed) : 0
Retry sector count : 0
Damaged sector count : 0

Track 12
Filename : /Users/imac/Working Folder/XLD/UFO - Strangers In The Night CD8 (2020) [FLAC]/12 - UFO - Lights Out.flac
/Users/imac/Working Folder/XLD/UFO - Strangers In The Night CD8 (2020) [MP3-320]/12 - UFO - Lights Out.mp3
/Users/imac/Working Folder/XLD/UFO - Strangers In The Night CD8 (2020) [MP3-V0]/12 - UFO - Lights Out.mp3

Track gain : -8.64 dB
Peak : 0.970428
CRC32 hash (test run) : B80133F4
CRC32 hash : B80133F4
CRC32 hash (skip zero) : 92F8704A
AccurateRip v1 signature : 39559372
AccurateRip v2 signature : FEA87763
->Track not present in AccurateRip database.
Statistics
Read error : 0
Jitter error (maybe fixed) : 0
Retry sector count : 0
Damaged sector count : 0

Track 13
Filename : /Users/imac/Working Folder/XLD/UFO - Strangers In The Night CD8 (2020) [FLAC]/13 - UFO - Rock Bottom.flac
/Users/imac/Working Folder/XLD/UFO - Strangers In The Night CD8 (2020) [MP3-320]/13 - UFO - Rock Bottom.mp3
/Users/imac/Working Folder/XLD/UFO - Strangers In The Night CD8 (2020) [MP3-V0]/13 - UFO - Rock Bottom.mp3

Track gain : -6.98 dB
Peak : 0.970428
CRC32 hash (test run) : 3EB1A237
CRC32 hash : 3EB1A237
CRC32 hash (skip zero) : 9727CC6F
AccurateRip v1 signature : F7C428CB
AccurateRip v2 signature : 482061FE
->Track not present in AccurateRip database.
Statistics
Read error : 0
Jitter error (maybe fixed) : 0
Retry sector count : 0
Damaged sector count : 0

Track 14
Filename : /Users/imac/Working Folder/XLD/UFO - Strangers In The Night CD8 (2020) [FLAC]/14 - UFO - Too Hot To Handle.flac
/Users/imac/Working Folder/XLD/UFO - Strangers In The Night CD8 (2020) [MP3-320]/14 - UFO - Too Hot To Handle.mp3
/Users/imac/Working Folder/XLD/UFO - Strangers In The Night CD8 (2020) [MP3-V0]/14 - UFO - Too Hot To Handle.mp3

Track gain : -8.09 dB
Peak : 0.970428
CRC32 hash (test run) : A611A0FB
CRC32 hash : A611A0FB
CRC32 hash (skip zero) : F38EA7CE
AccurateRip v1 signature : C88844DE
AccurateRip v2 signature : 853D6FAB
->Track not present in AccurateRip database.
Statistics
Read error : 0
Jitter error (maybe fixed) : 0
Retry sector count : 0
Damaged sector count : 0

Track 15
Filename : /Users/imac/Working Folder/XLD/UFO - Strangers In The Night CD8 (2020) [FLAC]/15 - UFO - Shoot Shoot.flac
/Users/imac/Working Folder/XLD/UFO - Strangers In The Night CD8 (2020) [MP3-320]/15 - UFO - Shoot Shoot.mp3
/Users/imac/Working Folder/XLD/UFO - Strangers In The Night CD8 (2020) [MP3-V0]/15 - UFO - Shoot Shoot.mp3

Track gain : -7.91 dB
Peak : 0.970428
CRC32 hash (test run) : D4D57D88
CRC32 hash : D4D57D88
CRC32 hash (skip zero) : C18936F1
AccurateRip v1 signature : E7440965
AccurateRip v2 signature : 527045D3
->Track not present in AccurateRip database.
Statistics
Read error : 0
Jitter error (maybe fixed) : 0
Retry sector count : 0
Damaged sector count : 0

No errors occurred

End of status report

––-BEGIN XLD SIGNATURE––-
QST8Jx_ubMzfMmqY.BYbZvCvbxyzogtWGH60IOtbs2LAYrP_sAF.z8VzsCBnYQeSQkc_rMRyxWUFZV2BbYUUxsewts8jz72bM4p0pV0
––-END XLD SIGNATURE––-

Thanks to the Original ripper swampsnake !