Subcategories

VA - 100 Best Romantic Classics (2007) [REPOST]

Posted By: El Misha
VA - 100 Best Romantic Classics (2007) [REPOST]

VA - 100 Best Romantic Classics (2007)
EAC Rip | FLAC (image & cue & log) -> 1.85 GB | Scans included | 07:24:32
Genre: Classical | Label: Warner Classics

With more than 7 hours of tender music by Tchaikovsky, Mozart, Debussy, Puccini and more, performed by greats like Luciano Pavarotti, Andre Previn and Jose Carreras, this set can complete any romantic evening at home. And if we can't play upon your heart strings, 100 classics for this low price is quite a deal.



CD1: From Russia With Romance
CD2: An Austro-German Romance
CD3: A French Romance
CD4: Romance In A Cold Climate
CD5: England & America In Love
CD6: Mediterranean Romance

Tracklist:

CD 1
1. Horacio Gutierrez (piano);London Symphony Orchestra; Andre Previn (conductor)/Tchaikovsky: Piano Concerto No. 1 - I: Allegro no (3:24)
2. Philadelphia Orchestra;Riccardo Muti (conductor)/Prokofiev: Romeo and Juliet - Balcony Scene (extract) (5:34)
3. Tasmin Little (violin);Piers Lane (piano)/Shostakovich: Romance (The Gadfly) (3:15)
4. Oslo Philharmonic Orchestra;Mariss Jansons (conductor)/Tchaikovsky: Romeo and Juliet (extract) (2:59)
5. Cecille Ousset (piano);City of Birmingham Symphony Orchestra;Simon Rattle (conductor)/Rachmaninoff: Rhapsody on a Theme of Paga (2:59)
6. Philharmonia Orchestra;Efrem Kurtz (conductor)/Khachaturian: Masquerade - Waltz (4:22)
7. Natalie Clein (cello);Charles Owen (piano)/Rachmaninoff: Vocalise (6:06)
8. Oslo Philharmonic Orchestra;Mariss Jansons (conductor)/Tchaikovsky: The Nutcracker - Grand pas de deux (5:15)
9. Dmitri Alexeev (piano);English Chamber Orchestra;Jerzy Maksymiuk (conductor)/Shostakovich: Piano Concerto No. 2 - II: Andante (6:10)
10. Philadelphia Orchestra;Riccardo Muti (conductor)/Rimsky-Korsakov: Scheherazade - II: The Story of the Kalendar Prince (3:52)
11. Royal Philharmonic Orchestra;Yuri Temirkanov (conductor)/Khachaturian: Spartacus - Adagio of Spartacus and Phrygia (4:45)
12. Londons Symphony Orchestra;Andre Previn (conductor)/Tchaikovsky: Swan Lake - Scene (Act II, No. 10) (2:49)
13. Cecile Ousset (piano);City of Birmingham Symphony Orchestra;Simon Rattle (conductor)/Rachmaninoff: Piano Concerto No. 2 - II. A (4:31)
14. Beecham Choral Society;Royal Philharmonic Orchestra;Thomas Beecham (conductor)/Borodin: Polovtsian Dances (Prince Igor) (2:35)
15. St. Petersburg Philharmonic Orchestra;Mariss Jansons (conductor)/Rachmaninoff: Symphony No. 2 - III: Adagio (7:14)
16. Philharmonia Orchestra;John Lanchbery (conductor)/Tchaikovsky: The Sleeping Beauty - Waltz (5:00)
17. Boston Symphony Orchestra;Seiji Ozawa (conductor)/Stravinsky: Le Oiseau de feu (conclusion) (3:04)

Exact Audio Copy V1.0 beta 1 from 15. November 2010

EAC extraction logfile from 26. March 2011, 14:55

Various / 100 Best Romantic Classics: CD1 - From Russia With Romance

Used drive : PLEXTOR BDDVDR PX-B320SA Adapter: 0 ID: 0

Read mode : Secure
Utilize accurate stream : Yes
Defeat audio cache : Yes
Make use of C2 pointers : No

Read offset correction : 6
Overread into Lead-In and Lead-Out : No
Fill up missing offset samples with silence : Yes
Delete leading and trailing silent blocks : No
Null samples used in CRC calculations : Yes
Used interface : Native Win32 interface for Win NT & 2000

Used output format : Internal WAV Routines
Sample format : 44.100 Hz; 16 Bit; Stereo


TOC of the extracted CD

Track | Start | Length | Start sector | End sector
––––––––––––––––––––––––––––-
1 | 0:00.00 | 3:24.56 | 0 | 15355
2 | 3:24.56 | 5:34.25 | 15356 | 40430
3 | 8:59.06 | 3:15.73 | 40431 | 55128
4 | 12:15.04 | 2:59.60 | 55129 | 68613
5 | 15:14.64 | 2:59.14 | 68614 | 82052
6 | 18:14.03 | 4:22.02 | 82053 | 101704
7 | 22:36.05 | 6:06.27 | 101705 | 129181
8 | 28:42.32 | 5:15.36 | 129182 | 152842
9 | 33:57.68 | 6:10.07 | 152843 | 180599
10 | 40:08.00 | 3:52.65 | 180600 | 198064
11 | 44:00.65 | 4:45.23 | 198065 | 219462
12 | 48:46.13 | 2:49.71 | 219463 | 232208
13 | 51:36.09 | 4:31.16 | 232209 | 252549
14 | 56:07.25 | 2:35.61 | 252550 | 264235
15 | 58:43.11 | 7:14.26 | 264236 | 296811
16 | 65:57.37 | 5:00.65 | 296812 | 319376
17 | 70:58.27 | 3:04.03 | 319377 | 333179


Range status and errors

Selected range

Filename D:\Rip\Various - 100 Best Romantic Classics_ CD1 - From Russia With Romance.wav

Peak level 99.7 %
Extraction speed 0.6 X
Range quality 100.0 %
Test CRC 013EB89F
Copy CRC 013EB89F
Copy OK

No errors occurred


AccurateRip summary

Track 1 accurately ripped (confidence 2) [E59670E6]
Track 2 accurately ripped (confidence 2) [A2C7CB03]
Track 3 accurately ripped (confidence 2) [69D4FDEC]
Track 4 accurately ripped (confidence 2) [67704BB5]
Track 5 accurately ripped (confidence 2) [568ADFD3]
Track 6 accurately ripped (confidence 2) [34842707]
Track 7 accurately ripped (confidence 2) [5A3D3386]
Track 8 accurately ripped (confidence 2) [6D5F5C6F]
Track 9 accurately ripped (confidence 2) [1D53306C]
Track 10 accurately ripped (confidence 2) [D386BC1E]
Track 11 accurately ripped (confidence 2) [29580F09]
Track 12 accurately ripped (confidence 2) [FE237D99]
Track 13 accurately ripped (confidence 2) [82AB09B5]
Track 14 accurately ripped (confidence 2) [E48245C0]
Track 15 accurately ripped (confidence 2) [1CF91FF4]
Track 16 accurately ripped (confidence 2) [FAA23898]
Track 17 accurately ripped (confidence 2) [96B4ABBF]

All tracks accurately ripped

End of status report


CD 2
1. Stephen Hough (piano);Halle Orchestra;Bryden Thomson (conductor)/Mozart: Piano Concerto No. 21 - II: Andante (5:22)
2. Academy of St-Martin-in-the-Fields;Neville Marriner (conductor)/Mozart: Serenade in G 'Eine kleine Nachtmusik' - II: Romanze: A (5:48)
3. Dame Moura Lympany (piano)/Beethoven: Piano Sonata No. 14 'Moonlight' - I: Adagio sostenuto (3:59)
4. Julia Thornton (harp);National Radio Orchestra of the Netherlands;Erno Olah (conductor)/Beethoven: 'Emperor' Concerto - II: Ada (7:04)
5. Radovan Vlatkovic (horn);English Chamber Orchestra;Jeffrey Tate (conductor)/Mozart: Horn Concerto No. 4 - II: Romanza: Andante (4:46)
6. John Aler (tenor);London Philharmonic Orchestra;Bernard Haitink (conductor)/Mozart: Un'aura amorosa (Cosi fan tutte) (4:45)
7. Stephen Kovacevich (piano)/Beethoven: Piano Sonata No. 8 in C Minor 'Pathetique' - II: Adagio cantabile (5:35)
8. Yehudi Menuhin (violin);Philharmonia Orchestra;Efrem Kurtz (conductor)/Mendelssohn: Violin Concerto - II: Andante (4:31)
9. Sabine Meyer (basset clarinet);Dresden Staatskapelle;Hans Vonk (conductor)/Mozart: Clarinet Concerto - II: Adagio (6:38)
10. Daniel Adni (piano)/Mendelssohn: Fruehlingslied (2:42)
11. Yehudi Menuhin (violin);Philharmonia Orchestra;Walter Susskind (conductor)/Bruch: Violin Concerto No. 1 - II: Adagio (4:24)
12. Orchestra of the Age of Enlightenment;Charles Mackerras (conductor)/Mendelssohn: A Midsummer Night's Dream - Nocturne (5:54)
13. Lucia Popp (soprano);London Philharmonic Orchestra;Klaus Tennstedt (conductor)/R. Strauss: Beim Schlafengehen (Four Last Songs) (4:25)
14. Berlin Philharmonic;Herbert von Karajan (conductor)/J. Strauss II: An der schoenen blauen Donau (extract) (3:48)
15. Maxim Vengerov (violin);Ian Brown (piano)/Kreisler: Liebeslied (3:26)
16. Rotterdam Philharmonic Orchestra;Jeffrey Tate (conductor)/Mendelssohn: A Midsummer Night's Dream - Wedding March (5:35)

Exact Audio Copy V1.0 beta 1 from 15. November 2010

EAC extraction logfile from 26. March 2011, 20:38

Various / 100 Best Romantic Classics: CD2 - An Austro-German Romance

Used drive : PLEXTOR BDDVDR PX-B320SA Adapter: 0 ID: 0

Read mode : Secure
Utilize accurate stream : Yes
Defeat audio cache : Yes
Make use of C2 pointers : No

Read offset correction : 6
Overread into Lead-In and Lead-Out : No
Fill up missing offset samples with silence : Yes
Delete leading and trailing silent blocks : No
Null samples used in CRC calculations : Yes
Used interface : Native Win32 interface for Win NT & 2000

Used output format : Internal WAV Routines
Sample format : 44.100 Hz; 16 Bit; Stereo


TOC of the extracted CD

Track | Start | Length | Start sector | End sector
––––––––––––––––––––––––––––-
1 | 0:00.00 | 5:22.21 | 0 | 24170
2 | 5:22.21 | 5:48.57 | 24171 | 50327
3 | 11:11.03 | 3:59.02 | 50328 | 68254
4 | 15:10.05 | 7:04.07 | 68255 | 100061
5 | 22:14.12 | 4:46.34 | 100062 | 121545
6 | 27:00.46 | 4:45.59 | 121546 | 142979
7 | 31:46.30 | 5:35.63 | 142980 | 168167
8 | 37:22.18 | 4:31.23 | 168168 | 188515
9 | 41:53.41 | 6:38.37 | 188516 | 218402
10 | 48:32.03 | 2:42.19 | 218403 | 230571
11 | 51:14.22 | 4:24.69 | 230572 | 250440
12 | 55:39.16 | 5:54.32 | 250441 | 277022
13 | 61:33.48 | 4:25.58 | 277023 | 296955
14 | 65:59.31 | 3:48.68 | 296956 | 314123
15 | 69:48.24 | 3:26.15 | 314124 | 329588
16 | 73:14.39 | 5:35.17 | 329589 | 354730


Range status and errors

Selected range

Filename D:\Rip\Various - 100 Best Romantic Classics_ CD2 - An Austro-German Romance.wav

Peak level 99.8 %
Extraction speed 0.5 X
Range quality 100.0 %
Test CRC 420FC67E
Copy CRC 420FC67E
Copy OK

No errors occurred


AccurateRip summary

Track 1 not present in database
Track 2 not present in database
Track 3 not present in database
Track 4 not present in database
Track 5 not present in database
Track 6 not present in database
Track 7 not present in database
Track 8 not present in database
Track 9 not present in database
Track 10 not present in database
Track 11 not present in database
Track 12 not present in database
Track 13 not present in database
Track 14 not present in database
Track 15 not present in database
Track 16 not present in database

None of the tracks are present in the AccurateRip database

End of status report


CD 3
1. Jessye Norman (soprano); Ann Murray (mezzo-soprano)Offenbach Barcarole (Les contes des Hoffman) (4:24)
2. Han-Na Chang (cello);Philharmonia Orchestra;Leonard Slatkin (conductor)Saint-Saens Le Carnaval des animaux - Les Cygne (3:18)
3. Maria Callas (soprano) Choeurs Rene Duclos; Bizet Habanera (Carmen) (4:21)
4. Philadelphia Orchestra;Wolfgang Sawalisch (conductor)Debussy Clair de lune (5:12)
5. Natalie Dessay (soprano);Delphine Haidan (mezzo-soprano)Delibes Flower Duet (Lakme) (4:52)
6. New Philharmonia Orchestra;Sir Charles Mackerras (conductor)Gounod Les nubiennes (Faust) (2:25)
7. Maria Callas (soprano)Orchestre National de la Radiodiffusion Francaise; Saint-Saens Mon coeur s'ouvre a ta voix (Samson&Dalila) (5:21)
8. Gareth Morris (flute) New Philharmonia Orchestra;Sir David Willcocks (conductor)Faure Pavane (6:50)
9. Barbara Hendricks (soprano) Michel Dalberto (piano)Martini Plaisir d'amour (2:53)
10. Ulf Hoelscher (violin) New Philharmonia Orchestra;Pierre Dervaux (conductor)Saint-Saens Romance (5:55)
11. Jean-Philippe Collard & Bruno Rigutto (pianos)Faure Berceuse (Dolly suite) (2:38)
12. French National Orchestra;Seiji Ozawa (conductor)Bizet Carmen,Entr'acte to Act III (2:35)
13. Natasha Marsh (soprano) London Symphony Orchestra;Michael Francis (conductor)Faure Chanson d'amour (2:03)
14. City of Birmingham Symphony Orchestra;Louis Fremaux (conductor)Satie Gymnopedie No. 1 (2:52)
15. New Philharmonia Orchestra;Sir Charles Mackerras (conductor)Delibes Sylvia, Intermezzo & Valse lente (4:25)
16. Orchestra of the Royal Opera House;Sir Charles Mackerras (conductor)Messager Les deux pigeons (3:19)
17. Anne-Sophie Mutter (violin) Berliner Philharmoniker;Herbert von Karajan (conductor)Massenet Meditation (Thais) (6:44)

Exact Audio Copy V1.0 beta 1 from 15. November 2010

EAC extraction logfile from 26. March 2011, 22:40

Various Artists / 100 Best Romantic Classics: CD3 - A French Romance

Used drive : PLEXTOR BDDVDR PX-B320SA Adapter: 0 ID: 0

Read mode : Secure
Utilize accurate stream : Yes
Defeat audio cache : Yes
Make use of C2 pointers : No

Read offset correction : 6
Overread into Lead-In and Lead-Out : No
Fill up missing offset samples with silence : Yes
Delete leading and trailing silent blocks : No
Null samples used in CRC calculations : Yes
Used interface : Native Win32 interface for Win NT & 2000

Used output format : Internal WAV Routines
Sample format : 44.100 Hz; 16 Bit; Stereo


TOC of the extracted CD

Track | Start | Length | Start sector | End sector
––––––––––––––––––––––––––––-
1 | 0:00.00 | 4:24.15 | 0 | 19814
2 | 4:24.15 | 3:18.00 | 19815 | 34664
3 | 7:42.15 | 4:21.29 | 34665 | 54268
4 | 12:03.44 | 5:12.65 | 54269 | 77733
5 | 17:16.34 | 4:52.01 | 77734 | 99634
6 | 22:08.35 | 2:25.16 | 99635 | 110525
7 | 24:33.51 | 5:21.19 | 110526 | 134619
8 | 29:54.70 | 6:50.16 | 134620 | 165385
9 | 36:45.11 | 2:53.71 | 165386 | 178431
10 | 39:39.07 | 5:55.28 | 178432 | 205084
11 | 45:34.35 | 2:38.59 | 205085 | 216993
12 | 48:13.19 | 2:35.37 | 216994 | 228655
13 | 50:48.56 | 2:03.24 | 228656 | 237904
14 | 52:52.05 | 2:52.05 | 237905 | 250809
15 | 55:44.10 | 4:25.53 | 250810 | 270737
16 | 60:09.63 | 3:19.19 | 270738 | 285681
17 | 63:29.07 | 6:44.10 | 285682 | 315991


Range status and errors

Selected range

Filename D:\Rip\Various - 100 Best Romantic Classics_ CD3 - A French Romance.wav

Peak level 99.8 %
Extraction speed 0.3 X
Range quality 99.9 %
Test CRC FF0A2FC0
Copy CRC FF0A2FC0
Copy OK

No errors occurred


AccurateRip summary

Track 1 not present in database
Track 2 not present in database
Track 3 not present in database
Track 4 not present in database
Track 5 not present in database
Track 6 not present in database
Track 7 not present in database
Track 8 not present in database
Track 9 not present in database
Track 10 not present in database
Track 11 not present in database
Track 12 not present in database
Track 13 not present in database
Track 14 not present in database
Track 15 not present in database
Track 16 not present in database
Track 17 not present in database

None of the tracks are present in the AccurateRip database

End of status report


CD 4
1. Neville Marriner: Academy Of St. Martin In The Fields - Grieg: Peer Gynt - Prelude To Act 4 (Morning) (4:19)
2. Paavo Berglund: Staatskapelle Dresden - Smetana: Moldau, T 111 - Ma Vlast (5:01)
3. Dmitri Alexeev - Piano Concerto - II.Adagio (6:40)
4. Mariss Jansons: Oslo Philharmonic Orchestra - Dvorak: Symphony #9, (4:46)
5. Daniel Adni - Wedding Day At Troldhaugen (5:41)
6. Lucia Popp; Stefan Soltesz: Munchner Rundfunk Orchestra - Dvorak: Rusalka, Op. 114, B 203 - Act 1: Song To The Moon (5:54)
7. Martha Argerich - Piano Concerto No.1 II. Romance: Larghetto (Opening) (3:53)
8. Moura Lympany - Dvorak: Humoresque #7 In G Flat, B 187/7 (3:04)
9. Les Sylphides - Prelude In A (3:23)
10. Michel Beroff - Piano Concerto No.1 - II. Quasi Adagio (4:33)
11. At The Castle Gate (Pelleas Et Melisande) (2:53)
12. Peter Donohoe - Chopin: Berceuse In D Flat, Op. 57, B 154 (4:30)
13. Stig Nilsson - Jealousy - Tango (4:12)
14. John Ogdon - Chopin: Nocturne #2 In E Flat, Op. 9/2, CT 109 (5:18)
15. Leif Ove Andsnes - Liebestraum No.3 In A Flat (4:09)
16. Elisabeth Schwarzkopf; Lovro Von Matacic: Philharmonia Orchestra With Chorus - Lehar: Die Lustige Witwe - Es Lebt' Eine Vilja (4:52)

Exact Audio Copy V1.0 beta 1 from 15. November 2010

EAC extraction logfile from 27. March 2011, 10:33

Various / 100 Best Romantic Classics: CD4 - Romance In A Cold Climate

Used drive : PLEXTOR BDDVDR PX-B320SA Adapter: 0 ID: 0

Read mode : Secure
Utilize accurate stream : Yes
Defeat audio cache : Yes
Make use of C2 pointers : No

Read offset correction : 6
Overread into Lead-In and Lead-Out : No
Fill up missing offset samples with silence : Yes
Delete leading and trailing silent blocks : No
Null samples used in CRC calculations : Yes
Used interface : Native Win32 interface for Win NT & 2000

Used output format : Internal WAV Routines
Sample format : 44.100 Hz; 16 Bit; Stereo


TOC of the extracted CD

Track | Start | Length | Start sector | End sector
––––––––––––––––––––––––––––-
1 | 0:00.00 | 4:19.04 | 0 | 19428
2 | 4:19.04 | 5:01.53 | 19429 | 42056
3 | 9:20.57 | 6:40.08 | 42057 | 72064
4 | 16:00.65 | 4:46.26 | 72065 | 93540
5 | 20:47.16 | 5:41.25 | 93541 | 119140
6 | 26:28.41 | 5:54.66 | 119141 | 145756
7 | 32:23.32 | 3:53.50 | 145757 | 163281
8 | 36:17.07 | 3:04.64 | 163282 | 177145
9 | 39:21.71 | 3:23.00 | 177146 | 192370
10 | 42:44.71 | 4:33.53 | 192371 | 212898
11 | 47:18.49 | 2:53.73 | 212899 | 225946
12 | 50:12.47 | 4:30.30 | 225947 | 246226
13 | 54:43.02 | 4:12.07 | 246227 | 265133
14 | 58:55.09 | 5:18.62 | 265134 | 289045
15 | 64:13.71 | 4:09.11 | 289046 | 307731
16 | 68:23.07 | 4:52.47 | 307732 | 329678


Range status and errors

Selected range

Filename D:\Rip\Various - 100 Best Romantic Classics_ CD4 - Romance In A Cold Climate.wav

Peak level 99.9 %
Extraction speed 0.3 X
Range quality 100.0 %
Test CRC 63846FC9
Copy CRC 63846FC9
Copy OK

No errors occurred


AccurateRip summary

Track 1 not present in database
Track 2 not present in database
Track 3 not present in database
Track 4 not present in database
Track 5 not present in database
Track 6 not present in database
Track 7 not present in database
Track 8 not present in database
Track 9 not present in database
Track 10 not present in database
Track 11 not present in database
Track 12 not present in database
Track 13 not present in database
Track 14 not present in database
Track 15 not present in database
Track 16 not present in database

None of the tracks are present in the AccurateRip database

End of status report


CD 5
1. Richard Hickox: Northern Sinfonia - Elgar: Salut D'Amour, Op. 12 (3:55)
2. John Barbirolli: Sinfonia Of London - Vaughan Williams: Fantasia On Greensleeves (4:41)
3. Jacqueline Du Pre - Cello Concerto - I. Adagio - Moderato (Opening) (3:26)
4. Hugh Bean; Adrian Boult: New Philharmonia Orchestra - Vaughan Williams: The Lark Ascending (6:25)
5. Adrian Boult: London Philharmonic Orchestra - Elgar: Chanson De Matin, Op. 15/2 (3:06)
6. Fantasia On A Theme By Thomas Tallis (Opening) (6:13)
7. Rostal & Schaefer - Michelle (3:22)
8. The Planets - Venus (Conclusion) (6:16)
9. Standing Stone - Celebration (6:17)
10. Michael Nyman - Nyman: The Heart Asks (3:13)
11. Manuel Barrueco, Steve Morse - Myers: The Deer Hunter - Cavatina (3:17)
12. Nikolaj Bloch & Sally Herbert - Any Other Name (From The Film American Beauty) (4:07)
13. Miklos Rozsa: Hollywood Bowl Symphony Orchestra - Horner: Titanic - My Heart Will Go On (4:22)
14. Sharon Isbin - Sentimental Melody (3:59)
15. Kiri Te Kanawa; John McGlinn: New Princess Theatre Orchestra - Gershwin: Summertime (2:43)
16. West Side Story Symphonic Dances II. Somewhere (4:02)
17. London Symphony Orchestra - Gershwin: Rhapsody In Blue (5:35)

Exact Audio Copy V1.0 beta 1 from 15. November 2010

EAC extraction logfile from 27. March 2011, 12:31

Various / 100 Best Romantic Classics: CD4 - England & America In Love

Used drive : PLEXTOR BDDVDR PX-B320SA Adapter: 0 ID: 0

Read mode : Secure
Utilize accurate stream : Yes
Defeat audio cache : Yes
Make use of C2 pointers : No

Read offset correction : 6
Overread into Lead-In and Lead-Out : No
Fill up missing offset samples with silence : Yes
Delete leading and trailing silent blocks : No
Null samples used in CRC calculations : Yes
Used interface : Native Win32 interface for Win NT & 2000

Used output format : Internal WAV Routines
Sample format : 44.100 Hz; 16 Bit; Stereo


TOC of the extracted CD

Track | Start | Length | Start sector | End sector
––––––––––––––––––––––––––––-
1 | 0:00.00 | 3:55.29 | 0 | 17653
2 | 3:55.29 | 4:41.04 | 17654 | 38732
3 | 8:36.33 | 3:26.29 | 38733 | 54211
4 | 12:02.62 | 6:25.59 | 54212 | 83145
5 | 18:28.46 | 3:06.54 | 83146 | 97149
6 | 21:35.25 | 6:13.21 | 97150 | 125145
7 | 27:48.46 | 3:22.53 | 125146 | 140348
8 | 31:11.24 | 6:16.00 | 140349 | 168548
9 | 37:27.24 | 6:17.59 | 168549 | 196882
10 | 43:45.08 | 3:13.07 | 196883 | 211364
11 | 46:58.15 | 3:17.14 | 211365 | 226153
12 | 50:15.29 | 4:07.22 | 226154 | 244700
13 | 54:22.51 | 4:22.66 | 244701 | 264416
14 | 58:45.42 | 3:59.63 | 264417 | 282404
15 | 62:45.30 | 2:43.44 | 282405 | 294673
16 | 65:28.74 | 4:02.61 | 294674 | 312884
17 | 69:31.60 | 5:35.72 | 312885 | 338081


Range status and errors

Selected range

Filename D:\Rip\Various - 100 Best Romantic Classics_ CD5 - England & America In Love.wav

Peak level 99.7 %
Extraction speed 0.4 X
Range quality 99.9 %
Test CRC D87510DD
Copy CRC D87510DD
Copy OK

No errors occurred


AccurateRip summary

Track 1 not present in database
Track 2 not present in database
Track 3 not present in database
Track 4 not present in database
Track 5 not present in database
Track 6 not present in database
Track 7 not present in database
Track 8 not present in database
Track 9 not present in database
Track 10 not present in database
Track 11 not present in database
Track 12 not present in database
Track 13 not present in database
Track 14 not present in database
Track 15 not present in database
Track 16 not present in database
Track 17 not present in database

None of the tracks are present in the AccurateRip database

End of status report


CD 6
1. Philharmonia Orchestra;Riccardo Muti (conductor)/Mascagni: Intermezzo (Cavalleria rusticana) (3:44)
2. Angela Gheorghiu (soprano);London Symphony Orchestra;Antonio Pappano (conductor)/Puccini: O mio babbino caro (Gianni Schicchi) (2:07)
3. Leif Ove Andsnes (piano)/Albeniz: Tango (2:30)
4. Montserrat Caballe (soprano);London Symphony Orchestra;Charles Mackerras (conductor)/Puccini: Chi il bel sogno di Doretta (La r (3:08)
5. Yehudi Menuhin (violin);Camerata Lysy Gstaad;Alberto Lysy (conductor)/Vivaldi: Spring (The Four Seasons) - I. Allegro (3:42)
6. Natasha Marsh (soprano);Fernando Lima (countertenor);David Parsons (lute)/Monteverdi (arr. Leon): Pur ti miro (L'incoronazione (3:45)
7. Academy of St-Martin-in-the-Fields;Neville Marriner (conductor)/Boccherini (arr. Woodhouse): Minuet (3:56)
8. Luciano Pavarotti (tenor);Orchestra of the Royal Opera House, Covent Garden/Mascagni: O amore, o bella luce del core (L'amico F (2:32)
9. Christopher Parkening (guitar)/Tarrega: Recuerdos de la Alhambra (3:57)
10. Natasha Marsh (soprano);London Symphony Orchestra;Francois-Xavier Roth (conductor)/Rota: Ai giochi addio (3:23)
11. Julian Bream (guitar);City of Birmingham Symphony Orchestra;Simon Rattle (conductor)/Rodriogo: Concierto de Aranjuez - II. Adag (4:46)
12. Renata Scotto (soprano);Carlo Bergonzi (tenor);Orchestra del Teatro dell'Opera di Roma;John Barbirolli/Puccini: Vogliatemi bene (7:56)
13. Sharon Isbin (guitar);Lausanne Chamber Orch.;Lawrence Foster (cond.)/Vivaldi (arr. Pujol,ed. Isbin): Guitar Concerto in D - II. (6:08)
14. Anne-Sophie Mutter (violin);Orchestra National de France;Seiji Ozawa (conductor)/Sarasate: Zigeunerweisen (7:49)
15. Amy Nuttall (soprano);Julian Kershaw (conductor)/Quarantotto (adapt. Peterson): Time to Say Goodbye (3:53)
16. Julian Byzantine (guitar)/Albeniz (arr. Byzantine): Sevilla (5:22)
17. Jose Carreras (tenor);Rhine Opera Chorus;Strasbourg Philharmonic Orchestra;Alain Lombard (conductor)/Puccini: Nessun dorma (Tur (4:12)

Exact Audio Copy V1.0 beta 1 from 15. November 2010

EAC extraction logfile from 28. March 2011, 1:13

Various / 100 Best Romantic Classics: CD6 - Mediterranean Romance

Used drive : PLEXTOR BDDVDR PX-B320SA Adapter: 0 ID: 0

Read mode : Secure
Utilize accurate stream : Yes
Defeat audio cache : Yes
Make use of C2 pointers : No

Read offset correction : 6
Overread into Lead-In and Lead-Out : No
Fill up missing offset samples with silence : Yes
Delete leading and trailing silent blocks : No
Null samples used in CRC calculations : Yes
Used interface : Native Win32 interface for Win NT & 2000

Used output format : Internal WAV Routines
Sample format : 44.100 Hz; 16 Bit; Stereo


TOC of the extracted CD

Track | Start | Length | Start sector | End sector
––––––––––––––––––––––––––––-
1 | 0:00.00 | 3:44.57 | 0 | 16856
2 | 3:44.57 | 2:07.68 | 16857 | 26449
3 | 5:52.50 | 2:30.20 | 26450 | 37719
4 | 8:22.70 | 3:08.42 | 37720 | 51861
5 | 11:31.37 | 3:42.67 | 51862 | 68578
6 | 15:14.29 | 3:45.34 | 68579 | 85487
7 | 18:59.63 | 3:56.61 | 85488 | 103248
8 | 22:56.49 | 2:32.43 | 103249 | 114691
9 | 25:29.17 | 3:57.49 | 114692 | 132515
10 | 29:26.66 | 3:23.36 | 132516 | 147776
11 | 32:50.27 | 4:46.67 | 147777 | 169293
12 | 37:37.19 | 7:56.06 | 169294 | 204999
13 | 45:33.25 | 6:08.33 | 205000 | 232632
14 | 51:41.58 | 7:49.73 | 232633 | 267880
15 | 59:31.56 | 3:53.73 | 267881 | 285428
16 | 63:25.54 | 5:22.07 | 285429 | 309585
17 | 68:47.61 | 4:12.46 | 309586 | 328531


Range status and errors

Selected range

Filename D:\Rip\Various - 100 Best Romantic Classics_ CD6 - Mediterranean Romance.wav

Peak level 99.9 %
Extraction speed 0.3 X
Range quality 100.0 %
Test CRC 5EAD5369
Copy CRC 5EAD5369
Copy OK

No errors occurred


AccurateRip summary

Track 1 not present in database
Track 2 not present in database
Track 3 not present in database
Track 4 not present in database
Track 5 not present in database
Track 6 not present in database
Track 7 not present in database
Track 8 not present in database
Track 9 not present in database
Track 10 not present in database
Track 11 not present in database
Track 12 not present in database
Track 13 not present in database
Track 14 not present in database
Track 15 not present in database
Track 16 not present in database
Track 17 not present in database

None of the tracks are present in the AccurateRip database

End of status report