Subcategories

VA - 100 Greatest Australian Singles Of The '60s (2015)

Posted By: El Misha
VA  - 100 Greatest Australian Singles Of The '60s (2015)

VA - 100 Greatest Australian Singles Of The '60s (2015)
EAC Rip | FLAC (tracks & cue & log) -> 1.44 GB | Scans | 04:24:41
Genre: Surf, rock & roll, rockabilly | Label: Festival Records ‎– FEST601041

100 tracks - Tremendous 1960s compilation of Australian Rock 'n' Roll, Beat, Folk and Pop Music, including many unknowns and surprises! Everything on this 4-CD set was taken from the original mastertapes!
Take a trip back to these classic records of the 60's to listen once again and remember those heady times when long hair and short skirts changed the world.



Tracklist:

CD 1
01. Zoot - 1 x 2 x 3 x 4
02. Rob E.G. - 55 Days At Peking
03. Terry Britten - 2,000 Weeks
04. Judy Stone - 4,003,221 Tears From Now
05. The Procession - Anthem
06. Axiom - Arkansas Grass
07. The Seekers - A World Of Our Own
08. Merv Benton - Baby, Let's Play House
09. The Twilights - Bad Boy
10. Noeleen Batley - Barefoot Boy
11. Jeff St. John & The Id - Big Time Operator
12. The Atlantics - Bombora
13. Digger Revell - I'm Building Castles In The Air
14. The Iguana - California My Way
15. Lynne Randell - Ciao Baby
16. Ronnie Burns - Coalman
17. The Easybeats - Come And See Her
18. Doug Parkinson In Focus - Dear Prudence
19. The Running Jumping Standing Still - Diddy Wah Diddy
20. The Purple Hearts - Early In The Morning
21. The Master's Appentices - Elevator Driver
22. The Town Criers - Everlasting Love
23. The Loved Ones - Everlovin' Man
24. Ronnie Burns - Exit Stage Right
25. Johnny Cooper - Farmer John

Exact Audio Copy V1.0 beta 4 from 7. December 2014

EAC extraction logfile from 14. April 2017, 15:22

Various Artists / 100 Greatest Australian Singles Of The '60s (Disc 1)

Used drive : TSSTcorpCDDVDW SH-222AB Adapter: 1 ID: 0

Read mode : Secure
Utilize accurate stream : Yes
Defeat audio cache : Yes
Make use of C2 pointers : No

Read offset correction : 6
Overread into Lead-In and Lead-Out : No
Fill up missing offset samples with silence : Yes
Delete leading and trailing silent blocks : No
Null samples used in CRC calculations : Yes
Used interface : Native Win32 interface for Win NT & 2000
Gap handling : Appended to previous track

Used output format : User Defined Encoder
Selected bitrate : 1024 kBit/s
Quality : High
Add ID3 tag : No
Command line compressor : C:\Program Files\Exact Audio Copy\Flac\flac.exe
Additional command line options : -8 -V -T "ARTIST=%artist%" -T "TITLE=%title%" -T "ALBUM=%albumtitle%" -T "DATE=%year%" -T "TRACKNUMBER=%tracknr%" -T "GENRE=%genre%" -T "PERFORMER=%albuminterpret%" -T "COMPOSER=%composer%" %haslyrics%–tag-from-file=LYRICS="%lyricsfile%"%haslyrics% -T "ALBUMARTIST=%albumartist%" -T "DISCNUMBER=%cdnumber%" -T "TOTALDISCS=%totalcds%" -T "TOTALTRACKS=%numtracks%" -T "COMMENT=EAC V1.0 beta 4, Secure Mode, Test & Copy, AccurateRip, FLAC -8" %source% -o %dest%


TOC of the extracted CD

Track | Start | Length | Start sector | End sector
––––––––––––––––––––––––––––-
1 | 0:00.00 | 2:14.13 | 0 | 10062
2 | 2:14.13 | 2:06.05 | 10063 | 19517
3 | 4:20.18 | 2:09.20 | 19518 | 29212
4 | 6:29.38 | 2:29.00 | 29213 | 40387
5 | 8:58.38 | 3:31.08 | 40388 | 56220
6 | 12:29.46 | 3:05.67 | 56221 | 70162
7 | 15:35.38 | 2:42.63 | 70163 | 82375
8 | 18:18.26 | 2:28.23 | 82376 | 93498
9 | 20:46.49 | 2:10.22 | 93499 | 103270
10 | 22:56.71 | 2:00.14 | 103271 | 112284
11 | 24:57.10 | 2:30.48 | 112285 | 123582
12 | 27:27.58 | 2:55.51 | 123583 | 136758
13 | 30:23.34 | 2:27.12 | 136759 | 147795
14 | 32:50.46 | 2:39.17 | 147796 | 159737
15 | 35:29.63 | 2:27.37 | 159738 | 170799
16 | 37:57.25 | 2:51.70 | 170800 | 183694
17 | 40:49.20 | 2:43.03 | 183695 | 195922
18 | 43:32.23 | 4:14.26 | 195923 | 214998
19 | 47:46.49 | 2:21.02 | 214999 | 225575
20 | 50:07.51 | 2:08.71 | 225576 | 235246
21 | 52:16.47 | 2:19.34 | 235247 | 245705
22 | 54:36.06 | 2:47.47 | 245706 | 258277
23 | 57:23.53 | 2:10.01 | 258278 | 268028
24 | 59:33.54 | 2:26.74 | 268029 | 279052
25 | 62:00.53 | 1:55.43 | 279053 | 287720


Track 1

Filename D:\Australian\VA - 100 Greatest Australian Singles Of The '60s (2015 Remastered) [FLAC]\Disc 1\01 - Zoot - 1 x 2 x 3 x 4.wav

Pre-gap length 0:00:02.00

Peak level 100.0 %
Extraction speed 4.1 X
Track quality 100.0 %
Test CRC 604F3C81
Copy CRC 604F3C81
Accurately ripped (confidence 3) [05BE48D7] (AR v2)
Copy OK

Track 2

Filename D:\Australian\VA - 100 Greatest Australian Singles Of The '60s (2015 Remastered) [FLAC]\Disc 1\02 - Rob E.G. - 55 Days At Peking.wav

Pre-gap length 0:00:01.76

Peak level 100.0 %
Extraction speed 4.2 X
Track quality 100.0 %
Test CRC 30215114
Copy CRC 30215114
Accurately ripped (confidence 3) [CA465015] (AR v2)
Copy OK

Track 3

Filename D:\Australian\VA - 100 Greatest Australian Singles Of The '60s (2015 Remastered) [FLAC]\Disc 1\03 - Terry Britten - 2,000 Weeks.wav

Pre-gap length 0:00:01.76

Peak level 100.0 %
Extraction speed 4.5 X
Track quality 100.0 %
Test CRC 2E55C9CC
Copy CRC 2E55C9CC
Accurately ripped (confidence 3) [6C3B07A4] (AR v2)
Copy OK

Track 4

Filename D:\Australian\VA - 100 Greatest Australian Singles Of The '60s (2015 Remastered) [FLAC]\Disc 1\04 - Judy Stone - 4,003,221 Tears From Now.wav

Pre-gap length 0:00:01.76

Peak level 91.2 %
Extraction speed 4.8 X
Track quality 100.0 %
Test CRC 2B0FC4CF
Copy CRC 2B0FC4CF
Accurately ripped (confidence 3) [B56C3285] (AR v2)
Copy OK

Track 5

Filename D:\Australian\VA - 100 Greatest Australian Singles Of The '60s (2015 Remastered) [FLAC]\Disc 1\05 - The Procession - Anthem.wav

Pre-gap length 0:00:01.76

Peak level 100.0 %
Extraction speed 5.5 X
Track quality 100.0 %
Test CRC C93460D5
Copy CRC C93460D5
Accurately ripped (confidence 3) [F2D84670] (AR v2)
Copy OK

Track 6

Filename D:\Australian\VA - 100 Greatest Australian Singles Of The '60s (2015 Remastered) [FLAC]\Disc 1\06 - Axiom - Arkansas Grass.wav

Pre-gap length 0:00:01.76

Peak level 100.0 %
Extraction speed 4.4 X
Track quality 99.9 %
Test CRC E2056AE5
Copy CRC E2056AE5
Accurately ripped (confidence 3) [B5B9E96C] (AR v2)
Copy OK

Track 7

Filename D:\Australian\VA - 100 Greatest Australian Singles Of The '60s (2015 Remastered) [FLAC]\Disc 1\07 - The Seekers - A World Of Our Own.wav

Pre-gap length 0:00:01.76

Peak level 100.0 %
Extraction speed 5.8 X
Track quality 100.0 %
Test CRC C53C5411
Copy CRC C53C5411
Accurately ripped (confidence 3) [BAF77E3F] (AR v2)
Copy OK

Track 8

Filename D:\Australian\VA - 100 Greatest Australian Singles Of The '60s (2015 Remastered) [FLAC]\Disc 1\08 - Merv Benton - Baby, Let's Play House.wav

Pre-gap length 0:00:01.76

Peak level 79.4 %
Extraction speed 5.8 X
Track quality 100.0 %
Test CRC 5D359DD5
Copy CRC 5D359DD5
Accurately ripped (confidence 3) [2669F392] (AR v2)
Copy OK

Track 9

Filename D:\Australian\VA - 100 Greatest Australian Singles Of The '60s (2015 Remastered) [FLAC]\Disc 1\09 - The Twilights - Bad Boy.wav

Pre-gap length 0:00:01.76

Peak level 100.0 %
Extraction speed 5.9 X
Track quality 100.0 %
Test CRC 7FE3561D
Copy CRC 7FE3561D
Accurately ripped (confidence 3) [495EE9A1] (AR v2)
Copy OK

Track 10

Filename D:\Australian\VA - 100 Greatest Australian Singles Of The '60s (2015 Remastered) [FLAC]\Disc 1\10 - Noeleen Batley - Barefoot Boy.wav

Pre-gap length 0:00:01.76

Peak level 100.0 %
Extraction speed 4.1 X
Track quality 99.9 %
Test CRC 8F376388
Copy CRC 8F376388
Accurately ripped (confidence 3) [48C8B26F] (AR v2)
Copy OK

Track 11

Filename D:\Australian\VA - 100 Greatest Australian Singles Of The '60s (2015 Remastered) [FLAC]\Disc 1\11 - Jeff St. John & The Id - Big Time Operator.wav

Pre-gap length 0:00:01.76

Peak level 100.0 %
Extraction speed 6.4 X
Track quality 100.0 %
Test CRC 4DC11CF6
Copy CRC 4DC11CF6
Accurately ripped (confidence 3) [DFFF09B9] (AR v2)
Copy OK

Track 12

Filename D:\Australian\VA - 100 Greatest Australian Singles Of The '60s (2015 Remastered) [FLAC]\Disc 1\12 - The Atlantics - Bombora.wav

Pre-gap length 0:00:01.76

Peak level 100.0 %
Extraction speed 6.8 X
Track quality 100.0 %
Test CRC E1CDC5D2
Copy CRC E1CDC5D2
Accurately ripped (confidence 3) [26F4312C] (AR v2)
Copy OK

Track 13

Filename D:\Australian\VA - 100 Greatest Australian Singles Of The '60s (2015 Remastered) [FLAC]\Disc 1\13 - Digger Revell - I'm Building Castles In The Air.wav

Pre-gap length 0:00:02.21

Peak level 96.0 %
Extraction speed 6.7 X
Track quality 100.0 %
Test CRC 58A13E2C
Copy CRC 58A13E2C
Accurately ripped (confidence 3) [03AA9328] (AR v2)
Copy OK

Track 14

Filename D:\Australian\VA - 100 Greatest Australian Singles Of The '60s (2015 Remastered) [FLAC]\Disc 1\14 - The Iguana - California My Way.wav

Pre-gap length 0:00:01.76

Peak level 99.8 %
Extraction speed 7.0 X
Track quality 100.0 %
Test CRC 4C66D821
Copy CRC 4C66D821
Accurately ripped (confidence 3) [C482A0EA] (AR v2)
Copy OK

Track 15

Filename D:\Australian\VA - 100 Greatest Australian Singles Of The '60s (2015 Remastered) [FLAC]\Disc 1\15 - Lynne Randell - Ciao Baby.wav

Pre-gap length 0:00:01.72

Peak level 89.4 %
Extraction speed 7.0 X
Track quality 100.0 %
Test CRC 1D334B97
Copy CRC 1D334B97
Accurately ripped (confidence 3) [5052BF13] (AR v2)
Copy OK

Track 16

Filename D:\Australian\VA - 100 Greatest Australian Singles Of The '60s (2015 Remastered) [FLAC]\Disc 1\16 - Ronnie Burns - Coalman.wav

Pre-gap length 0:00:01.73

Peak level 98.6 %
Extraction speed 7.5 X
Track quality 100.0 %
Test CRC 3DFE5E67
Copy CRC 3DFE5E67
Accurately ripped (confidence 3) [20D71722] (AR v2)
Copy OK

Track 17

Filename D:\Australian\VA - 100 Greatest Australian Singles Of The '60s (2015 Remastered) [FLAC]\Disc 1\17 - The Easybeats - Come And See Her.wav

Pre-gap length 0:00:01.76

Peak level 100.0 %
Extraction speed 7.4 X
Track quality 100.0 %
Test CRC 67A701C7
Copy CRC 67A701C7
Accurately ripped (confidence 3) [BB85F327] (AR v2)
Copy OK

Track 18

Filename D:\Australian\VA - 100 Greatest Australian Singles Of The '60s (2015 Remastered) [FLAC]\Disc 1\18 - Doug Parkinson In Focus - Dear Prudence.wav

Pre-gap length 0:00:01.76

Peak level 93.4 %
Extraction speed 8.3 X
Track quality 100.0 %
Test CRC 5EABCB65
Copy CRC 5EABCB65
Accurately ripped (confidence 3) [6189FEF5] (AR v2)
Copy OK

Track 19

Filename D:\Australian\VA - 100 Greatest Australian Singles Of The '60s (2015 Remastered) [FLAC]\Disc 1\19 - The Running Jumping Standing Still - Diddy Wah Diddy.wav

Pre-gap length 0:00:01.70

Peak level 100.0 %
Extraction speed 7.7 X
Track quality 100.0 %
Test CRC E376E552
Copy CRC E376E552
Accurately ripped (confidence 3) [F7A2520E] (AR v2)
Copy OK

Track 20

Filename D:\Australian\VA - 100 Greatest Australian Singles Of The '60s (2015 Remastered) [FLAC]\Disc 1\20 - The Purple Hearts - Early In The Morning.wav

Pre-gap length 0:00:01.74

Peak level 100.0 %
Extraction speed 7.6 X
Track quality 100.0 %
Test CRC 9A437EFF
Copy CRC 9A437EFF
Accurately ripped (confidence 3) [9FD2C63A] (AR v2)
Copy OK

Track 21

Filename D:\Australian\VA - 100 Greatest Australian Singles Of The '60s (2015 Remastered) [FLAC]\Disc 1\21 - The Master's Appentices - Elevator Driver.wav

Pre-gap length 0:00:01.76

Peak level 100.0 %
Extraction speed 5.6 X
Track quality 99.9 %
Test CRC 3C92AD70
Copy CRC 3C92AD70
Accurately ripped (confidence 3) [40F711A6] (AR v2)
Copy OK

Track 22

Filename D:\Australian\VA - 100 Greatest Australian Singles Of The '60s (2015 Remastered) [FLAC]\Disc 1\22 - The Town Criers - Everlasting Love.wav

Pre-gap length 0:00:01.76

Peak level 100.0 %
Extraction speed 6.1 X
Track quality 99.9 %
Test CRC 922BE680
Copy CRC 922BE680
Accurately ripped (confidence 3) [CE9EBF23] (AR v2)
Copy OK

Track 23

Filename D:\Australian\VA - 100 Greatest Australian Singles Of The '60s (2015 Remastered) [FLAC]\Disc 1\23 - The Loved Ones - Everlovin' Man.wav

Pre-gap length 0:00:01.76

Peak level 100.0 %
Extraction speed 7.9 X
Track quality 100.0 %
Test CRC E3177FA8
Copy CRC E3177FA8
Accurately ripped (confidence 3) [029C86E3] (AR v2)
Copy OK

Track 24

Filename D:\Australian\VA - 100 Greatest Australian Singles Of The '60s (2015 Remastered) [FLAC]\Disc 1\24 - Ronnie Burns - Exit Stage Right.wav

Pre-gap length 0:00:01.76

Peak level 86.8 %
Extraction speed 8.3 X
Track quality 100.0 %
Test CRC 6052BABF
Copy CRC 6052BABF
Accurately ripped (confidence 3) [27EA219F] (AR v2)
Copy OK

Track 25

Filename D:\Australian\VA - 100 Greatest Australian Singles Of The '60s (2015 Remastered) [FLAC]\Disc 1\25 - Johnny Cooper - Farmer John.wav

Pre-gap length 0:00:01.82

Peak level 100.0 %
Extraction speed 7.9 X
Track quality 100.0 %
Test CRC 81BA40EC
Copy CRC 81BA40EC
Accurately ripped (confidence 3) [A4EAB766] (AR v2)
Copy OK


All tracks accurately ripped

No errors occurred

End of status report

–– CUETools DB Plugin V2.1.4

[CTDB TOCID: pllm42V3LQ.DDxkKp9xdG.PAk_I-] found
Submit result: pllm42V3LQ.DDxkKp9xdG.PAk_I- has been confirmed
Track | CTDB Status
1 | (15/15) Accurately ripped
2 | (15/15) Accurately ripped
3 | (15/15) Accurately ripped
4 | (15/15) Accurately ripped
5 | (15/15) Accurately ripped
6 | (15/15) Accurately ripped
7 | (15/15) Accurately ripped
8 | (15/15) Accurately ripped
9 | (15/15) Accurately ripped
10 | (15/15) Accurately ripped
11 | (15/15) Accurately ripped
12 | (15/15) Accurately ripped
13 | (15/15) Accurately ripped
14 | (15/15) Accurately ripped
15 | (15/15) Accurately ripped
16 | (15/15) Accurately ripped
17 | (15/15) Accurately ripped
18 | (15/15) Accurately ripped
19 | (15/15) Accurately ripped
20 | (15/15) Accurately ripped
21 | (15/15) Accurately ripped
22 | (15/15) Accurately ripped
23 | (15/15) Accurately ripped
24 | (15/15) Accurately ripped
25 | (15/15) Accurately ripped


==== Log checksum C7FB4E989A6CDB710CB018F7C47DFC76D49BF6CCD6C2E5E8726417C0BE77F551 ====


CD 2
01. Ray Brown & The Whispers - Fool, Fool, Fool
02. The Easybeats - For My Woman
03. The Throb - Fortune Teller
04. The Easybeats - Friday On My Mind
05. The Seekers - Georgy Girl
06. The Delltones - Get A Little Dirt On Your Hands
07. Steve & The Board - Giggle Eyed Goo
08. The Delltones - Hangin' Five
09. Frankie Davidson - Have You Ever Been To See Kings Cross?
10. The Flying Circus - Hayride
11. Little Pattie - He's My Blonde Headed Stompie Wompie Real Gone Surfer Boy
12. Somebody's Image - Hide & Seek
13. Somebody's Image - Hush
14. Bobby & Laurie - I Belong With You
15. Phil Jones & The Unknown Blues - If I Had A Ticket
16. Lonnie Lee - I Found A New Love
17. Blue Rags 'n' Hollers - I Just Wanna Make Love To You
18. The Seekers - I'll Never Find Another You
19. Cam-Pact - I'm Your Puppet
20. Frank Ifield - I Remember You
21. Normie Rowe & The Playboys - It Ain't Necessarily So
22. Lionel Rose - I Thank You
23. Normie Rowe - It's Not Easy
24. Lucky Starr - I've Been Everywhere
25. The Wild Cherries - Chrome Plated Yabby

Exact Audio Copy V1.0 beta 4 from 7. December 2014

EAC extraction logfile from 14. April 2017, 16:12

Various Artists / 100 Greatest Australian Singles Of The '60s (Disc 2)

Used drive : TSSTcorpCDDVDW SH-222AB Adapter: 1 ID: 0

Read mode : Secure
Utilize accurate stream : Yes
Defeat audio cache : Yes
Make use of C2 pointers : No

Read offset correction : 6
Overread into Lead-In and Lead-Out : No
Fill up missing offset samples with silence : Yes
Delete leading and trailing silent blocks : No
Null samples used in CRC calculations : Yes
Used interface : Native Win32 interface for Win NT & 2000
Gap handling : Appended to previous track

Used output format : User Defined Encoder
Selected bitrate : 1024 kBit/s
Quality : High
Add ID3 tag : No
Command line compressor : C:\Program Files\Exact Audio Copy\Flac\flac.exe
Additional command line options : -8 -V -T "ARTIST=%artist%" -T "TITLE=%title%" -T "ALBUM=%albumtitle%" -T "DATE=%year%" -T "TRACKNUMBER=%tracknr%" -T "GENRE=%genre%" -T "PERFORMER=%albuminterpret%" -T "COMPOSER=%composer%" %haslyrics%–tag-from-file=LYRICS="%lyricsfile%"%haslyrics% -T "ALBUMARTIST=%albumartist%" -T "DISCNUMBER=%cdnumber%" -T "TOTALDISCS=%totalcds%" -T "TOTALTRACKS=%numtracks%" -T "COMMENT=EAC V1.0 beta 4, Secure Mode, Test & Copy, AccurateRip, FLAC -8" %source% -o %dest%


TOC of the extracted CD

Track | Start | Length | Start sector | End sector
––––––––––––––––––––––––––––-
1 | 0:00.00 | 2:40.71 | 0 | 12070
2 | 2:40.71 | 3:07.65 | 12071 | 26160
3 | 5:48.61 | 2:24.38 | 26161 | 36998
4 | 8:13.24 | 2:42.58 | 36999 | 49206
5 | 10:56.07 | 2:18.08 | 49207 | 59564
6 | 13:14.15 | 3:04.33 | 59565 | 73397
7 | 16:18.48 | 2:19.21 | 73398 | 83843
8 | 18:37.69 | 2:19.49 | 83844 | 94317
9 | 20:57.43 | 2:55.24 | 94318 | 107466
10 | 23:52.67 | 2:18.20 | 107467 | 117836
11 | 26:11.12 | 1:40.55 | 117837 | 125391
12 | 27:51.67 | 1:58.55 | 125392 | 134296
13 | 29:50.47 | 2:26.06 | 134297 | 145252
14 | 32:16.53 | 2:11.10 | 145253 | 155087
15 | 34:27.63 | 2:43.14 | 155088 | 167326
16 | 37:11.02 | 2:16.19 | 167327 | 177545
17 | 39:27.21 | 2:17.00 | 177546 | 187820
18 | 41:44.21 | 2:43.32 | 187821 | 200077
19 | 44:27.53 | 2:53.27 | 200078 | 213079
20 | 47:21.05 | 1:59.14 | 213080 | 222018
21 | 49:20.19 | 3:16.63 | 222019 | 236781
22 | 52:37.07 | 3:38.43 | 236782 | 253174
23 | 56:15.50 | 3:05.03 | 253175 | 267052
24 | 59:20.53 | 2:25.27 | 267053 | 277954
25 | 61:46.05 | 2:57.48 | 277955 | 291277


Track 1

Filename D:\Australian\VA - 100 Greatest Australian Singles Of The '60s (2015 Remastered) [FLAC]\Disc 2\01 - Ray Brown & The Whispers - Fool, Fool, Fool.wav

Pre-gap length 0:00:02.00

Peak level 100.0 %
Extraction speed 4.2 X
Track quality 100.0 %
Test CRC 0344E6A5
Copy CRC 0344E6A5
Accurately ripped (confidence 3) [1322D6B9] (AR v2)
Copy OK

Track 2

Filename D:\Australian\VA - 100 Greatest Australian Singles Of The '60s (2015 Remastered) [FLAC]\Disc 2\02 - The Easybeats - For My Woman.wav

Pre-gap length 0:00:01.76

Peak level 100.0 %
Extraction speed 3.7 X
Track quality 99.9 %
Test CRC 63A978E6
Copy CRC 63A978E6
Accurately ripped (confidence 3) [4E8F6F68] (AR v2)
Copy OK

Track 3

Filename D:\Australian\VA - 100 Greatest Australian Singles Of The '60s (2015 Remastered) [FLAC]\Disc 2\03 - The Throb - Fortune Teller.wav

Pre-gap length 0:00:01.97

Peak level 100.0 %
Extraction speed 4.8 X
Track quality 100.0 %
Test CRC D8C4C03B
Copy CRC D8C4C03B
Accurately ripped (confidence 3) [8AC742D0] (AR v2)
Copy OK

Track 4

Filename D:\Australian\VA - 100 Greatest Australian Singles Of The '60s (2015 Remastered) [FLAC]\Disc 2\04 - The Easybeats - Friday On My Mind.wav

Pre-gap length 0:00:01.92

Peak level 100.0 %
Extraction speed 5.2 X
Track quality 100.0 %
Test CRC 4927EA0A
Copy CRC 4927EA0A
Accurately ripped (confidence 3) [8FC7D19C] (AR v2)
Copy OK

Track 5

Filename D:\Australian\VA - 100 Greatest Australian Singles Of The '60s (2015 Remastered) [FLAC]\Disc 2\05 - The Seekers - Georgy Girl.wav

Pre-gap length 0:00:01.92

Peak level 100.0 %
Extraction speed 3.7 X
Track quality 99.9 %
Test CRC 7654C5F5
Copy CRC 7654C5F5
Accurately ripped (confidence 3) [CFE47CBD] (AR v2)
Copy OK

Track 6

Filename D:\Australian\VA - 100 Greatest Australian Singles Of The '60s (2015 Remastered) [FLAC]\Disc 2\06 - The Delltones - Get A Little Dirt On Your Hands.wav

Pre-gap length 0:00:01.97

Peak level 99.9 %
Extraction speed 5.7 X
Track quality 100.0 %
Test CRC 98CC28F0
Copy CRC 98CC28F0
Accurately ripped (confidence 3) [366760CB] (AR v2)
Copy OK

Track 7

Filename D:\Australian\VA - 100 Greatest Australian Singles Of The '60s (2015 Remastered) [FLAC]\Disc 2\07 - Steve & The Board - Giggle Eyed Goo.wav

Pre-gap length 0:00:01.86

Peak level 100.0 %
Extraction speed 5.7 X
Track quality 100.0 %
Test CRC 5B817033
Copy CRC 5B817033
Accurately ripped (confidence 3) [07730DEB] (AR v2)
Copy OK

Track 8

Filename D:\Australian\VA - 100 Greatest Australian Singles Of The '60s (2015 Remastered) [FLAC]\Disc 2\08 - The Delltones - Hangin' Five.wav

Pre-gap length 0:00:01.88

Peak level 94.3 %
Extraction speed 5.9 X
Track quality 100.0 %
Test CRC B6EA12ED
Copy CRC B6EA12ED
Accurately ripped (confidence 3) [9DEA5F4A] (AR v2)
Copy OK

Track 9

Filename D:\Australian\VA - 100 Greatest Australian Singles Of The '60s (2015 Remastered) [FLAC]\Disc 2\09 - Frankie Davidson - Have You Ever Been To See Kings Cross.wav

Pre-gap length 0:00:01.86

Peak level 100.0 %
Extraction speed 6.3 X
Track quality 100.0 %
Test CRC 30B1DAE8
Copy CRC 30B1DAE8
Accurately ripped (confidence 3) [7CB1031B] (AR v2)
Copy OK

Track 10

Filename D:\Australian\VA - 100 Greatest Australian Singles Of The '60s (2015 Remastered) [FLAC]\Disc 2\10 - The Flying Circus - Hayride.wav

Pre-gap length 0:00:01.88

Peak level 100.0 %
Extraction speed 6.2 X
Track quality 100.0 %
Test CRC 57792A8F
Copy CRC 57792A8F
Accurately ripped (confidence 3) [4FFAC7C7] (AR v2)
Copy OK

Track 11

Filename D:\Australian\VA - 100 Greatest Australian Singles Of The '60s (2015 Remastered) [FLAC]\Disc 2\11 - Little Pattie - He's My Blonde Headed Stompie Wompie Real Gone Surfer Boy.wav

Pre-gap length 0:00:01.93

Peak level 100.0 %
Extraction speed 5.8 X
Track quality 100.0 %
Test CRC F6DD96EC
Copy CRC F6DD96EC
Accurately ripped (confidence 3) [4659607E] (AR v2)
Copy OK

Track 12

Filename D:\Australian\VA - 100 Greatest Australian Singles Of The '60s (2015 Remastered) [FLAC]\Disc 2\12 - Somebody's Image - Hide & Seek.wav

Pre-gap length 0:00:01.94

Peak level 100.0 %
Extraction speed 6.3 X
Track quality 100.0 %
Test CRC 3CB80EF7
Copy CRC 3CB80EF7
Accurately ripped (confidence 3) [F636584D] (AR v2)
Copy OK

Track 13

Filename D:\Australian\VA - 100 Greatest Australian Singles Of The '60s (2015 Remastered) [FLAC]\Disc 2\13 - Somebody's Image - Hush.wav

Pre-gap length 0:00:01.96

Peak level 98.5 %
Extraction speed 4.8 X
Track quality 99.9 %
Test CRC 1B750259
Copy CRC 1B750259
Accurately ripped (confidence 3) [9E96D588] (AR v2)
Copy OK

Track 14

Filename D:\Australian\VA - 100 Greatest Australian Singles Of The '60s (2015 Remastered) [FLAC]\Disc 2\14 - Bobby & Laurie - I Belong With You.wav

Pre-gap length 0:00:01.89

Peak level 100.0 %
Extraction speed 4.7 X
Track quality 99.9 %
Test CRC 7A46B72B
Copy CRC 7A46B72B
Accurately ripped (confidence 3) [9C3D545F] (AR v2)
Copy OK

Track 15

Filename D:\Australian\VA - 100 Greatest Australian Singles Of The '60s (2015 Remastered) [FLAC]\Disc 2\15 - Phil Jones & The Unknown Blues - If I Had A Ticket.wav

Pre-gap length 0:00:01.90

Peak level 100.0 %
Extraction speed 7.2 X
Track quality 100.0 %
Test CRC BA1528D6
Copy CRC BA1528D6
Accurately ripped (confidence 3) [6EF1FEBC] (AR v2)
Copy OK

Track 16

Filename D:\Australian\VA - 100 Greatest Australian Singles Of The '60s (2015 Remastered) [FLAC]\Disc 2\16 - Lonnie Lee - I Found A New Love.wav

Pre-gap length 0:00:01.72

Peak level 100.0 %
Extraction speed 7.1 X
Track quality 100.0 %
Test CRC 86B61818
Copy CRC 86B61818
Accurately ripped (confidence 3) [2E1224A2] (AR v2)
Copy OK

Track 17

Filename D:\Australian\VA - 100 Greatest Australian Singles Of The '60s (2015 Remastered) [FLAC]\Disc 2\17 - Blue Rags 'n' Hollers - I Just Wanna Make Love To You.wav

Pre-gap length 0:00:01.88

Peak level 100.0 %
Extraction speed 7.2 X
Track quality 100.0 %
Test CRC 7BB8A330
Copy CRC 7BB8A330
Accurately ripped (confidence 3) [36BB73A7] (AR v2)
Copy OK

Track 18

Filename D:\Australian\VA - 100 Greatest Australian Singles Of The '60s (2015 Remastered) [FLAC]\Disc 2\18 - The Seekers - I'll Never Find Another You.wav

Pre-gap length 0:00:01.86

Peak level 100.0 %
Extraction speed 7.6 X
Track quality 100.0 %
Test CRC 7B8B0187
Copy CRC 7B8B0187
Accurately ripped (confidence 3) [4F5F203A] (AR v2)
Copy OK

Track 19

Filename D:\Australian\VA - 100 Greatest Australian Singles Of The '60s (2015 Remastered) [FLAC]\Disc 2\19 - Cam-Pact - I'm Your Puppet.wav

Pre-gap length 0:00:02.10

Peak level 99.5 %
Extraction speed 7.8 X
Track quality 100.0 %
Test CRC 9543852A
Copy CRC 9543852A
Accurately ripped (confidence 3) [7F9E29D4] (AR v2)
Copy OK

Track 20

Filename D:\Australian\VA - 100 Greatest Australian Singles Of The '60s (2015 Remastered) [FLAC]\Disc 2\20 - Frank Ifield - I Remember You.wav

Pre-gap length 0:00:01.93

Peak level 100.0 %
Extraction speed 5.0 X
Track quality 99.9 %
Test CRC D53CF378
Copy CRC D53CF378
Accurately ripped (confidence 3) [ADD9675C] (AR v2)
Copy OK

Track 21

Filename D:\Australian\VA - 100 Greatest Australian Singles Of The '60s (2015 Remastered) [FLAC]\Disc 2\21 - Normie Rowe & The Playboys - It Ain't Necessarily So.wav

Pre-gap length 0:00:01.96

Peak level 100.0 %
Extraction speed 6.3 X
Track quality 99.9 %
Test CRC CBDFF7C1
Copy CRC CBDFF7C1
Accurately ripped (confidence 3) [A3CD084C] (AR v2)
Copy OK

Track 22

Filename D:\Australian\VA - 100 Greatest Australian Singles Of The '60s (2015 Remastered) [FLAC]\Disc 2\22 - Lionel Rose - I Thank You.wav

Pre-gap length 0:00:01.88

Peak level 100.0 %
Extraction speed 8.7 X
Track quality 100.0 %
Test CRC 6A0BBF9F
Copy CRC 6A0BBF9F
Accurately ripped (confidence 3) [42CBC6F2] (AR v2)
Copy OK

Track 23

Filename D:\Australian\VA - 100 Greatest Australian Singles Of The '60s (2015 Remastered) [FLAC]\Disc 2\23 - Normie Rowe - It's Not Easy.wav

Pre-gap length 0:00:01.89

Peak level 100.0 %
Extraction speed 8.6 X
Track quality 100.0 %
Test CRC 1A62CF44
Copy CRC 1A62CF44
Accurately ripped (confidence 3) [477A1793] (AR v2)
Copy OK

Track 24

Filename D:\Australian\VA - 100 Greatest Australian Singles Of The '60s (2015 Remastered) [FLAC]\Disc 2\24 - Lucky Starr - I've Been Everywhere.wav

Pre-gap length 0:00:01.88

Peak level 100.0 %
Extraction speed 8.4 X
Track quality 100.0 %
Test CRC E54850B8
Copy CRC E54850B8
Accurately ripped (confidence 3) [5700943C] (AR v2)
Copy OK

Track 25

Filename D:\Australian\VA - 100 Greatest Australian Singles Of The '60s (2015 Remastered) [FLAC]\Disc 2\25 - The Wild Cherries - Chrome Plated Yabby.wav

Pre-gap length 0:00:01.84

Peak level 89.1 %
Extraction speed 6.5 X
Track quality 99.9 %
Test CRC 22A5B5AE
Copy CRC 22A5B5AE
Accurately ripped (confidence 3) [20C37AF1] (AR v2)
Copy OK


All tracks accurately ripped

No errors occurred

End of status report

–– CUETools DB Plugin V2.1.4

[CTDB TOCID: MHrFXTkXOvdkcFnF_XuVwrZHkOg-] found
Submit result: MHrFXTkXOvdkcFnF_XuVwrZHkOg- has been confirmed
Track | CTDB Status
1 | (13/13) Accurately ripped
2 | (13/13) Accurately ripped
3 | (13/13) Accurately ripped
4 | (13/13) Accurately ripped
5 | (13/13) Accurately ripped
6 | (13/13) Accurately ripped
7 | (13/13) Accurately ripped
8 | (13/13) Accurately ripped
9 | (13/13) Accurately ripped
10 | (13/13) Accurately ripped
11 | (13/13) Accurately ripped
12 | (13/13) Accurately ripped
13 | (13/13) Accurately ripped
14 | (13/13) Accurately ripped
15 | (13/13) Accurately ripped
16 | (13/13) Accurately ripped
17 | (13/13) Accurately ripped
18 | (13/13) Accurately ripped
19 | (13/13) Accurately ripped
20 | (13/13) Accurately ripped
21 | (13/13) Accurately ripped
22 | (13/13) Accurately ripped
23 | (13/13) Accurately ripped
24 | (13/13) Accurately ripped
25 | (13/13) Accurately ripped


==== Log checksum 8144CCB6AB2A50E952F3F9B9D6A8B92902BE56B0AE03DCBE5F4BD9140F0C9AC7 ====


CD 3
01. Johnny Ashcroft - Little Boy Lost
02. M.P.D. Limited - Little Boy Sad
03. The Master's Apprentices - Living In A Child's Dream
04. The Pink Finks - Louie Louie
05. Pastoral Symphony - Love Machine
06. James Taylor Move - Magic Eyes
07. Betty McQuade - Midnight Bus
08. The Cherokees - Minnie The Moocher
09. Johnny O' Keefe & The Dee Jays - Move Baby Move
10. Buddy England - Movin' Man
11. The Valentines - My Old Man's A Groovy Old Man
12. The Twilights - Needle In A Haystack
13. The Purple Hearts - Of Hopes And Dreams And Tombstones
14. The Cherokees - Oh, Mona
15. Normie Rowe - Ooh La La
16. Johnny Farnham - One
17. Billy Thorpe & The Aztecs - Over The Rainbow
18. Billy Thorpe & The Aztecs - Poison Ivy
19. Ray Brown & The Whispers - Pride
20. Normie Rowe & The Playboys - Que Sera Sera
21. 18th. Century Quartet - Rachael
22. Jimmy Little - Royal Telephone
23. Johnny Farnham - Sadie The Cleaning Lady
24. Normie Rowe & The Playboys - Shakin' All Over
25. The Easybeats - She's So Fine

Exact Audio Copy V1.0 beta 4 from 7. December 2014

EAC extraction logfile from 14. April 2017, 17:50

Various Artists / 100 Greatest Australian Singles Of The '60s (Disc 3)

Used drive : TSSTcorpCDDVDW SH-222AB Adapter: 1 ID: 0

Read mode : Secure
Utilize accurate stream : Yes
Defeat audio cache : Yes
Make use of C2 pointers : No

Read offset correction : 6
Overread into Lead-In and Lead-Out : No
Fill up missing offset samples with silence : Yes
Delete leading and trailing silent blocks : No
Null samples used in CRC calculations : Yes
Used interface : Native Win32 interface for Win NT & 2000
Gap handling : Appended to previous track

Used output format : User Defined Encoder
Selected bitrate : 1024 kBit/s
Quality : High
Add ID3 tag : No
Command line compressor : C:\Program Files\Exact Audio Copy\Flac\flac.exe
Additional command line options : -8 -V -T "ARTIST=%artist%" -T "TITLE=%title%" -T "ALBUM=%albumtitle%" -T "DATE=%year%" -T "TRACKNUMBER=%tracknr%" -T "GENRE=%genre%" -T "PERFORMER=%albuminterpret%" -T "COMPOSER=%composer%" %haslyrics%–tag-from-file=LYRICS="%lyricsfile%"%haslyrics% -T "ALBUMARTIST=%albumartist%" -T "DISCNUMBER=%cdnumber%" -T "TOTALDISCS=%totalcds%" -T "TOTALTRACKS=%numtracks%" -T "COMMENT=EAC V1.0 beta 4, Secure Mode, Test & Copy, AccurateRip, FLAC -8" %source% -o %dest%


TOC of the extracted CD

Track | Start | Length | Start sector | End sector
––––––––––––––––––––––––––––-
1 | 0:00.00 | 3:35.27 | 0 | 16151
2 | 3:35.27 | 2:24.37 | 16152 | 26988
3 | 5:59.64 | 2:37.57 | 26989 | 38820
4 | 8:37.46 | 3:16.58 | 38821 | 53578
5 | 11:54.29 | 3:03.61 | 53579 | 67364
6 | 14:58.15 | 2:45.00 | 67365 | 79739
7 | 17:43.15 | 2:28.63 | 79740 | 90902
8 | 20:12.03 | 2:25.20 | 90903 | 101797
9 | 22:37.23 | 2:26.29 | 101798 | 112776
10 | 25:03.52 | 2:27.24 | 112777 | 123825
11 | 27:31.01 | 2:46.45 | 123826 | 136320
12 | 30:17.46 | 2:08.07 | 136321 | 145927
13 | 32:25.53 | 2:23.12 | 145928 | 156664
14 | 34:48.65 | 2:14.32 | 156665 | 166746
15 | 37:03.22 | 2:22.32 | 166747 | 177428
16 | 39:25.54 | 2:45.46 | 177429 | 189849
17 | 42:11.25 | 4:33.41 | 189850 | 210365
18 | 46:44.66 | 3:05.02 | 210366 | 224242
19 | 49:49.68 | 2:14.30 | 224243 | 234322
20 | 52:04.23 | 2:34.44 | 234323 | 245916
21 | 54:38.67 | 2:47.11 | 245917 | 258452
22 | 57:26.03 | 2:13.08 | 258453 | 268435
23 | 59:39.11 | 3:16.65 | 268436 | 283200
24 | 62:56.01 | 2:34.05 | 283201 | 294755
25 | 65:30.06 | 2:05.71 | 294756 | 304201


Track 1

Filename D:\Australian\VA - 100 Greatest Australian Singles Of The '60s (2015 Remastered) [FLAC]\Disc 3\01 - Johnny Ashcroft - Little Boy Lost.wav

Pre-gap length 0:00:02.00

Peak level 100.0 %
Extraction speed 4.5 X
Track quality 100.0 %
Test CRC CAC6166C
Copy CRC CAC6166C
Accurately ripped (confidence 3) [381B693F] (AR v2)
Copy OK

Track 2

Filename D:\Australian\VA - 100 Greatest Australian Singles Of The '60s (2015 Remastered) [FLAC]\Disc 3\02 - M.P.D. Limited - Little Boy Sad.wav

Pre-gap length 0:00:01.76

Peak level 100.0 %
Extraction speed 4.5 X
Track quality 100.0 %
Test CRC E202FE0F
Copy CRC E202FE0F
Accurately ripped (confidence 3) [579E980A] (AR v2)
Copy OK

Track 3

Filename D:\Australian\VA - 100 Greatest Australian Singles Of The '60s (2015 Remastered) [FLAC]\Disc 3\03 - The Master's Apprentices - Living In A Child's Dream.wav

Pre-gap length 0:00:01.76

Peak level 100.0 %
Extraction speed 4.8 X
Track quality 100.0 %
Test CRC 9FBB3842
Copy CRC 9FBB3842
Accurately ripped (confidence 3) [322E556C] (AR v2)
Copy OK

Track 4

Filename D:\Australian\VA - 100 Greatest Australian Singles Of The '60s (2015 Remastered) [FLAC]\Disc 3\04 - The Pink Finks - Louie Louie.wav

Pre-gap length 0:00:01.76

Peak level 100.0 %
Extraction speed 5.3 X
Track quality 100.0 %
Test CRC 48DE2956
Copy CRC 48DE2956
Accurately ripped (confidence 3) [EB32621F] (AR v2)
Copy OK

Track 5

Filename D:\Australian\VA - 100 Greatest Australian Singles Of The '60s (2015 Remastered) [FLAC]\Disc 3\05 - Pastoral Symphony - Love Machine.wav

Pre-gap length 0:00:01.85

Peak level 100.0 %
Extraction speed 5.5 X
Track quality 100.0 %
Test CRC E135AE2C
Copy CRC E135AE2C
Accurately ripped (confidence 3) [FA05EC8A] (AR v2)
Copy OK

Track 6

Filename D:\Australian\VA - 100 Greatest Australian Singles Of The '60s (2015 Remastered) [FLAC]\Disc 3\06 - James Taylor Move - Magic Eyes.wav

Pre-gap length 0:00:01.82

Peak level 100.0 %
Extraction speed 4.2 X
Track quality 99.9 %
Test CRC A290BCC8
Copy CRC A290BCC8
Accurately ripped (confidence 3) [58AF9F20] (AR v2)
Copy OK

Track 7

Filename D:\Australian\VA - 100 Greatest Australian Singles Of The '60s (2015 Remastered) [FLAC]\Disc 3\07 - Betty McQuade - Midnight Bus.wav

Pre-gap length 0:00:01.88

Peak level 100.0 %
Extraction speed 5.8 X
Track quality 100.0 %
Test CRC F50FD0D6
Copy CRC F50FD0D6
Accurately ripped (confidence 3) [CE9D9E00] (AR v2)
Copy OK

Track 8

Filename D:\Australian\VA - 100 Greatest Australian Singles Of The '60s (2015 Remastered) [FLAC]\Disc 3\08 - The Cherokees - Minnie The Moocher.wav

Pre-gap length 0:00:01.94

Peak level 100.0 %
Extraction speed 5.9 X
Track quality 100.0 %
Test CRC 0365C932
Copy CRC 0365C932
Accurately ripped (confidence 3) [EBC74A3D] (AR v2)
Copy OK

Track 9

Filename D:\Australian\VA - 100 Greatest Australian Singles Of The '60s (2015 Remastered) [FLAC]\Disc 3\09 - Johnny O' Keefe & The Dee Jays - Move Baby Move.wav

Pre-gap length 0:00:01.92

Peak level 89.1 %
Extraction speed 4.4 X
Track quality 99.9 %
Test CRC 431BEA21
Copy CRC 431BEA21
Accurately ripped (confidence 3) [528706FE] (AR v2)
Copy OK

Track 10

Filename D:\Australian\VA - 100 Greatest Australian Singles Of The '60s (2015 Remastered) [FLAC]\Disc 3\10 - Buddy England - Movin' Man.wav

Pre-gap length 0:00:01.85

Peak level 100.0 %
Extraction speed 6.2 X
Track quality 100.0 %
Test CRC 6F0358EA
Copy CRC 6F0358EA
Accurately ripped (confidence 3) [7920E9C3] (AR v2)
Copy OK

Track 11

Filename D:\Australian\VA - 100 Greatest Australian Singles Of The '60s (2015 Remastered) [FLAC]\Disc 3\11 - The Valentines - My Old Man's A Groovy Old Man.wav

Pre-gap length 0:00:01.86

Peak level 100.0 %
Extraction speed 6.5 X
Track quality 100.0 %
Test CRC FFA6EF94
Copy CRC FFA6EF94
Accurately ripped (confidence 3) [7FE34BA7] (AR v2)
Copy OK

Track 12

Filename D:\Australian\VA - 100 Greatest Australian Singles Of The '60s (2015 Remastered) [FLAC]\Disc 3\12 - The Twilights - Needle In A Haystack.wav

Pre-gap length 0:00:01.93

Peak level 100.0 %
Extraction speed 6.3 X
Track quality 100.0 %
Test CRC 81097B67
Copy CRC 81097B67
Accurately ripped (confidence 3) [1993A683] (AR v2)
Copy OK

Track 13

Filename D:\Australian\VA - 100 Greatest Australian Singles Of The '60s (2015 Remastered) [FLAC]\Disc 3\13 - The Purple Hearts - Of Hopes And Dreams And Tombstones.wav

Pre-gap length 0:00:02.02

Peak level 94.5 %
Extraction speed 6.7 X
Track quality 100.0 %
Test CRC 38E8E786
Copy CRC 38E8E786
Accurately ripped (confidence 3) [530DB88D] (AR v2)
Copy OK

Track 14

Filename D:\Australian\VA - 100 Greatest Australian Singles Of The '60s (2015 Remastered) [FLAC]\Disc 3\14 - The Cherokees - Oh, Mona.wav

Pre-gap length 0:00:01.98

Peak level 100.0 %
Extraction speed 4.8 X
Track quality 99.9 %
Test CRC 18D6C076
Copy CRC 18D6C076
Accurately ripped (confidence 3) [B778A1D4] (AR v2)
Copy OK

Track 15

Filename D:\Australian\VA - 100 Greatest Australian Singles Of The '60s (2015 Remastered) [FLAC]\Disc 3\15 - Normie Rowe - Ooh La La.wav

Pre-gap length 0:00:01.90

Peak level 100.0 %
Extraction speed 4.9 X
Track quality 99.9 %
Test CRC 4DE92693
Copy CRC 4DE92693
Accurately ripped (confidence 3) [80305DE7] (AR v2)
Copy OK

Track 16

Filename D:\Australian\VA - 100 Greatest Australian Singles Of The '60s (2015 Remastered) [FLAC]\Disc 3\16 - Johnny Farnham - One.wav

Pre-gap length 0:00:01.92

Peak level 100.0 %
Extraction speed 7.3 X
Track quality 100.0 %
Test CRC DBEDC1B6
Copy CRC DBEDC1B6
Accurately ripped (confidence 3) [5A0FE353] (AR v2)
Copy OK

Track 17

Filename D:\Australian\VA - 100 Greatest Australian Singles Of The '60s (2015 Remastered) [FLAC]\Disc 3\17 - Billy Thorpe & The Aztecs - Over The Rainbow.wav

Pre-gap length 0:00:01.88

Peak level 100.0 %
Extraction speed 6.6 X
Track quality 99.9 %
Test CRC 06C0639C
Copy CRC 06C0639C
Accurately ripped (confidence 3) [D5C58905] (AR v2)
Copy OK

Track 18

Filename D:\Australian\VA - 100 Greatest Australian Singles Of The '60s (2015 Remastered) [FLAC]\Disc 3\18 - Billy Thorpe & The Aztecs - Poison Ivy.wav

Pre-gap length 0:00:02.02

Peak level 100.0 %
Extraction speed 7.8 X
Track quality 100.0 %
Test CRC 7594A72C
Copy CRC 7594A72C
Accurately ripped (confidence 3) [26E2BF08] (AR v2)
Copy OK

Track 19

Filename D:\Australian\VA - 100 Greatest Australian Singles Of The '60s (2015 Remastered) [FLAC]\Disc 3\19 - Ray Brown & The Whispers - Pride.wav

Pre-gap length 0:00:01.92

Peak level 100.0 %
Extraction speed 7.4 X
Track quality 100.0 %
Test CRC 804A18E9
Copy CRC 804A18E9
Accurately ripped (confidence 3) [0781B021] (AR v2)
Copy OK

Track 20

Filename D:\Australian\VA - 100 Greatest Australian Singles Of The '60s (2015 Remastered) [FLAC]\Disc 3\20 - Normie Rowe & The Playboys - Que Sera Sera.wav

Pre-gap length 0:00:02.00

Peak level 100.0 %
Extraction speed 7.8 X
Track quality 100.0 %
Test CRC FC93F0FC
Copy CRC FC93F0FC
Accurately ripped (confidence 3) [24C619B1] (AR v2)
Copy OK

Track 21

Filename D:\Australian\VA - 100 Greatest Australian Singles Of The '60s (2015 Remastered) [FLAC]\Disc 3\21 - 18th. Century Quartet - Rachael.wav

Pre-gap length 0:00:01.86

Peak level 100.0 %
Extraction speed 8.1 X
Track quality 100.0 %
Test CRC E06FFC31
Copy CRC E06FFC31
Accurately ripped (confidence 3) [C6C92173] (AR v2)
Copy OK

Track 22

Filename D:\Australian\VA - 100 Greatest Australian Singles Of The '60s (2015 Remastered) [FLAC]\Disc 3\22 - Jimmy Little - Royal Telephone.wav

Pre-gap length 0:00:01.82

Peak level 89.1 %
Extraction speed 5.5 X
Track quality 99.9 %
Test CRC B2CA91A4
Copy CRC B2CA91A4
Accurately ripped (confidence 3) [8FAD9E3F] (AR v2)
Copy OK

Track 23

Filename D:\Australian\VA - 100 Greatest Australian Singles Of The '60s (2015 Remastered) [FLAC]\Disc 3\23 - Johnny Farnham - Sadie The Cleaning Lady.wav

Pre-gap length 0:00:01.86

Peak level 100.0 %
Extraction speed 6.5 X
Track quality 99.9 %
Test CRC 05892CFD
Copy CRC 05892CFD
Accurately ripped (confidence 3) [1A180389] (AR v2)
Copy OK

Track 24

Filename D:\Australian\VA - 100 Greatest Australian Singles Of The '60s (2015 Remastered) [FLAC]\Disc 3\24 - Normie Rowe & The Playboys - Shakin' All Over.wav

Pre-gap length 0:00:01.90

Peak level 100.0 %
Extraction speed 8.3 X
Track quality 100.0 %
Test CRC 4C7E121C
Copy CRC 4C7E121C
Accurately ripped (confidence 3) [905D054A] (AR v2)
Copy OK

Track 25

Filename D:\Australian\VA - 100 Greatest Australian Singles Of The '60s (2015 Remastered) [FLAC]\Disc 3\25 - The Easybeats - She's So Fine.wav

Pre-gap length 0:00:02.00

Peak level 100.0 %
Extraction speed 8.1 X
Track quality 100.0 %
Test CRC 7B856DF5
Copy CRC 7B856DF5
Accurately ripped (confidence 3) [569D8369] (AR v2)
Copy OK


All tracks accurately ripped

No errors occurred

End of status report

–– CUETools DB Plugin V2.1.4

[CTDB TOCID: E6q5rnwAfifr1pUJccQYjV0CBBM-] found
Submit result: E6q5rnwAfifr1pUJccQYjV0CBBM- has been confirmed
Track | CTDB Status
1 | (14/14) Accurately ripped
2 | (14/14) Accurately ripped
3 | (14/14) Accurately ripped
4 | (14/14) Accurately ripped
5 | (14/14) Accurately ripped
6 | (14/14) Accurately ripped
7 | (14/14) Accurately ripped
8 | (14/14) Accurately ripped
9 | (14/14) Accurately ripped
10 | (14/14) Accurately ripped
11 | (14/14) Accurately ripped
12 | (14/14) Accurately ripped
13 | (14/14) Accurately ripped
14 | (14/14) Accurately ripped
15 | (14/14) Accurately ripped
16 | (14/14) Accurately ripped
17 | (14/14) Accurately ripped
18 | (14/14) Accurately ripped
19 | (14/14) Accurately ripped
20 | (14/14) Accurately ripped
21 | (14/14) Accurately ripped
22 | (14/14) Accurately ripped
23 | (14/14) Accurately ripped
24 | (14/14) Accurately ripped
25 | (14/14) Accurately ripped


==== Log checksum E7247646D0300D6EFEADF6E417B0D977F481CEAFD7DAF6C5EF86A3FE215F92FE ====


CD 4
01. Johnny O'Keefe - Sing
02. Ronnie Burns - Smiley
03. Tony Barber - Someday
04. The Vibrants - Something About You, Baby
05. The Groove - Soothe Me
06. The News - S.O.S. (Stop Her On Sight)
07. Bee Gees - Spicks & Specks
08. Johnny Young & Kompany - Step Back
09. The Denvermen - Surfside
10. The Virgil Brothers - Temptation's 'Bout To Get Me
11. The Seekers - The Carnival Is Over
12. The Loved Ones - The Loved One
13. Russell Morris - The Real Thing
14. Ross D. Wylie - The Star
15. Python Lee Jackson - Um, Um, Um
16. The Master's Apprentices - Undecided
17. Tony Worsley - Velvet Waters
18. The Easybeats - Wedding Ring
19. Bev Harrell - What Am I Doing Here With You?
20. The Twilights - What's Wrong With The Way I Live?
21. The Thunderbirds - Wild Weekend
22. The Groop - Woman You're Breaking Me
23. The Missing Links - You're Driving Me Insane
24. Mike Furber & The Bowery Boys - You Stole My Love
25. The Party Machine - You've All Got To Go

Exact Audio Copy V1.0 beta 4 from 7. December 2014

EAC extraction logfile from 14. April 2017, 18:48

Various Artists / 100 Greatest Australian Singles Of The '60s (Disc 4)

Used drive : TSSTcorpCDDVDW SH-222AB Adapter: 1 ID: 0

Read mode : Secure
Utilize accurate stream : Yes
Defeat audio cache : Yes
Make use of C2 pointers : No

Read offset correction : 6
Overread into Lead-In and Lead-Out : No
Fill up missing offset samples with silence : Yes
Delete leading and trailing silent blocks : No
Null samples used in CRC calculations : Yes
Used interface : Native Win32 interface for Win NT & 2000
Gap handling : Appended to previous track

Used output format : User Defined Encoder
Selected bitrate : 1024 kBit/s
Quality : High
Add ID3 tag : No
Command line compressor : C:\Program Files\Exact Audio Copy\Flac\flac.exe
Additional command line options : -8 -V -T "ARTIST=%artist%" -T "TITLE=%title%" -T "ALBUM=%albumtitle%" -T "DATE=%year%" -T "TRACKNUMBER=%tracknr%" -T "GENRE=%genre%" -T "PERFORMER=%albuminterpret%" -T "COMPOSER=%composer%" %haslyrics%–tag-from-file=LYRICS="%lyricsfile%"%haslyrics% -T "ALBUMARTIST=%albumartist%" -T "DISCNUMBER=%cdnumber%" -T "TOTALDISCS=%totalcds%" -T "TOTALTRACKS=%numtracks%" -T "COMMENT=EAC V1.0 beta 4, Secure Mode, Test & Copy, AccurateRip, FLAC -8" %source% -o %dest%


TOC of the extracted CD

Track | Start | Length | Start sector | End sector
––––––––––––––––––––––––––––-
1 | 0:00.00 | 2:04.21 | 0 | 9320
2 | 2:04.21 | 3:29.14 | 9321 | 25009
3 | 5:33.35 | 2:09.59 | 25010 | 34743
4 | 7:43.19 | 2:37.21 | 34744 | 46539
5 | 10:20.40 | 2:46.42 | 46540 | 59031
6 | 13:07.07 | 2:13.30 | 59032 | 69036
7 | 15:20.37 | 2:59.71 | 69037 | 82532
8 | 18:20.33 | 1:50.63 | 82533 | 90845
9 | 20:11.21 | 2:37.62 | 90846 | 102682
10 | 22:49.08 | 2:36.14 | 102683 | 114396
11 | 25:25.22 | 3:17.40 | 114397 | 129211
12 | 28:42.62 | 2:52.48 | 129212 | 142159
13 | 31:35.35 | 6:21.57 | 142160 | 170791
14 | 37:57.17 | 3:31.62 | 170792 | 186678
15 | 41:29.04 | 2:59.63 | 186679 | 200166
16 | 44:28.67 | 2:27.52 | 200167 | 211243
17 | 46:56.44 | 2:07.50 | 211244 | 220818
18 | 49:04.19 | 2:02.62 | 220819 | 230030
19 | 51:07.06 | 2:38.46 | 230031 | 241926
20 | 53:45.52 | 1:58.08 | 241927 | 250784
21 | 55:43.60 | 2:14.36 | 250785 | 260870
22 | 57:58.21 | 2:13.25 | 260871 | 270870
23 | 60:11.46 | 2:56.22 | 270871 | 284092
24 | 63:07.68 | 2:42.20 | 284093 | 296262
25 | 65:50.13 | 2:37.04 | 296263 | 308041


Track 1

Filename D:\Australian\VA - 100 Greatest Australian Singles Of The '60s (2015 Remastered) [FLAC]\Disc 4\01 - Johnny O'Keefe - Sing.wav

Pre-gap length 0:00:02.00

Peak level 90.8 %
Extraction speed 4.0 X
Track quality 100.0 %
Test CRC 17DB7C4C
Copy CRC 17DB7C4C
Accurately ripped (confidence 3) [87AECCAA] (AR v2)
Copy OK

Track 2

Filename D:\Australian\VA - 100 Greatest Australian Singles Of The '60s (2015 Remastered) [FLAC]\Disc 4\02 - Ronnie Burns - Smiley.wav

Pre-gap length 0:00:01.70

Peak level 100.0 %
Extraction speed 4.7 X
Track quality 100.0 %
Test CRC 0755B5B6
Copy CRC 0755B5B6
Accurately ripped (confidence 3) [28EE4D6D] (AR v2)
Copy OK

Track 3

Filename D:\Australian\VA - 100 Greatest Australian Singles Of The '60s (2015 Remastered) [FLAC]\Disc 4\03 - Tony Barber - Someday.wav

Pre-gap length 0:00:01.74

Peak level 100.0 %
Extraction speed 3.3 X
Track quality 99.9 %
Test CRC 39DE0BB7
Copy CRC 39DE0BB7
Accurately ripped (confidence 3) [AB145991] (AR v2)
Copy OK

Track 4

Filename D:\Australian\VA - 100 Greatest Australian Singles Of The '60s (2015 Remastered) [FLAC]\Disc 4\04 - The Vibrants - Something About You, Baby.wav

Pre-gap length 0:00:01.82

Peak level 100.0 %
Extraction speed 5.0 X
Track quality 100.0 %
Test CRC 16F80D5A
Copy CRC 16F80D5A
Accurately ripped (confidence 3) [4C1AEE66] (AR v2)
Copy OK

Track 5

Filename D:\Australian\VA - 100 Greatest Australian Singles Of The '60s (2015 Remastered) [FLAC]\Disc 4\05 - The Groove - Soothe Me.wav

Pre-gap length 0:00:02.02

Peak level 99.8 %
Extraction speed 5.3 X
Track quality 100.0 %
Test CRC DDD3E83B
Copy CRC DDD3E83B
Accurately ripped (confidence 3) [B282E495] (AR v2)
Copy OK

Track 6

Filename D:\Australian\VA - 100 Greatest Australian Singles Of The '60s (2015 Remastered) [FLAC]\Disc 4\06 - The News - S.O.S. (Stop Her On Sight).wav

Pre-gap length 0:00:01.77

Peak level 100.0 %
Extraction speed 5.2 X
Track quality 100.0 %
Test CRC 87629BBD
Copy CRC 87629BBD
Accurately ripped (confidence 3) [808D0655] (AR v2)
Copy OK

Track 7

Filename D:\Australian\VA - 100 Greatest Australian Singles Of The '60s (2015 Remastered) [FLAC]\Disc 4\07 - Bee Gees - Spicks & Specks.wav

Pre-gap length 0:00:01.82

Peak level 98.6 %
Extraction speed 4.4 X
Track quality 99.9 %
Test CRC 3A366F59
Copy CRC 3A366F59
Accurately ripped (confidence 3) [C5FA4AE0] (AR v2)
Copy OK

Track 8

Filename D:\Australian\VA - 100 Greatest Australian Singles Of The '60s (2015 Remastered) [FLAC]\Disc 4\08 - Johnny Young & Kompany - Step Back.wav

Pre-gap length 0:00:01.80

Peak level 98.5 %
Extraction speed 5.3 X
Track quality 100.0 %
Test CRC 5BE81072
Copy CRC 5BE81072
Accurately ripped (confidence 3) [6DD4C7F2] (AR v2)
Copy OK

Track 9

Filename D:\Australian\VA - 100 Greatest Australian Singles Of The '60s (2015 Remastered) [FLAC]\Disc 4\09 - The Denvermen - Surfside.wav

Pre-gap length 0:00:01.81

Peak level 100.0 %
Extraction speed 6.0 X
Track quality 100.0 %
Test CRC 1CE91968
Copy CRC 1CE91968
Accurately ripped (confidence 3) [F5E3330B] (AR v2)
Copy OK

Track 10

Filename D:\Australian\VA - 100 Greatest Australian Singles Of The '60s (2015 Remastered) [FLAC]\Disc 4\10 - The Virgil Brothers - Temptation's 'Bout To Get Me.wav

Pre-gap length 0:00:01.68

Peak level 100.0 %
Extraction speed 6.1 X
Track quality 100.0 %
Test CRC FF81F42B
Copy CRC FF81F42B
Accurately ripped (confidence 3) [99E849ED] (AR v2)
Copy OK

Track 11

Filename D:\Australian\VA - 100 Greatest Australian Singles Of The '60s (2015 Remastered) [FLAC]\Disc 4\11 - The Seekers - The Carnival Is Over.wav

Pre-gap length 0:00:01.80

Peak level 100.0 %
Extraction speed 5.2 X
Track quality 99.9 %
Test CRC 6D31E05A
Copy CRC 6D31E05A
Accurately ripped (confidence 3) [F6B12B6D] (AR v2)
Copy OK

Track 12

Filename D:\Australian\VA - 100 Greatest Australian Singles Of The '60s (2015 Remastered) [FLAC]\Disc 4\12 - The Loved Ones - The Loved One.wav

Pre-gap length 0:00:02.24

Peak level 100.0 %
Extraction speed 5.0 X
Track quality 99.9 %
Test CRC FE672917
Copy CRC FE672917
Accurately ripped (confidence 3) [1C15D5E4] (AR v2)
Copy OK

Track 13

Filename D:\Australian\VA - 100 Greatest Australian Singles Of The '60s (2015 Remastered) [FLAC]\Disc 4\13 - Russell Morris - The Real Thing.wav

Pre-gap length 0:00:01.74

Peak level 100.0 %
Extraction speed 6.7 X
Track quality 99.9 %
Test CRC 06C55721
Copy CRC 06C55721
Accurately ripped (confidence 3) [C7905720] (AR v2)
Copy OK

Track 14

Filename D:\Australian\VA - 100 Greatest Australian Singles Of The '60s (2015 Remastered) [FLAC]\Disc 4\14 - Ross D. Wylie - The Star.wav

Pre-gap length 0:00:01.93

Peak level 100.0 %
Extraction speed 5.9 X
Track quality 99.9 %
Test CRC 0B0B862C
Copy CRC 0B0B862C
Accurately ripped (confidence 3) [820D4232] (AR v2)
Copy OK

Track 15

Filename D:\Australian\VA - 100 Greatest Australian Singles Of The '60s (2015 Remastered) [FLAC]\Disc 4\15 - Python Lee Jackson - Um, Um, Um.wav

Pre-gap length 0:00:01.97

Peak level 92.2 %
Extraction speed 7.5 X
Track quality 100.0 %
Test CRC E78F56A1
Copy CRC E78F56A1
Accurately ripped (confidence 3) [F09FC251] (AR v2)
Copy OK

Track 16

Filename D:\Australian\VA - 100 Greatest Australian Singles Of The '60s (2015 Remastered) [FLAC]\Disc 4\16 - The Master's Apprentices - Undecided.wav

Pre-gap length 0:00:01.85

Peak level 100.0 %
Extraction speed 5.3 X
Track quality 99.9 %
Test CRC CB0B2A78
Copy CRC CB0B2A78
Accurately ripped (confidence 3) [2ED67A8F] (AR v2)
Copy OK

Track 17

Filename D:\Australian\VA - 100 Greatest Australian Singles Of The '60s (2015 Remastered) [FLAC]\Disc 4\17 - Tony Worsley - Velvet Waters.wav

Pre-gap length 0:00:01.74

Peak level 100.0 %
Extraction speed 7.3 X
Track quality 100.0 %
Test CRC 917F7BA0
Copy CRC 917F7BA0
Accurately ripped (confidence 3) [2B86D11A] (AR v2)
Copy OK

Track 18

Filename D:\Australian\VA - 100 Greatest Australian Singles Of The '60s (2015 Remastered) [FLAC]\Disc 4\18 - The Easybeats - Wedding Ring.wav

Pre-gap length 0:00:01.68

Peak level 100.0 %
Extraction speed 5.0 X
Track quality 99.9 %
Test CRC 7199AFFF
Copy CRC 7199AFFF
Accurately ripped (confidence 3) [06FF1596] (AR v2)
Copy OK

Track 19

Filename D:\Australian\VA - 100 Greatest Australian Singles Of The '60s (2015 Remastered) [FLAC]\Disc 4\19 - Bev Harrell - What Am I Doing Here With You.wav

Pre-gap length 0:00:01.61

Peak level 94.2 %
Extraction speed 7.9 X
Track quality 100.0 %
Test CRC 9DDDB9FA
Copy CRC 9DDDB9FA
Accurately ripped (confidence 3) [CF9F3398] (AR v2)
Copy OK

Track 20

Filename D:\Australian\VA - 100 Greatest Australian Singles Of The '60s (2015 Remastered) [FLAC]\Disc 4\20 - The Twilights - What's Wrong With The Way I Live.wav

Pre-gap length 0:00:01.93

Peak level 94.3 %
Extraction speed 7.5 X
Track quality 100.0 %
Test CRC CF75FFBB
Copy CRC CF75FFBB
Accurately ripped (confidence 3) [A78FD503] (AR v2)
Copy OK

Track 21

Filename D:\Australian\VA - 100 Greatest Australian Singles Of The '60s (2015 Remastered) [FLAC]\Disc 4\21 - The Thunderbirds - Wild Weekend.wav

Pre-gap length 0:00:01.93

Peak level 100.0 %
Extraction speed 7.7 X
Track quality 100.0 %
Test CRC BA34B209
Copy CRC BA34B209
Accurately ripped (confidence 3) [6516028A] (AR v2)
Copy OK

Track 22

Filename D:\Australian\VA - 100 Greatest Australian Singles Of The '60s (2015 Remastered) [FLAC]\Disc 4\22 - The Groop - Woman You're Breaking Me.wav

Pre-gap length 0:00:01.92

Peak level 100.0 %
Extraction speed 7.8 X
Track quality 100.0 %
Test CRC 7579CA8C
Copy CRC 7579CA8C
Accurately ripped (confidence 3) [ED2B42A9] (AR v2)
Copy OK

Track 23

Filename D:\Australian\VA - 100 Greatest Australian Singles Of The '60s (2015 Remastered) [FLAC]\Disc 4\23 - The Missing Links - You're Driving Me Insane.wav

Pre-gap length 0:00:01.89

Peak level 99.7 %
Extraction speed 6.3 X
Track quality 99.9 %
Test CRC 267CB084
Copy CRC 267CB084
Accurately ripped (confidence 3) [5BA1B464] (AR v2)
Copy OK

Track 24

Filename D:\Australian\VA - 100 Greatest Australian Singles Of The '60s (2015 Remastered) [FLAC]\Disc 4\24 - Mike Furber & The Bowery Boys - You Stole My Love.wav

Pre-gap length 0:00:01.89

Peak level 100.0 %
Extraction speed 8.5 X
Track quality 100.0 %
Test CRC 65D5F494
Copy CRC 65D5F494
Accurately ripped (confidence 3) [F870EFF8] (AR v2)
Copy OK

Track 25

Filename D:\Australian\VA - 100 Greatest Australian Singles Of The '60s (2015 Remastered) [FLAC]\Disc 4\25 - The Party Machine - You've All Got To Go.wav

Pre-gap length 0:00:01.98

Peak level 96.6 %
Extraction speed 6.2 X
Track quality 99.9 %
Test CRC 75576796
Copy CRC 75576796
Accurately ripped (confidence 3) [AE2C90BE] (AR v2)
Copy OK


All tracks accurately ripped

No errors occurred

End of status report

–– CUETools DB Plugin V2.1.4

[CTDB TOCID: G9QcdnAzmi8_cjG.36yCQSShgog-] found
Submit result: G9QcdnAzmi8_cjG.36yCQSShgog- has been confirmed
Track | CTDB Status
1 | (13/13) Accurately ripped
2 | (13/13) Accurately ripped
3 | (13/13) Accurately ripped
4 | (13/13) Accurately ripped
5 | (13/13) Accurately ripped
6 | (13/13) Accurately ripped
7 | (13/13) Accurately ripped
8 | (13/13) Accurately ripped
9 | (13/13) Accurately ripped
10 | (13/13) Accurately ripped
11 | (13/13) Accurately ripped
12 | (13/13) Accurately ripped
13 | (13/13) Accurately ripped
14 | (13/13) Accurately ripped
15 | (13/13) Accurately ripped
16 | (13/13) Accurately ripped
17 | (13/13) Accurately ripped
18 | (13/13) Accurately ripped
19 | (13/13) Accurately ripped
20 | (13/13) Accurately ripped
21 | (13/13) Accurately ripped
22 | (13/13) Accurately ripped
23 | (13/13) Accurately ripped
24 | (13/13) Accurately ripped
25 | (13/13) Accurately ripped


==== Log checksum 88D608B505E73F9842C3EAA673FAFF1DD5C30695157C8C46D6833D2206568F82 ====


All thanks to original releaser!