Subcategories

VA - 100 Hits: Boogie Nights (2017)

Posted By: El Misha
VA - 100 Hits: Boogie Nights (2017)

VA - 100 Hits: Boogie Nights (2017)
EAC Rip | FLAC (tracks & cue & log) -> 2.56 GB | Covers included | 6:03:02
Genre: Funk, Soul, Jazz, Disco | Label: Demon Music Group Ltd

Housed in slick digipaks containing 5 discs packed full of your favourite hits. 100 Hits: Boogie Nights offers the Ultimate Collection of Classic Disco. The biggest hits from McFadden & Whitehead, The Jacksons, Aretha Franklin, Sly & The Family Stone, Earth, Wind & Fire, Boney M, The O'Jays and many more..



Tracklist:

CD1:
01. Heatwave - Boogie Nights 03:38
02. Wild Cherry - Play That Funky Music 03:11
03. Baccara - Yes Sir, I Can Boogie 03:16
04. Harold Melvin & The Blue Notes - Don't Leave Me This Way 03:29
05. The Nolans - I'm In The Mood For Dancing 03:18
06. Earth, Wind & Fire With The Emotions - Boogie Wonderland 04:48
07. Odyssey - Native New Yorker 03:27
08. Sarah Brightman And Hot Gossip - I Lost My Heart To A Starship Trooper 04:20
09. Leo Sayer - You Make Me Feel Like Dancing 02:51
10. Dan Hartman - Instant Replay 03:27
11. Gary's Gang - Keep On Dancing 03:30
12. Billy Ocean - Red Light Spells Danger 03:30
13. Boney M. - Sunny 03:15
14. The S.O.S. Band - Take You Time (Do It Right) 03:14
15. Cheryl Lynn - Got To Be Real 03:26
16. Melba Moore - This Is It 03:30
17. The Drifters - There Goes My First Love 03:02
18. First Choice - Armed And Extremely Dangerous 02:47
19. The Isley Brothers - That Lady, Pt. 1 03:14
20. Bill Withers - Lovely Day 04:11

Exact Audio Copy V1.3 from 2. September 2016

EAC extraction logfile from 11. August 2017, 13:08

Various / 100 Hits - Boogie Nights - CD1

Used drive : ATAPI iHAS124 Y Adapter: 1 ID: 0

Read mode : Secure
Utilize accurate stream : Yes
Defeat audio cache : No
Make use of C2 pointers : Yes

Read offset correction : 48
Overread into Lead-In and Lead-Out : No
Fill up missing offset samples with silence : Yes
Delete leading and trailing silent blocks : No
Null samples used in CRC calculations : Yes
Used interface : Native Win32 interface for Win NT & 2000
Gap handling : Not detected, thus appended to previous track

Used output format : User Defined Encoder
Selected bitrate : 896 kBit/s
Quality : High
Add ID3 tag : No
Command line compressor : C:\Program Files (x86)\Exact Audio Copy\FLAC\FLAC.EXE
Additional command line options : -6 -V -T "ARTIST=%artist%" -T "TITLE=%title%" -T "ALBUM=%albumtitle%" -T "DATE=%year%" -T "TRACKNUMBER=%tracknr%" -T "GENRE=%genre%" -T "COMMENT=%comment%" -T "BAND=%albuminterpret%" -T "ALBUMARTIST=%albuminterpret%" -T "COMPOSER=%composer%" %haslyrics%–tag-from-file=LYRICS="%lyricsfile%"%haslyrics% -T "DISCNUMBER=%cdnumber%" -T "TOTALDISCS=%totalcds%" -T "TOTALTRACKS=%numtracks%" %hascover%–picture="%coverfile%"%hascover% %source% -o %dest%


TOC of the extracted CD

Track | Start | Length | Start sector | End sector
––––––––––––––––––––––––––––-
1 | 0:00.00 | 3:38.12 | 0 | 16361
2 | 3:38.12 | 3:11.46 | 16362 | 30732
3 | 6:49.58 | 3:16.62 | 30733 | 45494
4 | 10:06.45 | 3:29.54 | 45495 | 61223
5 | 13:36.24 | 3:18.53 | 61224 | 76126
6 | 16:55.02 | 4:48.23 | 76127 | 97749
7 | 21:43.25 | 3:27.47 | 97750 | 113321
8 | 25:10.72 | 4:20.14 | 113322 | 132835
9 | 29:31.11 | 2:51.62 | 132836 | 145722
10 | 32:22.73 | 3:27.55 | 145723 | 161302
11 | 35:50.53 | 3:30.52 | 161303 | 177104
12 | 39:21.30 | 3:30.69 | 177105 | 192923
13 | 42:52.24 | 3:15.56 | 192924 | 207604
14 | 46:08.05 | 3:14.01 | 207605 | 222155
15 | 49:22.06 | 3:26.29 | 222156 | 237634
16 | 52:48.35 | 3:30.25 | 237635 | 253409
17 | 56:18.60 | 3:02.66 | 253410 | 267125
18 | 59:21.51 | 2:47.47 | 267126 | 279697
19 | 62:09.23 | 3:14.31 | 279698 | 294278
20 | 65:23.54 | 4:11.38 | 294279 | 313141


Track 1

Filename A:\PsPBuRnOuT's MUSIC\100 HITS\100 HITS - BOOGIE NIGHTS\BOOGIE NIGHTS - CD01\01.Heatwave - Boogie Nights.wav

Peak level 94.4 %
Extraction speed 11.8 X
Track quality 100.0 %
Copy CRC 2DCBBA0C
Track not present in AccurateRip database
Copy OK

Track 2

Filename A:\PsPBuRnOuT's MUSIC\100 HITS\100 HITS - BOOGIE NIGHTS\BOOGIE NIGHTS - CD01\02.Wild Cherry - Play That Funky Music.wav

Peak level 79.3 %
Extraction speed 19.0 X
Track quality 100.0 %
Copy CRC 4FE37394
Track not present in AccurateRip database
Copy OK

Track 3

Filename A:\PsPBuRnOuT's MUSIC\100 HITS\100 HITS - BOOGIE NIGHTS\BOOGIE NIGHTS - CD01\03.Baccara - Yes Sir, I Can Boogie.wav

Peak level 94.4 %
Extraction speed 19.3 X
Track quality 100.0 %
Copy CRC 854C7263
Track not present in AccurateRip database
Copy OK

Track 4

Filename A:\PsPBuRnOuT's MUSIC\100 HITS\100 HITS - BOOGIE NIGHTS\BOOGIE NIGHTS - CD01\04.Harold Melvin & The Blue Notes - Don't Leave Me This Way.wav

Peak level 90.1 %
Extraction speed 21.6 X
Track quality 100.0 %
Copy CRC 2656A32C
Track not present in AccurateRip database
Copy OK

Track 5

Filename A:\PsPBuRnOuT's MUSIC\100 HITS\100 HITS - BOOGIE NIGHTS\BOOGIE NIGHTS - CD01\05.The Nolans - I'm In The Mood For Dancing.wav

Peak level 94.4 %
Extraction speed 21.5 X
Track quality 100.0 %
Copy CRC 31B2A65F
Track not present in AccurateRip database
Copy OK

Track 6

Filename A:\PsPBuRnOuT's MUSIC\100 HITS\100 HITS - BOOGIE NIGHTS\BOOGIE NIGHTS - CD01\06.Earth, Wind & Fire With The Emotions - Boogie Wonderland.wav

Peak level 94.4 %
Extraction speed 23.3 X
Track quality 100.0 %
Copy CRC 585AF2E9
Track not present in AccurateRip database
Copy OK

Track 7

Filename A:\PsPBuRnOuT's MUSIC\100 HITS\100 HITS - BOOGIE NIGHTS\BOOGIE NIGHTS - CD01\07.Odyssey - Native New Yorker.wav

Peak level 80.5 %
Extraction speed 22.0 X
Track quality 100.0 %
Copy CRC F90DB6C7
Track not present in AccurateRip database
Copy OK

Track 8

Filename A:\PsPBuRnOuT's MUSIC\100 HITS\100 HITS - BOOGIE NIGHTS\BOOGIE NIGHTS - CD01\08.Sarah Brightman And Hot Gossip - I Lost My Heart To A Starship Trooper.wav

Peak level 86.2 %
Extraction speed 23.6 X
Track quality 100.0 %
Copy CRC CC1F642F
Track not present in AccurateRip database
Copy OK

Track 9

Filename A:\PsPBuRnOuT's MUSIC\100 HITS\100 HITS - BOOGIE NIGHTS\BOOGIE NIGHTS - CD01\09.Leo Sayer - You Make Me Feel Like Dancing.wav

Peak level 80.3 %
Extraction speed 27.0 X
Track quality 100.0 %
Copy CRC F803F9AB
Track not present in AccurateRip database
Copy OK

Track 10

Filename A:\PsPBuRnOuT's MUSIC\100 HITS\100 HITS - BOOGIE NIGHTS\BOOGIE NIGHTS - CD01\10.Dan Hartman - Instant Replay.wav

Peak level 94.4 %
Extraction speed 27.0 X
Track quality 100.0 %
Copy CRC 6CCF2A0C
Track not present in AccurateRip database
Copy OK

Track 11

Filename A:\PsPBuRnOuT's MUSIC\100 HITS\100 HITS - BOOGIE NIGHTS\BOOGIE NIGHTS - CD01\11.Gary's Gang - Keep On Dancing.wav

Peak level 94.4 %
Extraction speed 29.7 X
Track quality 100.0 %
Copy CRC 6D4D375C
Track not present in AccurateRip database
Copy OK

Track 12

Filename A:\PsPBuRnOuT's MUSIC\100 HITS\100 HITS - BOOGIE NIGHTS\BOOGIE NIGHTS - CD01\12.Billy Ocean - Red Light Spells Danger.wav

Peak level 91.2 %
Extraction speed 21.4 X
Track quality 99.8 %
Copy CRC 403CEED4
Track not present in AccurateRip database
Copy OK

Track 13

Filename A:\PsPBuRnOuT's MUSIC\100 HITS\100 HITS - BOOGIE NIGHTS\BOOGIE NIGHTS - CD01\13.Boney M. - Sunny.wav

Peak level 94.4 %
Extraction speed 23.8 X
Track quality 100.0 %
Copy CRC CADD4B32
Track not present in AccurateRip database
Copy OK

Track 14

Filename A:\PsPBuRnOuT's MUSIC\100 HITS\100 HITS - BOOGIE NIGHTS\BOOGIE NIGHTS - CD01\14.The S.O.S. Band - Take You Time (Do It Right).wav

Peak level 94.4 %
Extraction speed 30.5 X
Track quality 100.0 %
Copy CRC 49F0970C
Track not present in AccurateRip database
Copy OK

Track 15

Filename A:\PsPBuRnOuT's MUSIC\100 HITS\100 HITS - BOOGIE NIGHTS\BOOGIE NIGHTS - CD01\15.Cheryl Lynn - Got To Be Real.wav

Peak level 100.0 %
Extraction speed 31.3 X
Track quality 100.0 %
Copy CRC D84DB393
Track not present in AccurateRip database
Copy OK

Track 16

Filename A:\PsPBuRnOuT's MUSIC\100 HITS\100 HITS - BOOGIE NIGHTS\BOOGIE NIGHTS - CD01\16.Melba Moore - This Is It.wav

Peak level 91.2 %
Extraction speed 26.7 X
Track quality 99.8 %
Copy CRC 298C2C31
Track not present in AccurateRip database
Copy OK

Track 17

Filename A:\PsPBuRnOuT's MUSIC\100 HITS\100 HITS - BOOGIE NIGHTS\BOOGIE NIGHTS - CD01\17.The Drifters - There Goes My First Love.wav

Peak level 94.4 %
Extraction speed 23.9 X
Track quality 100.0 %
Copy CRC 96DE0E2C
Track not present in AccurateRip database
Copy OK

Track 18

Filename A:\PsPBuRnOuT's MUSIC\100 HITS\100 HITS - BOOGIE NIGHTS\BOOGIE NIGHTS - CD01\18.First Choice - Armed And Extremely Dangerous.wav

Peak level 77.6 %
Extraction speed 26.1 X
Track quality 99.8 %
Copy CRC 71083323
Track not present in AccurateRip database
Copy OK

Track 19

Filename A:\PsPBuRnOuT's MUSIC\100 HITS\100 HITS - BOOGIE NIGHTS\BOOGIE NIGHTS - CD01\19.The Isley Brothers - That Lady, Pt. 1.wav

Peak level 91.2 %
Extraction speed 26.5 X
Track quality 100.0 %
Copy CRC B11F5B0A
Track not present in AccurateRip database
Copy OK

Track 20

Filename A:\PsPBuRnOuT's MUSIC\100 HITS\100 HITS - BOOGIE NIGHTS\BOOGIE NIGHTS - CD01\20.Bill Withers - Lovely Day.wav

Peak level 94.4 %
Extraction speed 37.0 X
Track quality 100.0 %
Copy CRC 542C36EB
Track not present in AccurateRip database
Copy OK


None of the tracks are present in the AccurateRip database

No errors occurred

End of status report

–– CUETools DB Plugin V2.1.6

[CTDB TOCID: c3e4IRyGAL2xFSTSjA7zlQcQwx8-] found
Submit result: c3e4IRyGAL2xFSTSjA7zlQcQwx8- has been confirmed
Track | CTDB Status
1 | (1/1) Accurately ripped
2 | (1/1) Accurately ripped
3 | (1/1) Accurately ripped
4 | (1/1) Accurately ripped
5 | (1/1) Accurately ripped
6 | (1/1) Accurately ripped
7 | (1/1) Accurately ripped
8 | (1/1) Accurately ripped
9 | (1/1) Accurately ripped
10 | (1/1) Accurately ripped
11 | (1/1) Accurately ripped
12 | (1/1) Accurately ripped
13 | (1/1) Accurately ripped
14 | (1/1) Accurately ripped
15 | (1/1) Accurately ripped
16 | (1/1) Accurately ripped
17 | (1/1) Accurately ripped
18 | (1/1) Accurately ripped
19 | (1/1) Accurately ripped
20 | (1/1) Accurately ripped


CD2:
21. The Jacksons - Blame It On The Boogie 03:27
22. Andrea True Connection - More, More. More 03:01
23. The Hues Corporation - Rock The Boat 03:02
24. Labelle - Lady Marmalade 03:18
25. Vicki Sue Robinson - Turn The Beat Around 03:24
26. Gladys Knight & The Pips - Com Back And Finish What You Started 03:23
27. The O'jays - I Love Music 03:34
28. Average White Band - Let's Go Round Again 03:24
29. Tom Browne - Funkin' For Jamaica 03:19
30. Tina Charles - Dance Little Lady Dance 03:07
31. The Dooleys - Wanted 03:37
32. Archie Bell & The Drells - Soul City Walk 04:16
33. Eruption - One Way Ticket 03:36
34. Frantique - Getting Serious 04:45
35. Jean Carn - Was That All It Was 03:44
36. Biddu - Summer Of '42 03:42
37. Brainstorm - Lovin' Is Really My Game 04:58
38. Johnnie Taylor - Disco Lady 04:24
39. The Trammps - Hold Back The Night 03:46
40. New York City - I'm Doin' Fine Now 02:49

Exact Audio Copy V1.3 from 2. September 2016

EAC extraction logfile from 11. August 2017, 13:38

Various / 100 Hits - Boogie Nights - CD2

Used drive : ATAPI iHAS124 Y Adapter: 1 ID: 0

Read mode : Secure
Utilize accurate stream : Yes
Defeat audio cache : No
Make use of C2 pointers : Yes

Read offset correction : 48
Overread into Lead-In and Lead-Out : No
Fill up missing offset samples with silence : Yes
Delete leading and trailing silent blocks : No
Null samples used in CRC calculations : Yes
Used interface : Native Win32 interface for Win NT & 2000
Gap handling : Not detected, thus appended to previous track

Used output format : User Defined Encoder
Selected bitrate : 896 kBit/s
Quality : High
Add ID3 tag : No
Command line compressor : C:\Program Files (x86)\Exact Audio Copy\FLAC\FLAC.EXE
Additional command line options : -6 -V -T "ARTIST=%artist%" -T "TITLE=%title%" -T "ALBUM=%albumtitle%" -T "DATE=%year%" -T "TRACKNUMBER=%tracknr%" -T "GENRE=%genre%" -T "COMMENT=%comment%" -T "BAND=%albuminterpret%" -T "ALBUMARTIST=%albuminterpret%" -T "COMPOSER=%composer%" %haslyrics%–tag-from-file=LYRICS="%lyricsfile%"%haslyrics% -T "DISCNUMBER=%cdnumber%" -T "TOTALDISCS=%totalcds%" -T "TOTALTRACKS=%numtracks%" %hascover%–picture="%coverfile%"%hascover% %source% -o %dest%


TOC of the extracted CD

Track | Start | Length | Start sector | End sector
––––––––––––––––––––––––––––-
1 | 0:00.00 | 3:27.27 | 0 | 15551
2 | 3:27.27 | 3:01.15 | 15552 | 29141
3 | 6:28.42 | 3:02.39 | 29142 | 42830
4 | 9:31.06 | 3:18.45 | 42831 | 57725
5 | 12:49.51 | 3:24.54 | 57726 | 73079
6 | 16:14.30 | 3:23.61 | 73080 | 88365
7 | 19:38.16 | 3:34.55 | 88366 | 104470
8 | 23:12.71 | 3:24.02 | 104471 | 119772
9 | 26:36.73 | 3:19.35 | 119773 | 134732
10 | 29:56.33 | 3:07.32 | 134733 | 148789
11 | 33:03.65 | 3:37.00 | 148790 | 165064
12 | 36:40.65 | 4:16.28 | 165065 | 184292
13 | 40:57.18 | 3:36.49 | 184293 | 200541
14 | 44:33.67 | 4:45.52 | 200542 | 221968
15 | 49:19.44 | 3:44.33 | 221969 | 238801
16 | 53:04.02 | 3:42.35 | 238802 | 255486
17 | 56:46.37 | 4:58.59 | 255487 | 277895
18 | 61:45.21 | 4:24.07 | 277896 | 297702
19 | 66:09.28 | 3:45.74 | 297703 | 314651
20 | 69:55.27 | 2:49.35 | 314652 | 327361


Track 1

Filename A:\PsPBuRnOuT's MUSIC\100 HITS\100 HITS - BOOGIE NIGHTS\BOOGIE NIGHTS - CD02\01.The Jacksons - Blame It On The Boogie.wav

Peak level 70.8 %
Extraction speed 13.3 X
Track quality 100.0 %
Copy CRC 6D49D2B5
Track not present in AccurateRip database
Copy OK

Track 2

Filename A:\PsPBuRnOuT's MUSIC\100 HITS\100 HITS - BOOGIE NIGHTS\BOOGIE NIGHTS - CD02\02.Andrea True Connection - More, More. More.wav

Peak level 74.1 %
Extraction speed 18.7 X
Track quality 100.0 %
Copy CRC 2630F6B2
Track not present in AccurateRip database
Copy OK

Track 3

Filename A:\PsPBuRnOuT's MUSIC\100 HITS\100 HITS - BOOGIE NIGHTS\BOOGIE NIGHTS - CD02\03.The Hues Corporation - Rock The Boat.wav

Peak level 100.0 %
Extraction speed 19.8 X
Track quality 100.0 %
Copy CRC 30A26B01
Track not present in AccurateRip database
Copy OK

Track 4

Filename A:\PsPBuRnOuT's MUSIC\100 HITS\100 HITS - BOOGIE NIGHTS\BOOGIE NIGHTS - CD02\04.Labelle - Lady Marmalade.wav

Peak level 94.4 %
Extraction speed 22.2 X
Track quality 100.0 %
Copy CRC 44E8B90D
Track not present in AccurateRip database
Copy OK

Track 5

Filename A:\PsPBuRnOuT's MUSIC\100 HITS\100 HITS - BOOGIE NIGHTS\BOOGIE NIGHTS - CD02\05.Vicki Sue Robinson - Turn The Beat Around.wav

Peak level 91.2 %
Extraction speed 23.4 X
Track quality 100.0 %
Copy CRC AF22EAB4
Track not present in AccurateRip database
Copy OK

Track 6

Filename A:\PsPBuRnOuT's MUSIC\100 HITS\100 HITS - BOOGIE NIGHTS\BOOGIE NIGHTS - CD02\06.Gladys Knight & The Pips - Com Back And Finish What You Started.wav

Peak level 91.2 %
Extraction speed 23.4 X
Track quality 100.0 %
Copy CRC CEB15C68
Track not present in AccurateRip database
Copy OK

Track 7

Filename A:\PsPBuRnOuT's MUSIC\100 HITS\100 HITS - BOOGIE NIGHTS\BOOGIE NIGHTS - CD02\07.The O'Jays - I Love Music.wav

Peak level 94.4 %
Extraction speed 24.4 X
Track quality 100.0 %
Copy CRC 799D2D4A
Track not present in AccurateRip database
Copy OK

Track 8

Filename A:\PsPBuRnOuT's MUSIC\100 HITS\100 HITS - BOOGIE NIGHTS\BOOGIE NIGHTS - CD02\08.Average White Band - Let's Go Round Again.wav

Peak level 94.4 %
Extraction speed 26.4 X
Track quality 100.0 %
Copy CRC BA1FE5CB
Track not present in AccurateRip database
Copy OK

Track 9

Filename A:\PsPBuRnOuT's MUSIC\100 HITS\100 HITS - BOOGIE NIGHTS\BOOGIE NIGHTS - CD02\09.Tom Browne - Funkin' For Jamaica.wav

Peak level 94.4 %
Extraction speed 22.4 X
Track quality 99.8 %
Copy CRC 3E3F01B3
Track not present in AccurateRip database
Copy OK

Track 10

Filename A:\PsPBuRnOuT's MUSIC\100 HITS\100 HITS - BOOGIE NIGHTS\BOOGIE NIGHTS - CD02\10.Tina Charles - Dance Little Lady Dance.wav

Peak level 94.4 %
Extraction speed 21.1 X
Track quality 100.0 %
Copy CRC C01F2555
Track not present in AccurateRip database
Copy OK

Track 11

Filename A:\PsPBuRnOuT's MUSIC\100 HITS\100 HITS - BOOGIE NIGHTS\BOOGIE NIGHTS - CD02\11.The Dooleys - Wanted.wav

Peak level 94.4 %
Extraction speed 24.2 X
Track quality 99.9 %
Copy CRC EF165B2E
Track not present in AccurateRip database
Copy OK

Track 12

Filename A:\PsPBuRnOuT's MUSIC\100 HITS\100 HITS - BOOGIE NIGHTS\BOOGIE NIGHTS - CD02\12.Archie Bell & The Drells - Soul City Walk.wav

Peak level 94.4 %
Extraction speed 24.2 X
Track quality 100.0 %
Copy CRC 7E7CDC67
Track not present in AccurateRip database
Copy OK

Track 13

Filename A:\PsPBuRnOuT's MUSIC\100 HITS\100 HITS - BOOGIE NIGHTS\BOOGIE NIGHTS - CD02\13.Eruption - One Way Ticket.wav

Peak level 84.1 %
Extraction speed 30.1 X
Track quality 100.0 %
Copy CRC 46B52BB6
Track not present in AccurateRip database
Copy OK

Track 14

Filename A:\PsPBuRnOuT's MUSIC\100 HITS\100 HITS - BOOGIE NIGHTS\BOOGIE NIGHTS - CD02\14.Frantique - Getting Serious.wav

Peak level 100.0 %
Extraction speed 31.8 X
Track quality 100.0 %
Copy CRC C922749A
Track not present in AccurateRip database
Copy OK

Track 15

Filename A:\PsPBuRnOuT's MUSIC\100 HITS\100 HITS - BOOGIE NIGHTS\BOOGIE NIGHTS - CD02\15.Jean Carn - Was That All It Was.wav

Peak level 94.4 %
Extraction speed 34.1 X
Track quality 100.0 %
Copy CRC 8AD69A32
Track not present in AccurateRip database
Copy OK

Track 16

Filename A:\PsPBuRnOuT's MUSIC\100 HITS\100 HITS - BOOGIE NIGHTS\BOOGIE NIGHTS - CD02\16.Biddu - Summer Of '42.wav

Peak level 94.4 %
Extraction speed 34.0 X
Track quality 100.0 %
Copy CRC 83565D66
Track not present in AccurateRip database
Copy OK

Track 17

Filename A:\PsPBuRnOuT's MUSIC\100 HITS\100 HITS - BOOGIE NIGHTS\BOOGIE NIGHTS - CD02\17.Brainstorm - Lovin' Is Really My Game.wav

Peak level 100.0 %
Extraction speed 33.9 X
Track quality 100.0 %
Copy CRC C06FDAA0
Track not present in AccurateRip database
Copy OK

Track 18

Filename A:\PsPBuRnOuT's MUSIC\100 HITS\100 HITS - BOOGIE NIGHTS\BOOGIE NIGHTS - CD02\18.Johnnie Taylor - Disco Lady.wav

Peak level 94.4 %
Extraction speed 34.6 X
Track quality 100.0 %
Copy CRC 9056FE61
Track not present in AccurateRip database
Copy OK

Track 19

Filename A:\PsPBuRnOuT's MUSIC\100 HITS\100 HITS - BOOGIE NIGHTS\BOOGIE NIGHTS - CD02\19.The Trammps - Hold Back The Night.wav

Peak level 94.4 %
Extraction speed 38.1 X
Track quality 100.0 %
Copy CRC 5EFA6760
Track not present in AccurateRip database
Copy OK

Track 20

Filename A:\PsPBuRnOuT's MUSIC\100 HITS\100 HITS - BOOGIE NIGHTS\BOOGIE NIGHTS - CD02\20.New York City - I'm Doin' Fine Now.wav

Peak level 94.4 %
Extraction speed 36.5 X
Track quality 100.0 %
Copy CRC 1C45F33B
Track not present in AccurateRip database
Copy OK


None of the tracks are present in the AccurateRip database

No errors occurred

End of status report

–– CUETools DB Plugin V2.1.6

[CTDB TOCID: IxDA68uiUrBvM53n1mFcMIKm85U-] disk not present in database
Submit result: IxDA68uiUrBvM53n1mFcMIKm85U- has been uploaded


CD3:
41. Earth, Wind & Fire - September 03:36
42. The Pointer Sisters - Jump (For My Love) 03:59
43. Boney M. - Rasputin 03:41
44. The Weather Girls - It's Raining Men 03:31
45. The Three Degrees - The Runner 03:42
46. Tina Charles - I Love To Love 03:03
47. Deniece Williams - I've Got The Next Dance 05:54
48. Evelyn ''Champagne'' King - Love Come Down 03:18
49. The Tymes - You Little Trustmaker 02:49
50. Dr. Buzzard's Original Savannah Band - Cherchez La Femme 05:41
51. G.Q. - Disco Nights (Rock Freak) 03:54
52. Herbie Hancock - I Thought It Was You 03:39
53. Melba Moore - Pick Me Up, I'll Dance (7'' Version) 03:49
54. Disco Tex & The Sex-O-Lettes - Get Dancin' 04:27
55. Sarah Brightman - Adventures Of The Love Crusader 04:02
56. First Choice - Smarty Pants 02:37
57. Linda Carr - High Wire 03:51
58. Jackie Moore - This Time Baby 03:54
59. Heatwave - The Groove Line 04:18
60. Mfsb - Tsop (The Sound Of Philadelphia) 03:29

Exact Audio Copy V1.3 from 2. September 2016

EAC extraction logfile from 11. August 2017, 14:08

Various / 100 Hits - Boogie Nights - CD3

Used drive : ATAPI iHAS124 Y Adapter: 1 ID: 0

Read mode : Secure
Utilize accurate stream : Yes
Defeat audio cache : No
Make use of C2 pointers : Yes

Read offset correction : 48
Overread into Lead-In and Lead-Out : No
Fill up missing offset samples with silence : Yes
Delete leading and trailing silent blocks : No
Null samples used in CRC calculations : Yes
Used interface : Native Win32 interface for Win NT & 2000
Gap handling : Not detected, thus appended to previous track

Used output format : User Defined Encoder
Selected bitrate : 896 kBit/s
Quality : High
Add ID3 tag : No
Command line compressor : C:\Program Files (x86)\Exact Audio Copy\FLAC\FLAC.EXE
Additional command line options : -6 -V -T "ARTIST=%artist%" -T "TITLE=%title%" -T "ALBUM=%albumtitle%" -T "DATE=%year%" -T "TRACKNUMBER=%tracknr%" -T "GENRE=%genre%" -T "COMMENT=%comment%" -T "BAND=%albuminterpret%" -T "ALBUMARTIST=%albuminterpret%" -T "COMPOSER=%composer%" %haslyrics%–tag-from-file=LYRICS="%lyricsfile%"%haslyrics% -T "DISCNUMBER=%cdnumber%" -T "TOTALDISCS=%totalcds%" -T "TOTALTRACKS=%numtracks%" %hascover%–picture="%coverfile%"%hascover% %source% -o %dest%


TOC of the extracted CD

Track | Start | Length | Start sector | End sector
––––––––––––––––––––––––––––-
1 | 0:00.00 | 3:36.33 | 0 | 16232
2 | 3:36.33 | 3:59.28 | 16233 | 34185
3 | 7:35.61 | 3:41.53 | 34186 | 50813
4 | 11:17.39 | 3:31.13 | 50814 | 66651
5 | 14:48.52 | 3:42.07 | 66652 | 83308
6 | 18:30.59 | 3:02.71 | 83309 | 97029
7 | 21:33.55 | 5:54.07 | 97030 | 123586
8 | 27:27.62 | 3:18.33 | 123587 | 138469
9 | 30:46.20 | 2:49.53 | 138470 | 151197
10 | 33:35.73 | 5:41.14 | 151198 | 176786
11 | 39:17.12 | 3:54.41 | 176787 | 194377
12 | 43:11.53 | 3:39.55 | 194378 | 210857
13 | 46:51.33 | 3:49.40 | 210858 | 228072
14 | 50:40.73 | 4:27.49 | 228073 | 248146
15 | 55:08.47 | 4:01.74 | 248147 | 266295
16 | 59:10.46 | 2:37.53 | 266296 | 278123
17 | 61:48.24 | 3:51.19 | 278124 | 295467
18 | 65:39.43 | 3:54.30 | 295468 | 313047
19 | 69:33.73 | 4:18.44 | 313048 | 332441
20 | 73:52.42 | 3:28.72 | 332442 | 348113


Track 1

Filename A:\PsPBuRnOuT's MUSIC\100 HITS\100 HITS - BOOGIE NIGHTS\BOOGIE NIGHTS - CD03\01.Earth, Wind & Fire - September.wav

Peak level 94.4 %
Extraction speed 14.4 X
Track quality 100.0 %
Copy CRC 93860143
Track not present in AccurateRip database
Copy OK

Track 2

Filename A:\PsPBuRnOuT's MUSIC\100 HITS\100 HITS - BOOGIE NIGHTS\BOOGIE NIGHTS - CD03\02.The Pointer Sisters - Jump (For My Love).wav

Peak level 94.4 %
Extraction speed 20.5 X
Track quality 100.0 %
Copy CRC 3C43FD9F
Track not present in AccurateRip database
Copy OK

Track 3

Filename A:\PsPBuRnOuT's MUSIC\100 HITS\100 HITS - BOOGIE NIGHTS\BOOGIE NIGHTS - CD03\03.Boney M. - Rasputin.wav

Peak level 88.1 %
Extraction speed 20.9 X
Track quality 100.0 %
Copy CRC 403B819F
Track not present in AccurateRip database
Copy OK

Track 4

Filename A:\PsPBuRnOuT's MUSIC\100 HITS\100 HITS - BOOGIE NIGHTS\BOOGIE NIGHTS - CD03\04.The Weather Girls - It's Raining Men.wav

Peak level 79.4 %
Extraction speed 20.9 X
Track quality 100.0 %
Copy CRC F4861B80
Track not present in AccurateRip database
Copy OK

Track 5

Filename A:\PsPBuRnOuT's MUSIC\100 HITS\100 HITS - BOOGIE NIGHTS\BOOGIE NIGHTS - CD03\05.The Three Degrees - The Runner.wav

Peak level 94.4 %
Extraction speed 20.4 X
Track quality 99.9 %
Copy CRC 004F5449
Track not present in AccurateRip database
Copy OK

Track 6

Filename A:\PsPBuRnOuT's MUSIC\100 HITS\100 HITS - BOOGIE NIGHTS\BOOGIE NIGHTS - CD03\06.Tina Charles - I Love To Love.wav

Peak level 94.4 %
Extraction speed 19.3 X
Track quality 100.0 %
Copy CRC 3EF26A6B
Track not present in AccurateRip database
Copy OK

Track 7

Filename A:\PsPBuRnOuT's MUSIC\100 HITS\100 HITS - BOOGIE NIGHTS\BOOGIE NIGHTS - CD03\07.Deniece Williams - I've Got The Next Dance.wav

Peak level 94.4 %
Extraction speed 26.9 X
Track quality 100.0 %
Copy CRC DA57A690
Track not present in AccurateRip database
Copy OK

Track 8

Filename A:\PsPBuRnOuT's MUSIC\100 HITS\100 HITS - BOOGIE NIGHTS\BOOGIE NIGHTS - CD03\08.Evelyn ''Champagne'' King - Love Come Down.wav

Peak level 94.4 %
Extraction speed 25.1 X
Track quality 100.0 %
Copy CRC D162C248
Track not present in AccurateRip database
Copy OK

Track 9

Filename A:\PsPBuRnOuT's MUSIC\100 HITS\100 HITS - BOOGIE NIGHTS\BOOGIE NIGHTS - CD03\09.The Tymes - You Little Trustmaker.wav

Peak level 94.4 %
Extraction speed 24.7 X
Track quality 100.0 %
Copy CRC FEE55D7A
Track not present in AccurateRip database
Copy OK

Track 10

Filename A:\PsPBuRnOuT's MUSIC\100 HITS\100 HITS - BOOGIE NIGHTS\BOOGIE NIGHTS - CD03\10.Dr. Buzzard's Original Savannah Band - Cherchez La Femme.wav

Peak level 94.4 %
Extraction speed 27.7 X
Track quality 100.0 %
Copy CRC 82763D35
Track not present in AccurateRip database
Copy OK

Track 11

Filename A:\PsPBuRnOuT's MUSIC\100 HITS\100 HITS - BOOGIE NIGHTS\BOOGIE NIGHTS - CD03\11.G.Q. - Disco Nights (Rock Freak).wav

Peak level 94.4 %
Extraction speed 25.3 X
Track quality 99.9 %
Copy CRC 2A6BDBEA
Track not present in AccurateRip database
Copy OK

Track 12

Filename A:\PsPBuRnOuT's MUSIC\100 HITS\100 HITS - BOOGIE NIGHTS\BOOGIE NIGHTS - CD03\12.Herbie Hancock - I Thought It Was You.wav

Peak level 94.4 %
Extraction speed 25.1 X
Track quality 100.0 %
Copy CRC 6455EF64
Track not present in AccurateRip database
Copy OK

Track 13

Filename A:\PsPBuRnOuT's MUSIC\100 HITS\100 HITS - BOOGIE NIGHTS\BOOGIE NIGHTS - CD03\13.Melba Moore - Pick Me Up, I'll Dance (7'' Version).wav

Peak level 94.4 %
Extraction speed 28.5 X
Track quality 100.0 %
Copy CRC F9430B6C
Track not present in AccurateRip database
Copy OK

Track 14

Filename A:\PsPBuRnOuT's MUSIC\100 HITS\100 HITS - BOOGIE NIGHTS\BOOGIE NIGHTS - CD03\14.Disco Tex & The Sex-O-Lettes - Get Dancin'.wav

Peak level 94.4 %
Extraction speed 27.7 X
Track quality 100.0 %
Copy CRC 4677F3C5
Track not present in AccurateRip database
Copy OK

Track 15

Filename A:\PsPBuRnOuT's MUSIC\100 HITS\100 HITS - BOOGIE NIGHTS\BOOGIE NIGHTS - CD03\15.Sarah Brightman - Adventures Of The Love Crusader.wav

Peak level 94.4 %
Extraction speed 31.0 X
Track quality 100.0 %
Copy CRC D4DE35D3
Track not present in AccurateRip database
Copy OK

Track 16

Filename A:\PsPBuRnOuT's MUSIC\100 HITS\100 HITS - BOOGIE NIGHTS\BOOGIE NIGHTS - CD03\16.First Choice - Smarty Pants.wav

Peak level 90.1 %
Extraction speed 28.7 X
Track quality 100.0 %
Copy CRC C956E9D4
Track not present in AccurateRip database
Copy OK

Track 17

Filename A:\PsPBuRnOuT's MUSIC\100 HITS\100 HITS - BOOGIE NIGHTS\BOOGIE NIGHTS - CD03\17.Linda Carr - High Wire.wav

Peak level 85.1 %
Extraction speed 34.1 X
Track quality 100.0 %
Copy CRC 8EF233BE
Track not present in AccurateRip database
Copy OK

Track 18

Filename A:\PsPBuRnOuT's MUSIC\100 HITS\100 HITS - BOOGIE NIGHTS\BOOGIE NIGHTS - CD03\18.Jackie Moore - This Time Baby.wav

Peak level 94.4 %
Extraction speed 32.8 X
Track quality 100.0 %
Copy CRC 9A61FD7E
Track not present in AccurateRip database
Copy OK

Track 19

Filename A:\PsPBuRnOuT's MUSIC\100 HITS\100 HITS - BOOGIE NIGHTS\BOOGIE NIGHTS - CD03\19.Heatwave - The Groove Line.wav

Peak level 94.4 %
Extraction speed 34.5 X
Track quality 100.0 %
Copy CRC B61C8414
Track not present in AccurateRip database
Copy OK

Track 20

Filename A:\PsPBuRnOuT's MUSIC\100 HITS\100 HITS - BOOGIE NIGHTS\BOOGIE NIGHTS - CD03\20.MFSB - TSOP (The Sound Of Philadelphia).wav

Peak level 85.1 %
Extraction speed 33.2 X
Track quality 100.0 %
Copy CRC 24F6A958
Track not present in AccurateRip database
Copy OK


None of the tracks are present in the AccurateRip database

No errors occurred

End of status report

–– CUETools DB Plugin V2.1.6

[CTDB TOCID: oRhaaNhFj9Isaw.XbAd_FQPMw9k-] disk not present in database
Submit result: oRhaaNhFj9Isaw.XbAd_FQPMw9k- has been uploaded



CD4:
61. Mcfadden & Whitehead - Ain't No Stoppin' Us Now 03:35
62. Frantique - Strut Your Funky Stuff 03:37
63. Kc & The Sunshine Band - Give It Up 04:12
64. Eruption - I Can't Stand The Rain 03:07
65. The Isley Brothers - It's A Disco Night (Rock Don't Stop) 04:14
66. Average White Band - Pick Up The Pieces 03:59
67. Andrea True Connection - What's Your Name, What's Your Number 03:14
68. Dan Hartman - This Is It 03:31
69. The Nolans - Gotta Pull Myself Together 02:44
70. Esther Phillips - What A Difference A Day Makes 03:12
71. Johnny Mathis - Gone Gone Gone 03:36
72. Odyssey - Use It Up And Wear It Out 04:11
73. The Dooleys - Think I'm Gonna Fall In Love With You 03:04
74. Jim Gilstrap - Swing Your Daddy 02:53
75. John Davis & Monster Orchestra - Ain't That Enough For You 04:22
76. Dee Clarke - Ride A Wild Horse 02:42
77. The S.O.S. Band - Do It Now (Pt. 1) 03:21
78. Leo Sayer - Thunder In My Heart 03:35
79. Harold Melvin & The Blue Notes - The Love I Lost 03:41
80. Aretha Franklin - What A Fool Believes 03:46

Exact Audio Copy V1.3 from 2. September 2016

EAC extraction logfile from 11. August 2017, 17:31

Various / 100 Hits - Boogie Nights - CD4

Used drive : ATAPI iHAS124 Y Adapter: 1 ID: 0

Read mode : Secure
Utilize accurate stream : Yes
Defeat audio cache : No
Make use of C2 pointers : Yes

Read offset correction : 48
Overread into Lead-In and Lead-Out : No
Fill up missing offset samples with silence : Yes
Delete leading and trailing silent blocks : No
Null samples used in CRC calculations : Yes
Used interface : Native Win32 interface for Win NT & 2000
Gap handling : Not detected, thus appended to previous track

Used output format : User Defined Encoder
Selected bitrate : 896 kBit/s
Quality : High
Add ID3 tag : No
Command line compressor : C:\Program Files (x86)\Exact Audio Copy\FLAC\FLAC.EXE
Additional command line options : -6 -V -T "ARTIST=%artist%" -T "TITLE=%title%" -T "ALBUM=%albumtitle%" -T "DATE=%year%" -T "TRACKNUMBER=%tracknr%" -T "GENRE=%genre%" -T "COMMENT=%comment%" -T "BAND=%albuminterpret%" -T "ALBUMARTIST=%albuminterpret%" -T "COMPOSER=%composer%" %haslyrics%–tag-from-file=LYRICS="%lyricsfile%"%haslyrics% -T "DISCNUMBER=%cdnumber%" -T "TOTALDISCS=%totalcds%" -T "TOTALTRACKS=%numtracks%" %hascover%–picture="%coverfile%"%hascover% %source% -o %dest%


TOC of the extracted CD

Track | Start | Length | Start sector | End sector
––––––––––––––––––––––––––––-
1 | 0:00.00 | 3:35.29 | 0 | 16153
2 | 3:35.29 | 3:37.32 | 16154 | 32460
3 | 7:12.61 | 4:12.55 | 32461 | 51415
4 | 11:25.41 | 3:07.69 | 51416 | 65509
5 | 14:33.35 | 4:14.61 | 65510 | 84620
6 | 18:48.21 | 3:59.38 | 84621 | 102583
7 | 22:47.59 | 3:14.29 | 102584 | 117162
8 | 26:02.13 | 3:31.31 | 117163 | 133018
9 | 29:33.44 | 2:43.74 | 133019 | 145317
10 | 32:17.43 | 3:12.04 | 145318 | 159721
11 | 35:29.47 | 3:36.11 | 159722 | 175932
12 | 39:05.58 | 4:11.41 | 175933 | 194798
13 | 43:17.24 | 3:04.00 | 194799 | 208598
14 | 46:21.24 | 2:53.07 | 208599 | 221580
15 | 49:14.31 | 4:22.64 | 221581 | 241294
16 | 53:37.20 | 2:42.66 | 241295 | 253510
17 | 56:20.11 | 3:21.12 | 253511 | 268597
18 | 59:41.23 | 3:35.22 | 268598 | 284744
19 | 63:16.45 | 3:41.22 | 284745 | 301341
20 | 66:57.67 | 3:46.34 | 301342 | 318325


Track 1

Filename A:\PsPBuRnOuT's MUSIC\100 HITS\100 HITS - BOOGIE NIGHTS\BOOGIE NIGHTS - CD04\01.McFadden & Whitehead - Ain't No Stoppin' Us Now.wav

Peak level 94.4 %
Extraction speed 13.2 X
Track quality 100.0 %
Copy CRC EB3F271B
Track not present in AccurateRip database
Copy OK

Track 2

Filename A:\PsPBuRnOuT's MUSIC\100 HITS\100 HITS - BOOGIE NIGHTS\BOOGIE NIGHTS - CD04\02.Frantique - Strut Your Funky Stuff.wav

Peak level 81.6 %
Extraction speed 19.1 X
Track quality 100.0 %
Copy CRC CE05BA70
Track not present in AccurateRip database
Copy OK

Track 3

Filename A:\PsPBuRnOuT's MUSIC\100 HITS\100 HITS - BOOGIE NIGHTS\BOOGIE NIGHTS - CD04\03.KC & The Sunshine Band - Give It Up.wav

Peak level 100.0 %
Extraction speed 20.9 X
Track quality 100.0 %
Copy CRC 9F1B7B7E
Track not present in AccurateRip database
Copy OK

Track 4

Filename A:\PsPBuRnOuT's MUSIC\100 HITS\100 HITS - BOOGIE NIGHTS\BOOGIE NIGHTS - CD04\04.Eruption - I Can't Stand The Rain.wav

Peak level 79.0 %
Extraction speed 21.4 X
Track quality 100.0 %
Copy CRC BFE0376E
Track not present in AccurateRip database
Copy OK

Track 5

Filename A:\PsPBuRnOuT's MUSIC\100 HITS\100 HITS - BOOGIE NIGHTS\BOOGIE NIGHTS - CD04\05.The Isley Brothers - It's A Disco Night (Rock Don't Stop).wav

Peak level 94.4 %
Extraction speed 22.7 X
Track quality 100.0 %
Copy CRC B7A79368
Track not present in AccurateRip database
Copy OK

Track 6

Filename A:\PsPBuRnOuT's MUSIC\100 HITS\100 HITS - BOOGIE NIGHTS\BOOGIE NIGHTS - CD04\06.Average White Band - Pick Up The Pieces.wav

Peak level 91.2 %
Extraction speed 24.1 X
Track quality 100.0 %
Copy CRC 50DCB77F
Track not present in AccurateRip database
Copy OK

Track 7

Filename A:\PsPBuRnOuT's MUSIC\100 HITS\100 HITS - BOOGIE NIGHTS\BOOGIE NIGHTS - CD04\07.Andrea True Connection - What's Your Name, What's Your Number.wav

Peak level 85.1 %
Extraction speed 21.1 X
Track quality 99.8 %
Copy CRC EB197FC4
Track not present in AccurateRip database
Copy OK

Track 8

Filename A:\PsPBuRnOuT's MUSIC\100 HITS\100 HITS - BOOGIE NIGHTS\BOOGIE NIGHTS - CD04\08.Dan Hartman - This Is It.wav

Peak level 94.4 %
Extraction speed 20.7 X
Track quality 100.0 %
Copy CRC 1FD13AFA
Track not present in AccurateRip database
Copy OK

Track 9

Filename A:\PsPBuRnOuT's MUSIC\100 HITS\100 HITS - BOOGIE NIGHTS\BOOGIE NIGHTS - CD04\09.The Nolans - Gotta Pull Myself Together.wav

Peak level 94.4 %
Extraction speed 26.2 X
Track quality 100.0 %
Copy CRC E00EFE50
Track not present in AccurateRip database
Copy OK

Track 10

Filename A:\PsPBuRnOuT's MUSIC\100 HITS\100 HITS - BOOGIE NIGHTS\BOOGIE NIGHTS - CD04\10.Esther Phillips - What A Difference A Day Makes.wav

Peak level 91.2 %
Extraction speed 27.5 X
Track quality 100.0 %
Copy CRC 289D53E1
Track not present in AccurateRip database
Copy OK

Track 11

Filename A:\PsPBuRnOuT's MUSIC\100 HITS\100 HITS - BOOGIE NIGHTS\BOOGIE NIGHTS - CD04\11.Johnny Mathis - Gone Gone Gone.wav

Peak level 94.4 %
Extraction speed 30.0 X
Track quality 100.0 %
Copy CRC F2352CE7
Track not present in AccurateRip database
Copy OK

Track 12

Filename A:\PsPBuRnOuT's MUSIC\100 HITS\100 HITS - BOOGIE NIGHTS\BOOGIE NIGHTS - CD04\12.Odyssey - Use It Up And Wear It Out.wav

Peak level 94.4 %
Extraction speed 31.0 X
Track quality 100.0 %
Copy CRC BC3E8D99
Track not present in AccurateRip database
Copy OK

Track 13

Filename A:\PsPBuRnOuT's MUSIC\100 HITS\100 HITS - BOOGIE NIGHTS\BOOGIE NIGHTS - CD04\13.The Dooleys - Think I'm Gonna Fall In Love With You.wav

Peak level 94.4 %
Extraction speed 31.8 X
Track quality 100.0 %
Copy CRC 94ECCF2C
Track not present in AccurateRip database
Copy OK

Track 14

Filename A:\PsPBuRnOuT's MUSIC\100 HITS\100 HITS - BOOGIE NIGHTS\BOOGIE NIGHTS - CD04\14.Jim Gilstrap - Swing Your Daddy.wav

Peak level 94.4 %
Extraction speed 32.9 X
Track quality 100.0 %
Copy CRC 8A1A70D2
Track not present in AccurateRip database
Copy OK

Track 15

Filename A:\PsPBuRnOuT's MUSIC\100 HITS\100 HITS - BOOGIE NIGHTS\BOOGIE NIGHTS - CD04\15.John Davis & Monster Orchestra - Ain't That Enough For You.wav

Peak level 94.4 %
Extraction speed 31.9 X
Track quality 100.0 %
Copy CRC 0BA1228C
Track not present in AccurateRip database
Copy OK

Track 16

Filename A:\PsPBuRnOuT's MUSIC\100 HITS\100 HITS - BOOGIE NIGHTS\BOOGIE NIGHTS - CD04\16.Dee Clarke - Ride A Wild Horse.wav

Peak level 94.4 %
Extraction speed 34.9 X
Track quality 100.0 %
Copy CRC 4578A3F6
Track not present in AccurateRip database
Copy OK

Track 17

Filename A:\PsPBuRnOuT's MUSIC\100 HITS\100 HITS - BOOGIE NIGHTS\BOOGIE NIGHTS - CD04\17.The S.O.S. Band - Do It Now (Pt. 1).wav

Peak level 85.7 %
Extraction speed 34.6 X
Track quality 100.0 %
Copy CRC 9CC57CA6
Track not present in AccurateRip database
Copy OK

Track 18

Filename A:\PsPBuRnOuT's MUSIC\100 HITS\100 HITS - BOOGIE NIGHTS\BOOGIE NIGHTS - CD04\18.Leo Sayer - Thunder In My Heart.wav

Peak level 89.8 %
Extraction speed 31.6 X
Track quality 100.0 %
Copy CRC 2A833A2E
Track not present in AccurateRip database
Copy OK

Track 19

Filename A:\PsPBuRnOuT's MUSIC\100 HITS\100 HITS - BOOGIE NIGHTS\BOOGIE NIGHTS - CD04\19.Harold Melvin & The Blue Notes - The Love I Lost.wav

Peak level 94.4 %
Extraction speed 34.6 X
Track quality 100.0 %
Copy CRC 03693B05
Track not present in AccurateRip database
Copy OK

Track 20

Filename A:\PsPBuRnOuT's MUSIC\100 HITS\100 HITS - BOOGIE NIGHTS\BOOGIE NIGHTS - CD04\20.Aretha Franklin - What A Fool Believes.wav

Peak level 91.2 %
Extraction speed 36.0 X
Track quality 100.0 %
Copy CRC E74D7E83
Track not present in AccurateRip database
Copy OK


None of the tracks are present in the AccurateRip database

No errors occurred

End of status report

–– CUETools DB Plugin V2.1.6

[CTDB TOCID: yTEHbyaMaOuoVzfEpmFkj2XXjUw-] disk not present in database
Submit result: yTEHbyaMaOuoVzfEpmFkj2XXjUw- has been uploaded



CD5:
81. The O'jays - Love Train 02:57
82. Sly & The Family Stone - Dance To The Music 02:59
83. The Jacksons - Shake Your Body (Down To The Ground) 03:46
84. The Three Degrees - Givin' Up Givin' In 03:52
85. The Emotions - Best Of My Love 03:40
86. Deniece Williams - Let's Hear It For The Boy 04:22
87. Billy Ocean - Love Really Hurts Without You 03:00
88. The Pointer Sisters - I'm So Excited 03:54
89. Baccara - Perlez-Vous Francais? 04:23
90. Jackie Moore - How's Your Love Life Baby 04:02
91. Disco Tex & His Sex-O-Lettes - I Wanna Dance Wit' Choo (Doo Dat Dance) 05:03
92. Cheryl Lynn - Shake It Up Tonight 04:00
93. Evelyn ''Champagne'' King - Shame 02:58
94. Rodney Franklin - The Groove 03:12
95. The Jones Girls - Nights Over Egypt 03:42
96. Herbie Hancock - You Bet Your Love 03:59
97. The Tymes - Ms. Grace 03:26
98. Co-Co - Bad Old Days 02:37
99. The Drifters - You're More Than A Number In My Little Red Book 03:17
100. Gladys Knight & The Pips - Baby Don't Change Your Mind 03:14

Exact Audio Copy V1.3 from 2. September 2016

EAC extraction logfile from 11. August 2017, 18:14

Various / 100 Hits - Boogie Nights - CD5

Used drive : ATAPI iHAS124 Y Adapter: 1 ID: 0

Read mode : Secure
Utilize accurate stream : Yes
Defeat audio cache : No
Make use of C2 pointers : Yes

Read offset correction : 48
Overread into Lead-In and Lead-Out : No
Fill up missing offset samples with silence : Yes
Delete leading and trailing silent blocks : No
Null samples used in CRC calculations : Yes
Used interface : Native Win32 interface for Win NT & 2000
Gap handling : Not detected, thus appended to previous track

Used output format : User Defined Encoder
Selected bitrate : 896 kBit/s
Quality : High
Add ID3 tag : No
Command line compressor : C:\Program Files (x86)\Exact Audio Copy\FLAC\FLAC.EXE
Additional command line options : -6 -V -T "ARTIST=%artist%" -T "TITLE=%title%" -T "ALBUM=%albumtitle%" -T "DATE=%year%" -T "TRACKNUMBER=%tracknr%" -T "GENRE=%genre%" -T "COMMENT=%comment%" -T "BAND=%albuminterpret%" -T "ALBUMARTIST=%albuminterpret%" -T "COMPOSER=%composer%" %haslyrics%–tag-from-file=LYRICS="%lyricsfile%"%haslyrics% -T "DISCNUMBER=%cdnumber%" -T "TOTALDISCS=%totalcds%" -T "TOTALTRACKS=%numtracks%" %hascover%–picture="%coverfile%"%hascover% %source% -o %dest%


TOC of the extracted CD

Track | Start | Length | Start sector | End sector
––––––––––––––––––––––––––––-
1 | 0:00.00 | 2:57.64 | 0 | 13338
2 | 2:57.64 | 2:59.36 | 13339 | 26799
3 | 5:57.25 | 3:46.05 | 26800 | 43754
4 | 9:43.30 | 3:52.66 | 43755 | 61220
5 | 13:36.21 | 3:40.16 | 61221 | 77736
6 | 17:16.37 | 4:21.73 | 77737 | 97384
7 | 21:38.35 | 3:00.05 | 97385 | 110889
8 | 24:38.40 | 3:54.06 | 110890 | 128445
9 | 28:32.46 | 4:23.43 | 128446 | 148213
10 | 32:56.14 | 4:02.19 | 148214 | 166382
11 | 36:58.33 | 5:03.40 | 166383 | 189147
12 | 42:01.73 | 4:00.43 | 189148 | 207190
13 | 46:02.41 | 2:58.38 | 207191 | 220578
14 | 49:01.04 | 3:12.68 | 220579 | 235046
15 | 52:13.72 | 3:42.00 | 235047 | 251696
16 | 55:55.72 | 3:59.08 | 251697 | 269629
17 | 59:55.05 | 3:26.12 | 269630 | 285091
18 | 63:21.17 | 2:37.19 | 285092 | 296885
19 | 65:58.36 | 3:17.00 | 296886 | 311660
20 | 69:15.36 | 3:14.27 | 311661 | 326237


Track 1

Filename A:\PsPBuRnOuT's MUSIC\100 HITS\100 HITS - BOOGIE NIGHTS\BOOGIE NIGHTS - CD05\01.The O’Jays - Love Train.wav

Peak level 79.3 %
Extraction speed 12.7 X
Track quality 100.0 %
Copy CRC F58EDCA8
Track not present in AccurateRip database
Copy OK

Track 2

Filename A:\PsPBuRnOuT's MUSIC\100 HITS\100 HITS - BOOGIE NIGHTS\BOOGIE NIGHTS - CD05\02.Sly & The Family Stone - Dance To The Music.wav

Peak level 94.4 %
Extraction speed 19.4 X
Track quality 100.0 %
Copy CRC 946851D1
Track not present in AccurateRip database
Copy OK

Track 3

Filename A:\PsPBuRnOuT's MUSIC\100 HITS\100 HITS - BOOGIE NIGHTS\BOOGIE NIGHTS - CD05\03.The Jacksons - Shake Your Body (Down To The Ground).wav

Peak level 75.0 %
Extraction speed 20.8 X
Track quality 100.0 %
Copy CRC D5F6249E
Track not present in AccurateRip database
Copy OK

Track 4

Filename A:\PsPBuRnOuT's MUSIC\100 HITS\100 HITS - BOOGIE NIGHTS\BOOGIE NIGHTS - CD05\04.The Three Degrees - Givin' Up Givin' In.wav

Peak level 94.4 %
Extraction speed 21.2 X
Track quality 100.0 %
Copy CRC 133B41A3
Track not present in AccurateRip database
Copy OK

Track 5

Filename A:\PsPBuRnOuT's MUSIC\100 HITS\100 HITS - BOOGIE NIGHTS\BOOGIE NIGHTS - CD05\05.The Emotions - Best Of My Love.wav

Peak level 94.4 %
Extraction speed 19.8 X
Track quality 99.9 %
Copy CRC 29EA36AB
Track not present in AccurateRip database
Copy OK

Track 6

Filename A:\PsPBuRnOuT's MUSIC\100 HITS\100 HITS - BOOGIE NIGHTS\BOOGIE NIGHTS - CD05\06.Deniece Williams - Let's Hear It For The Boy.wav

Peak level 94.4 %
Extraction speed 20.0 X
Track quality 100.0 %
Copy CRC FF6B287A
Track not present in AccurateRip database
Copy OK

Track 7

Filename A:\PsPBuRnOuT's MUSIC\100 HITS\100 HITS - BOOGIE NIGHTS\BOOGIE NIGHTS - CD05\07.Billy Ocean - Love Really Hurts Without You.wav

Peak level 66.2 %
Extraction speed 26.4 X
Track quality 100.0 %
Copy CRC 253F3664
Track not present in AccurateRip database
Copy OK

Track 8

Filename A:\PsPBuRnOuT's MUSIC\100 HITS\100 HITS - BOOGIE NIGHTS\BOOGIE NIGHTS - CD05\08.The Pointer Sisters - I'm So Excited.wav

Peak level 94.4 %
Extraction speed 26.2 X
Track quality 100.0 %
Copy CRC 18C09E44
Track not present in AccurateRip database
Copy OK

Track 9

Filename A:\PsPBuRnOuT's MUSIC\100 HITS\100 HITS - BOOGIE NIGHTS\BOOGIE NIGHTS - CD05\09.Baccara - Perlez-Vous Francais.wav

Peak level 94.4 %
Extraction speed 28.6 X
Track quality 100.0 %
Copy CRC 3631BBBB
Track not present in AccurateRip database
Copy OK

Track 10

Filename A:\PsPBuRnOuT's MUSIC\100 HITS\100 HITS - BOOGIE NIGHTS\BOOGIE NIGHTS - CD05\10.Jackie Moore - How's Your Love Life Baby.wav

Peak level 94.4 %
Extraction speed 29.7 X
Track quality 100.0 %
Copy CRC AF58F1A2
Track not present in AccurateRip database
Copy OK

Track 11

Filename A:\PsPBuRnOuT's MUSIC\100 HITS\100 HITS - BOOGIE NIGHTS\BOOGIE NIGHTS - CD05\11.Disco Tex & His Sex-O-Lettes - I Wanna Dance Wit' Choo (Doo Dat Dance).wav

Peak level 87.1 %
Extraction speed 29.9 X
Track quality 100.0 %
Copy CRC F890A487
Track not present in AccurateRip database
Copy OK

Track 12

Filename A:\PsPBuRnOuT's MUSIC\100 HITS\100 HITS - BOOGIE NIGHTS\BOOGIE NIGHTS - CD05\12.Cheryl Lynn - Shake It Up Tonight.wav

Peak level 94.4 %
Extraction speed 26.3 X
Track quality 99.9 %
Copy CRC F2CF28ED
Track not present in AccurateRip database
Copy OK

Track 13

Filename A:\PsPBuRnOuT's MUSIC\100 HITS\100 HITS - BOOGIE NIGHTS\BOOGIE NIGHTS - CD05\13.Evelyn ''Champagne'' King - Shame.wav

Peak level 85.1 %
Extraction speed 22.2 X
Track quality 100.0 %
Copy CRC 2F1F27D7
Track not present in AccurateRip database
Copy OK

Track 14

Filename A:\PsPBuRnOuT's MUSIC\100 HITS\100 HITS - BOOGIE NIGHTS\BOOGIE NIGHTS - CD05\14.Rodney Franklin - The Groove.wav

Peak level 94.4 %
Extraction speed 34.0 X
Track quality 100.0 %
Copy CRC D2EB7BE8
Track not present in AccurateRip database
Copy OK

Track 15

Filename A:\PsPBuRnOuT's MUSIC\100 HITS\100 HITS - BOOGIE NIGHTS\BOOGIE NIGHTS - CD05\15.The Jones Girls - Nights Over Egypt.wav

Peak level 94.4 %
Extraction speed 33.0 X
Track quality 100.0 %
Copy CRC B98E73AD
Track not present in AccurateRip database
Copy OK

Track 16

Filename A:\PsPBuRnOuT's MUSIC\100 HITS\100 HITS - BOOGIE NIGHTS\BOOGIE NIGHTS - CD05\16.Herbie Hancock - You Bet Your Love.wav

Peak level 94.4 %
Extraction speed 34.0 X
Track quality 100.0 %
Copy CRC A9E0B888
Track not present in AccurateRip database
Copy OK

Track 17

Filename A:\PsPBuRnOuT's MUSIC\100 HITS\100 HITS - BOOGIE NIGHTS\BOOGIE NIGHTS - CD05\17.The Tymes - Ms. Grace.wav

Peak level 77.6 %
Extraction speed 28.3 X
Track quality 99.8 %
Copy CRC 362F35CB
Track not present in AccurateRip database
Copy OK

Track 18

Filename A:\PsPBuRnOuT's MUSIC\100 HITS\100 HITS - BOOGIE NIGHTS\BOOGIE NIGHTS - CD05\18.Co-Co - Bad Old Days.wav

Peak level 86.7 %
Extraction speed 25.5 X
Track quality 100.0 %
Copy CRC F514A508
Track not present in AccurateRip database
Copy OK

Track 19

Filename A:\PsPBuRnOuT's MUSIC\100 HITS\100 HITS - BOOGIE NIGHTS\BOOGIE NIGHTS - CD05\19.The Drifters - You're More Than A Number In My Little Red Book.wav

Peak level 94.4 %
Extraction speed 37.8 X
Track quality 100.0 %
Copy CRC A47A13CD
Track not present in AccurateRip database
Copy OK

Track 20

Filename A:\PsPBuRnOuT's MUSIC\100 HITS\100 HITS - BOOGIE NIGHTS\BOOGIE NIGHTS - CD05\20.Gladys Knight & The Pips - Baby Don't Change Your Mind.wav

Peak level 94.4 %
Extraction speed 36.2 X
Track quality 100.0 %
Copy CRC A2C2E7F6
Track not present in AccurateRip database
Copy OK


None of the tracks are present in the AccurateRip database

No errors occurred

End of status report

–– CUETools DB Plugin V2.1.6

[CTDB TOCID: 33T_OFnj2WoI.ed15EvX4cQ.fVI-] disk not present in database
Submit result: 33T_OFnj2WoI.ed15EvX4cQ.fVI- has been uploaded