Subcategories

VA - Deadpool 2 - Original Motion Picture Soundtrack (2018)

Posted By: aasana
VA - Deadpool 2 - Original Motion Picture Soundtrack (2018)

Various Artists - Deadpool 2 - Original Motion Picture Soundtrack (2018)
EAC Rip | FLAC (tracks+.cue+.log+.m3u) & Scans | 43:58 min | 295 MB
Soundtrack | Label: Columbia

Deadpool 2: Original Motion Picture Soundtrack is the compilation of music featured in the Twentieth Century Fox Film Deadpool 2. This 12 track collection features many recognizable hit songs featured in the film, and original songs "Ashes" by Céline Dion and "Welcome To The Party" by Diplo, French Montana, Lil Pump and Zhavia Ward. The new Céline Dion track "Ashes" is also accompanied by an official video, helmed by the film's director David Leitch. The video features Deadpool himself and was filmed in The Colosseum at Caesars Palace, the very venue where Céline hosts her Las Vegas residency shows. About the movie Deadpool 2 - After surviving a near fatal bovine attack, a disfigured cafeteria chef (Wade Wilson) struggles to fulfill his dream of becoming Miami's hottest bartender, while also learning to cope with his lost sense of taste. Searching to regain his spice for life, as well as a flux capacitor, Wade must battle ninjas, the yakuza, and a pack of sexually aggressive canines, as he journeys around the world to discover the importance of family, friendship, and flavor - finding a new taste for adventure and earning the coveted coffee mug title of World's Best Lover. This movie is the follow up to 2016's film Deadpool, a worldwide blockbuster based on the Marvel Comics character of the same name.

Tracklist:
01. Céline Dion - Ashes
02. Diplo - Welcome to the Party (Featuring French Montana, Lil Pump and Zhavia Ward)
03. DJ Shadow - Nobody Speak (Featuring Run the Jewels)
04. Peter Gabriel - In Your Eyes
05. a-ha - Take On Me (MTV Unplugged - Summer Solstice)
06. Cher - If I Could Turn Back Time
07. Dolly Parton - 9 To 5
08. Air Supply - All Out of Love
09. Pat Benatar - We Belong
10. Alicia Morton - Tomorrow
11. Tyler Bates - Mutant Convoy
12. Skrillex - Bangarang (Featuring Sirah)

Exact Audio Copy V1.3 from 2. September 2016

EAC extraction logfile from 18. May 2018, 15:29

Various / Deadpool 2 - Original Motion Picture Soundtrack

Used drive : TSSTcorpDVDWBD SH-B123L Adapter: 1 ID: 0

Read mode : Secure
Utilize accurate stream : Yes
Defeat audio cache : Yes
Make use of C2 pointers : No

Read offset correction : 6
Overread into Lead-In and Lead-Out : No
Fill up missing offset samples with silence : Yes
Delete leading and trailing silent blocks : No
Null samples used in CRC calculations : Yes
Used interface : Native Win32 interface for Win NT & 2000
Gap handling : Appended to previous track

Used output format : User Defined Encoder
Selected bitrate : 128 kBit/s
Quality : High
Add ID3 tag : No
Command line compressor : C:\Program Files (x86)\Exact Audio Copy\Flac\flac.exe
Additional command line options : -8 -V -T "ARTIST=%artist%" -T "TITLE=%title%" -T "ALBUM=%albumtitle%" -T "DATE=%year%" -T "TRACKNUMBER=%tracknr%" -T "GENRE=%genre%" -T "PERFORMER=%albuminterpret%" -T "COMPOSER=%composer%" %haslyrics%–tag-from-file=LYRICS="%lyricsfile%"%haslyrics% -T "ALBUMARTIST=%albumartist%" -T "DISCNUMBER=%cdnumber%" -T "TOTALDISCS=%totalcds%" -T "TOTALTRACKS=%numtracks%" -T "COMMENT=%comment%" %source% -o %dest%


TOC of the extracted CD

Track | Start | Length | Start sector | End sector
––––––––––––––––––––––––––––-
1 | 0:00.00 | 3:19.38 | 0 | 14962
2 | 3:19.38 | 3:01.54 | 14963 | 28591
3 | 6:21.17 | 3:16.30 | 28592 | 43321
4 | 9:37.47 | 5:29.01 | 43322 | 67997
5 | 15:06.48 | 4:14.09 | 67998 | 87056
6 | 19:20.57 | 4:01.44 | 87057 | 105175
7 | 23:22.26 | 2:45.32 | 105176 | 117582
8 | 26:07.58 | 4:03.40 | 117583 | 135847
9 | 30:11.23 | 3:42.24 | 135848 | 152521
10 | 33:53.47 | 2:30.72 | 152522 | 163843
11 | 36:24.44 | 3:59.04 | 163844 | 181772
12 | 40:23.48 | 3:35.00 | 181773 | 197897


Track 1

Filename C:\Music\Various Artists\VA - Deadpool 2 SDTK [2018 - 19075853472]\01 - Céline Dion - Ashes.wav

Pre-gap length 0:00:02.00

Peak level 99.9 %
Extraction speed 1.4 X
Track quality 99.9 %
Test CRC 1C38A9DD
Copy CRC 1C38A9DD
Track not present in AccurateRip database
Copy OK

Track 2

Filename C:\Music\Various Artists\VA - Deadpool 2 SDTK [2018 - 19075853472]\02 - Diplo - Welcome to the Party (Featuring French Montana, Lil Pump and Zhavia Ward).wav

Peak level 100.0 %
Extraction speed 2.0 X
Track quality 100.0 %
Test CRC 45BF3011
Copy CRC 45BF3011
Track not present in AccurateRip database
Copy OK

Track 3

Filename C:\Music\Various Artists\VA - Deadpool 2 SDTK [2018 - 19075853472]\03 - DJ Shadow - Nobody Speak (Featuring Run the Jewels).wav

Peak level 100.0 %
Extraction speed 2.0 X
Track quality 100.0 %
Test CRC F6F6E2DB
Copy CRC F6F6E2DB
Track not present in AccurateRip database
Copy OK

Track 4

Filename C:\Music\Various Artists\VA - Deadpool 2 SDTK [2018 - 19075853472]\04 - Peter Gabriel - In Your Eyes.wav

Peak level 99.9 %
Extraction speed 1.6 X
Track quality 99.9 %
Test CRC 564F6168
Copy CRC 564F6168
Track not present in AccurateRip database
Copy OK

Track 5

Filename C:\Music\Various Artists\VA - Deadpool 2 SDTK [2018 - 19075853472]\05 - a-ha - Take On Me (MTV Unplugged - Summer Solstice).wav

Peak level 92.1 %
Extraction speed 2.1 X
Track quality 100.0 %
Test CRC 4E99020E
Copy CRC 4E99020E
Track not present in AccurateRip database
Copy OK

Track 6

Filename C:\Music\Various Artists\VA - Deadpool 2 SDTK [2018 - 19075853472]\06 - Cher - If I Could Turn Back Time.wav

Peak level 100.0 %
Extraction speed 2.0 X
Track quality 100.0 %
Test CRC F916316F
Copy CRC F916316F
Track not present in AccurateRip database
Copy OK

Track 7

Filename C:\Music\Various Artists\VA - Deadpool 2 SDTK [2018 - 19075853472]\07 - Dolly Parton - 9 To 5.wav

Peak level 100.0 %
Extraction speed 1.9 X
Track quality 100.0 %
Test CRC 3A821D47
Copy CRC 3A821D47
Track not present in AccurateRip database
Copy OK

Track 8

Filename C:\Music\Various Artists\VA - Deadpool 2 SDTK [2018 - 19075853472]\08 - Air Supply - All Out of Love.wav

Peak level 100.0 %
Extraction speed 2.0 X
Track quality 100.0 %
Test CRC 3696E3F6
Copy CRC 3696E3F6
Track not present in AccurateRip database
Copy OK

Track 9

Filename C:\Music\Various Artists\VA - Deadpool 2 SDTK [2018 - 19075853472]\09 - Pat Benatar - We Belong.wav

Peak level 100.0 %
Extraction speed 2.0 X
Track quality 100.0 %
Test CRC 504A0AA4
Copy CRC 504A0AA4
Track not present in AccurateRip database
Copy OK

Track 10

Filename C:\Music\Various Artists\VA - Deadpool 2 SDTK [2018 - 19075853472]\10 - Alicia Morton - Tomorrow.wav

Peak level 100.0 %
Extraction speed 1.9 X
Track quality 100.0 %
Test CRC DC07E230
Copy CRC DC07E230
Track not present in AccurateRip database
Copy OK

Track 11

Filename C:\Music\Various Artists\VA - Deadpool 2 SDTK [2018 - 19075853472]\11 - Tyler Bates - Mutant Convoy.wav

Peak level 100.0 %
Extraction speed 1.5 X
Track quality 99.9 %
Test CRC 68A80510
Copy CRC 68A80510
Track not present in AccurateRip database
Copy OK

Track 12

Filename C:\Music\Various Artists\VA - Deadpool 2 SDTK [2018 - 19075853472]\12 - Skrillex - Bangarang (Featuring Sirah).wav

Peak level 79.4 %
Extraction speed 2.0 X
Track quality 100.0 %
Test CRC F2D01872
Copy CRC F2D01872
Track not present in AccurateRip database
Copy OK


None of the tracks are present in the AccurateRip database

No errors occurred

End of status report

–– CUETools DB Plugin V2.1.6

[CTDB TOCID: D6NjKaFHj0QVvYj_YbIBPcjQdcw-] found
Submit result: D6NjKaFHj0QVvYj_YbIBPcjQdcw- has been confirmed
Track | CTDB Status
1 | (3/3) Accurately ripped
2 | (3/3) Accurately ripped
3 | (3/3) Accurately ripped
4 | (3/3) Accurately ripped
5 | (3/3) Accurately ripped
6 | (3/3) Accurately ripped
7 | (3/3) Accurately ripped
8 | (3/3) Accurately ripped
9 | (3/3) Accurately ripped
10 | (3/3) Accurately ripped
11 | (3/3) Accurately ripped
12 | (3/3) Accurately ripped


==== Log checksum 32272AD128A5309A9A009D6AF1A5F55711687FE3CA6F7C583901625BAB62F153 ====