Subcategories

VA - Stephen King Soundtrack Collection (8CD Box Set) (2017)

Posted By: Domestos
VA - Stephen King Soundtrack Collection (8CD Box Set) (2017)

VA - Stephen King Soundtrack Collection (8CD Box Set) (2017)
EAC Rip | FLAC (tracks+.cue, log) ~ 1,70 Gb + 1,55 Gb (Scans) | 06:18:26
Score | Label: Varese Sarabande - VLE-9210

Varese Sarabande has announced the full details of the Stephen King Soundtrack Collection. The 8-CD set features 2-CD deluxe editions for the 2003 horror thriller Dreamcatcher directed by Lawrence Kasdan featuring the film’s expanded score composed by James Newton Howard (The Hunger Games, Maleficent, King Kong, Fantastic Beasts and Where to Find Them) and the post-apocalyptic mini-series The Stand starring Gary Sinise, Rob Lowe, Molly Ringwald, Ray Walston, Ruby Dee & Ossie Davis featuring the show’s expanded score by W. G. Snuffy Walden (The West Wing, Friday Night Lights) who received an Emmy nomination for his score. Also included is a reissue of the soundtrack album for 1984’s Firestarter starring Drew Barrymore featuring original music by Tangerine Dream (Legend, Risky Business), as well as the first-ever commercial release of the score for the 1997 mini-series The Shining on three discs featuring music by Nicholas Pike (Return to Me, Captain Ron). Visit the label’s official website to order the box set, which is limited to 1500 copies.

James Newton Howard, Nicholas Pike, Tangerine Dream, W.G. Snuffy Walden
Dreamcatcher (2003), Firestarter (1984), The Shining (1997), The Stand (1994)


CD 1 Dreamcatcher: The Deluxe Edition disc one (James Newton Howard) (49:55)
1. Main Titles (02:47)
2. Finding The Keys / Be Careful (02:15)
3. Accident / To The Cabin (02:03)
4. Gathering Wood / Remembering Duddits (01:01)
5. Memory Warehouse (00:35)
6. Toasting Duddit (00:53)
7. Saving Duddits (02:56)
8. Finding Rick (01:50)
9. Animal Exodus (03:43)
10. The Bathroom / What Is It? (03:55)
11. Weasel Kills Beaver (05:43)
12. Military Moves In (01:06)
13. Scout's Honor (02:43)
14. Becky Bleeds (01:14)
15. Weasel Attacks Pete (03:32)
16. Jonesy And Gray Debate (05:00)
17. Henry Returns To The Cabin (04:20)
18. Boys Find Josie (04:19)
Music Composed by James Newton Howard

CD 2 Dreamcatcher: The Deluxe Edition disc two (James Newton Howard) (46:07)
1. I'm That Monster (03:50)
2. Gray Kills Pete / Trucker (02:37)
3. Jonesy Gets Files (02:10)
4. Soldiers Find Henry (02:27)
5. Reading Curtis' Mind (00:45)
6. Henry Tells Owen (02:49)
7. Owen Rescues Henry (01:08)
8. Jonesy Calls Henry (02:06)
9. Picking Up Duddits (02:54)
10. Killing Trooper (01:06)
11. Duddits Tells Story (03:27)
12. Curtis Takes Chopper (03:18)
13. Curtis And Owen Battle (02:55)
14. Owen Dead (02:06)
15. Mr. Gray Go Away (03:35)
16. Duddits and Mr. Gray (02:40)
17. It's Over (00:37)
18. End Credits (05:37)
Music Composed by James Newton Howard

CD 3 Firestarter (Tangerine Dream) (42:33)
1. Crystal Voice (03:13)
2. The Run (04:53)
3. Testlab (04:04)
4. Charly The Kid (03:58)
5. Escaping Point (05:13)
6. Rainbirds Move (02:36)
7. Burning Force (04:24)
8. Between Realities (03:01)
9. Shop Territory (03:19)
10. Flash Final (05:19)
11. Out Of The Heat (02:33)
Music Composed and Performed by Tangerine Dream

CD 4 Stephen King’s The Shining disc one (Nicholas Pike) (44:08)
1. Main Titles – Night #1 (01:55)
2. Flashback (01:23)
3. Hello / Nice Day For Croquet (Tied) (02:03)
4. Tire Slash Time / Time To Play (03:26)
5. Memory Of Dad (05:14)
6. Scary Stop Sign (02:19)
7. Read Between The Lines (01:37)
8. A Scary View (02:02)
9. The Hotel Waits / Comin’ To Get Doc / Lend Me A Hand (04:33)
10. Danny Holds Back (02:14)
11. That’s How It Is For Me (01:06)
12. Give Me A Holler (01:53)
13. The Lonely Wind / The Picture Changes / What’s So Sweet About It? (02:24)
14. Alone (02:00)
15. A Near Fall (02:09)
16. No Sale (01:40)
17. Safe As Safe Can Be / There Is No Tony (02:31)
18. Night Nest / Freeze You Bastards (02:45)
19. End Credits – Night #1 (00:54)
Music Composed and Conducted by Nicholas Pike

CD 5 Stephen King’s The Shining disc two (Nicholas Pike) (41:00)
1. Main Titles – Night #2 (02:00)
2. How Did He Break His Arm? (01:35)
3. The Usual Suspects (02:49)
4. Behind The Door (05:40)
5. Are You Gonna Hurt Me? / What Does Redrum Mean? (03:02)
6. Please Stay (01:56)
7. Dollhouse Mallet / Into The Room (06:17)
8. Dad On The Radio / That Was Close (05:19)
9. A Key Is Missing (02:29)
10. Boy On The Stairs (01:56)
11. Not My Shade (00:58)
12. I’m Not Seeing That / Trapped (02:30)
13. They’re After Danny (03:36)
14. End Credits – Night #2 (00:53)
Music Composed and Conducted by Nicholas Pike

CD 6 Stephen King’s The Shining disc three (Nicholas Pike) (65:25)
1. Main Titles – Night #3 (01:49)
2. Someone Got Their Fuse Blown (05:04)
3. That’s Not The Problem (01:44)
4. Dad In The Window / Where There’s A Will (04:56)
5. Drive Through The Snow (02:23)
6. Girl With A Knife / Interfering Again (02:27)
7. It’s A Drag (02:49)
8. Nothing But Spooks / Unmask (05:07)
9. Batter Up / Run And Hide (01:50)
10. Between The Eyes (03:37)
11. Here’s Jack (02:31)
12. What’s Been Forgotten (02:57)
13. Take Your Medicine (04:29)
14. What Could You Know? (02:29)
15. Dump It (02:09)
16. Think The Party’s Over (03:04)
17. All’s Well That Ends Well (03:38)
18. End Credits – Night #3 (00:53)
Bonus Tracks:
19. Main Titles – Night #1 [Mix 1] (01:57)
20. Hello (00:17)
21. Nice Day For Croquet (01:34)
22. They’re After Danny [Mix 1] (03:24)
23. Main Titles – Night #3 [Mix 1] (01:49)
24. What Could You Know [Mix 1] (02:28)
Music Composed and Conducted by Nicholas Pike

CD 7 Stephen King’s The Stand: Deluxe Edition disc one (W.G. Snuffy Walden) (46:29)
1. Project Blue (01:33)
2. The Dreams Begin (02:07)
3. On The Road To Kansas (03:56)
4. The Trashman In Vegas (01:57)
5. Headin’ West (01:55)
6. Larry & Nadine (The Rejection) (02:38)
7. Mother Abigail (03:10)
8. “Sorry Mister, I Don’t Understand” (Tom & Nick Meet) (02:53)
9. Mid Country: By The Stream (03:21)
10. Mother Greets The Multitudes (01:25)
11. M-O-O-N…That Spells Suicide (02:12)
12. “One Will Fall By The Way” (03:43)
13. Beginning Of The End (03:21)
14. The Stand (03:45)
15. Tom & Stu Go Home (02:33)
16. “Ain’t She Beautiful” (06:00)
Music Composed and Conducted by W.G. Snuffy Walden

CD 8 Stephen King’s The Stand: Deluxe Edition disc two (W.G. Snuffy Walden) (42:49)
1. Escaping (02:06)
2. Streets Of New York (00:53)
3. Trashy And The Dark Man (01:24)
4. Sewing The Canvas (01:27)
5. Corn Fields (02:06)
6. Locked Up (02:03)
7. New York No More (03:51)
8. The Funeral (02:58)
9. Leaving Mother Abigail’s (01:43)
10. Las Vegas (03:14)
11. Nadine Seduction (01:55)
12. Table Talk (05:44)
13. Boulder To Vegas (03:07)
14. Trashy Lights Up (01:56)
15. Nadine’s Dream (02:51)
16. Captured (02:06)
17. War Preparations (03:25)
Music Composed and Conducted by W.G. Snuffy Walden

Exact Audio Copy V1.3 from 2. September 2016

EAC extraction logfile from 22. April 2018, 17:04

James Newton Howard / Dreamcatcher: The Deluxe Edition disc one CD1

Used drive : ATAPI iHBS312 2 Adapter: 1 ID: 1

Read mode : Secure
Utilize accurate stream : Yes
Defeat audio cache : Yes
Make use of C2 pointers : No

Read offset correction : 6
Overread into Lead-In and Lead-Out : No
Fill up missing offset samples with silence : Yes
Delete leading and trailing silent blocks : No
Null samples used in CRC calculations : Yes
Used interface : Native Win32 interface for Win NT & 2000
Gap handling : Appended to previous track

Used output format : User Defined Encoder
Selected bitrate : 1024 kBit/s
Quality : High
Add ID3 tag : No
Command line compressor : C:\Program Files\Exact Audio Copy\Flac\flac.exe
Additional command line options : -V -8 -T "Genre=%genre%" -T "Artist=%artist%" -T "Title=%title%" -T "Album=%albumtitle%" -T "Date=%year%" -T "Tracknumber=%tracknr%" -T "Comment=%comment%" %source%

TOC of the extracted CD

Track | Start | Length | Start sector | End sector
––––––––––––––––––––––––––––-
1 | 0:00.00 | 2:46.12 | 0 | 12461
2 | 2:46.12 | 2:15.45 | 12462 | 22631
3 | 5:01.57 | 2:03.45 | 22632 | 31901
4 | 7:05.27 | 1:00.32 | 31902 | 36433
5 | 8:05.59 | 0:36.31 | 36434 | 39164
6 | 8:42.15 | 0:52.74 | 39165 | 43138
7 | 9:35.14 | 2:57.27 | 43139 | 56440
8 | 12:32.41 | 1:49.61 | 56441 | 64676
9 | 14:22.27 | 3:43.66 | 64677 | 81467
10 | 18:06.18 | 3:55.60 | 81468 | 99152
11 | 22:02.03 | 5:42.70 | 99153 | 124872
12 | 27:44.73 | 1:07.19 | 124873 | 129916
13 | 28:52.17 | 2:43.32 | 129917 | 142173
14 | 31:35.49 | 1:15.15 | 142174 | 147813
15 | 32:50.64 | 3:32.01 | 147814 | 163714
16 | 36:22.65 | 4:59.07 | 163715 | 186146
17 | 41:21.72 | 4:21.50 | 186147 | 205771
18 | 45:43.47 | 4:17.68 | 205772 | 225114

Track 1

Filename F:\torrent\Stephen King Soundtrack Collection 8CD\DISC 1\score\01. James Newton Howard - Main Titles.wav

Pre-gap length 0:00:02.00

Peak level 96.5 %
Extraction speed 1.8 X
Track quality 100.0 %
Test CRC 9468005E
Copy CRC 9468005E
Accurately ripped (confidence 4) [2529FB85] (AR v2)
Copy OK

Track 2

Filename F:\torrent\Stephen King Soundtrack Collection 8CD\DISC 1\score\02. James Newton Howard - Finding The Keys , Be Careful.wav

Pre-gap length 0:00:00.74

Peak level 78.8 %
Extraction speed 1.8 X
Track quality 100.0 %
Test CRC 0B97FD1A
Copy CRC 0B97FD1A
Accurately ripped (confidence 4) [BCF0C3C4] (AR v2)
Copy OK

Track 3

Filename F:\torrent\Stephen King Soundtrack Collection 8CD\DISC 1\score\03. James Newton Howard - Accident , To The Cabin.wav

Pre-gap length 0:00:01.37

Peak level 54.3 %
Extraction speed 1.9 X
Track quality 100.0 %
Test CRC EFA35FD6
Copy CRC EFA35FD6
Accurately ripped (confidence 4) [3FB3B54D] (AR v2)
Copy OK

Track 4

Filename F:\torrent\Stephen King Soundtrack Collection 8CD\DISC 1\score\04. James Newton Howard - Gathering Wood , Remembering Duddits.wav

Pre-gap length 0:00:01.66

Peak level 14.8 %
Extraction speed 0.8 X
Track quality 99.8 %
Test CRC 1EB6E31E
Copy CRC 1EB6E31E
Accurately ripped (confidence 4) [CEB1E9C8] (AR v2)
Copy OK

Track 5

Filename F:\torrent\Stephen King Soundtrack Collection 8CD\DISC 1\score\05. James Newton Howard - Memory Warehouse.wav

Pre-gap length 0:00:00.55

Peak level 8.6 %
Extraction speed 1.3 X
Track quality 100.0 %
Test CRC 059CB7CB
Copy CRC 059CB7CB
Accurately ripped (confidence 4) [8BA0B68F] (AR v2)
Copy OK

Track 6

Filename F:\torrent\Stephen King Soundtrack Collection 8CD\DISC 1\score\06. James Newton Howard - Toasting Duddit.wav

Pre-gap length 0:00:01.38

Peak level 38.3 %
Extraction speed 1.6 X
Track quality 100.0 %
Test CRC 384D7A54
Copy CRC 384D7A54
Accurately ripped (confidence 4) [76C80D42] (AR v2)
Copy OK

Track 7

Filename F:\torrent\Stephen King Soundtrack Collection 8CD\DISC 1\score\07. James Newton Howard - Saving Duddits.wav

Pre-gap length 0:00:01.02

Peak level 69.1 %
Extraction speed 2.3 X
Track quality 100.0 %
Test CRC 0B05781A
Copy CRC 0B05781A
Accurately ripped (confidence 4) [B6DBD40F] (AR v2)
Copy OK

Track 8

Filename F:\torrent\Stephen King Soundtrack Collection 8CD\DISC 1\score\08. James Newton Howard - Finding Rick.wav

Pre-gap length 0:00:01.53

Peak level 92.3 %
Extraction speed 2.2 X
Track quality 100.0 %
Test CRC 7F62C31E
Copy CRC 7F62C31E
Accurately ripped (confidence 4) [9E609943] (AR v2)
Copy OK

Track 9

Filename F:\torrent\Stephen King Soundtrack Collection 8CD\DISC 1\score\09. James Newton Howard - Animal Exodus.wav

Pre-gap length 0:00:01.37

Peak level 94.7 %
Extraction speed 2.6 X
Track quality 100.0 %
Test CRC 42B9A08B
Copy CRC 42B9A08B
Accurately ripped (confidence 4) [6FBAAEE4] (AR v2)
Copy OK

Track 10

Filename F:\torrent\Stephen King Soundtrack Collection 8CD\DISC 1\score\10. James Newton Howard - The Bathroom , What Is It.wav

Pre-gap length 0:00:01.45

Peak level 94.8 %
Extraction speed 2.8 X
Track quality 100.0 %
Test CRC 194E357C
Copy CRC 194E357C
Accurately ripped (confidence 4) [CEA62A46] (AR v2)
Copy OK

Track 11

Filename F:\torrent\Stephen King Soundtrack Collection 8CD\DISC 1\score\11. James Newton Howard - Weasel Kills Beaver.wav

Pre-gap length 0:00:01.37

Peak level 99.1 %
Extraction speed 2.5 X
Track quality 99.9 %
Test CRC E4E3C44F
Copy CRC E4E3C44F
Accurately ripped (confidence 4) [7854288E] (AR v2)
Copy OK

Track 12

Filename F:\torrent\Stephen King Soundtrack Collection 8CD\DISC 1\score\12. James Newton Howard - Military Moves In.wav

Pre-gap length 0:00:00.36

Peak level 94.4 %
Extraction speed 2.3 X
Track quality 100.0 %
Test CRC A8006A7E
Copy CRC A8006A7E
Accurately ripped (confidence 4) [DAD0AD48] (AR v2)
Copy OK

Track 13

Filename F:\torrent\Stephen King Soundtrack Collection 8CD\DISC 1\score\13. James Newton Howard - Scout's Honor.wav

Pre-gap length 0:00:01.32

Peak level 61.7 %
Extraction speed 3.0 X
Track quality 100.0 %
Test CRC B7754440
Copy CRC B7754440
Accurately ripped (confidence 4) [95DEDA75] (AR v2)
Copy OK

Track 14

Filename F:\torrent\Stephen King Soundtrack Collection 8CD\DISC 1\score\14. James Newton Howard - Becky Bleeds.wav

Pre-gap length 0:00:01.18

Peak level 99.4 %
Extraction speed 2.5 X
Track quality 100.0 %
Test CRC E5048C9E
Copy CRC E5048C9E
Accurately ripped (confidence 4) [C52241A3] (AR v2)
Copy OK

Track 15

Filename F:\torrent\Stephen King Soundtrack Collection 8CD\DISC 1\score\15. James Newton Howard - Weasel Attacks Pete.wav

Pre-gap length 0:00:01.37

Peak level 94.4 %
Extraction speed 3.3 X
Track quality 100.0 %
Test CRC 8166D83E
Copy CRC 8166D83E
Accurately ripped (confidence 4) [DAFB83DF] (AR v2)
Copy OK

Track 16

Filename F:\torrent\Stephen King Soundtrack Collection 8CD\DISC 1\score\16. James Newton Howard - Jonesy And Gray Debate.wav

Pre-gap length 0:00:01.37

Peak level 95.1 %
Extraction speed 3.5 X
Track quality 100.0 %
Test CRC 08CFD807
Copy CRC 08CFD807
Accurately ripped (confidence 4) [397C696E] (AR v2)
Copy OK

Track 17

Filename F:\torrent\Stephen King Soundtrack Collection 8CD\DISC 1\score\17. James Newton Howard - Henry Returns To The Cabin.wav

Pre-gap length 0:00:00.32

Peak level 94.5 %
Extraction speed 3.6 X
Track quality 100.0 %
Test CRC D69FA38E
Copy CRC D69FA38E
Accurately ripped (confidence 4) [9E053C49] (AR v2)
Copy OK

Track 18

Filename F:\torrent\Stephen King Soundtrack Collection 8CD\DISC 1\score\18. James Newton Howard - Boys Find Josie.wav

Pre-gap length 0:00:01.41

Peak level 100.0 %
Extraction speed 3.7 X
Track quality 100.0 %
Test CRC 74EAAACC
Copy CRC 74EAAACC
Accurately ripped (confidence 4) [DFA22722] (AR v2)
Copy OK

All tracks accurately ripped

No errors occurred

End of status report

–– CUETools DB Plugin V2.1.6

[CTDB TOCID: Kqucm88alugTZYA_CTfSX1MbTUQ-] found
Submit result: Kqucm88alugTZYA_CTfSX1MbTUQ- has been confirmed
Track | CTDB Status
1 | (9/9) Accurately ripped
2 | (9/9) Accurately ripped
3 | (9/9) Accurately ripped
4 | (9/9) Accurately ripped
5 | (9/9) Accurately ripped
6 | (9/9) Accurately ripped
7 | (9/9) Accurately ripped
8 | (9/9) Accurately ripped
9 | (9/9) Accurately ripped
10 | (9/9) Accurately ripped
11 | (9/9) Accurately ripped
12 | (9/9) Accurately ripped
13 | (9/9) Accurately ripped
14 | (9/9) Accurately ripped
15 | (9/9) Accurately ripped
16 | (9/9) Accurately ripped
17 | (9/9) Accurately ripped
18 | (9/9) Accurately ripped

==== Log checksum C26A6AB857C16513DD72BEE342AC09B9DB43AFDAD8501D94ACDA26F521D6F717 ====

Exact Audio Copy V1.3 from 2. September 2016

EAC extraction logfile from 22. April 2018, 17:27

James Newton Howard / Dreamcatcher: The Deluxe Edition disc two CD2

Used drive : ATAPI iHBS312 2 Adapter: 1 ID: 1

Read mode : Secure
Utilize accurate stream : Yes
Defeat audio cache : Yes
Make use of C2 pointers : No

Read offset correction : 6
Overread into Lead-In and Lead-Out : No
Fill up missing offset samples with silence : Yes
Delete leading and trailing silent blocks : No
Null samples used in CRC calculations : Yes
Used interface : Native Win32 interface for Win NT & 2000
Gap handling : Appended to previous track

Used output format : User Defined Encoder
Selected bitrate : 1024 kBit/s
Quality : High
Add ID3 tag : No
Command line compressor : C:\Program Files\Exact Audio Copy\Flac\flac.exe
Additional command line options : -V -8 -T "Genre=%genre%" -T "Artist=%artist%" -T "Title=%title%" -T "Album=%albumtitle%" -T "Date=%year%" -T "Tracknumber=%tracknr%" -T "Comment=%comment%" %source%

TOC of the extracted CD

Track | Start | Length | Start sector | End sector
––––––––––––––––––––––––––––-
1 | 0:00.00 | 3:50.40 | 0 | 17289
2 | 3:50.40 | 2:38.68 | 17290 | 29207
3 | 6:29.33 | 2:09.37 | 29208 | 38919
4 | 8:38.70 | 2:28.42 | 38920 | 50061
5 | 11:07.37 | 0:45.34 | 50062 | 53470
6 | 11:52.71 | 2:49.48 | 53471 | 66193
7 | 14:42.44 | 1:08.40 | 66194 | 71333
8 | 15:51.09 | 2:06.60 | 71334 | 80843
9 | 17:57.69 | 2:54.66 | 80844 | 93959
10 | 20:52.60 | 1:06.65 | 93960 | 98974
11 | 21:59.50 | 3:28.54 | 98975 | 114628
12 | 25:28.29 | 3:18.14 | 114629 | 129492
13 | 28:46.43 | 2:55.35 | 129493 | 142652
14 | 31:42.03 | 2:06.03 | 142653 | 152105
15 | 33:48.06 | 3:35.55 | 152106 | 168285
16 | 37:23.61 | 2:40.44 | 168286 | 180329
17 | 40:04.30 | 0:37.38 | 180330 | 183142
18 | 40:41.68 | 5:35.66 | 183143 | 208333

Track 1

Filename F:\torrent\Stephen King Soundtrack Collection 8CD\DISC 2\score\01. James Newton Howard - I'm That Monster.wav

Pre-gap length 0:00:02.00

Peak level 94.4 %
Extraction speed 5.0 X
Track quality 100.0 %
Test CRC 961489F7
Copy CRC 961489F7
Accurately ripped (confidence 4) [A4E69982] (AR v2)
Copy OK

Track 2

Filename F:\torrent\Stephen King Soundtrack Collection 8CD\DISC 2\score\02. James Newton Howard - Gray Kills Pete , Trucker.wav

Pre-gap length 0:00:00.38

Peak level 94.4 %
Extraction speed 5.1 X
Track quality 100.0 %
Test CRC 47F7D7C6
Copy CRC 47F7D7C6
Accurately ripped (confidence 4) [44F221DD] (AR v2)
Copy OK

Track 3

Filename F:\torrent\Stephen King Soundtrack Collection 8CD\DISC 2\score\03. James Newton Howard - Jonesy Gets Files.wav

Pre-gap length 0:00:01.37

Peak level 94.7 %
Extraction speed 3.9 X
Track quality 99.9 %
Test CRC D9EC1CC9
Copy CRC D9EC1CC9
Accurately ripped (confidence 4) [D9ECDA18] (AR v2)
Copy OK

Track 4

Filename F:\torrent\Stephen King Soundtrack Collection 8CD\DISC 2\score\04. James Newton Howard - Soldiers Find Henry.wav

Pre-gap length 0:00:00.37

Peak level 57.7 %
Extraction speed 5.6 X
Track quality 100.0 %
Test CRC 641D7CE9
Copy CRC 641D7CE9
Accurately ripped (confidence 4) [F14932F2] (AR v2)
Copy OK

Track 5

Filename F:\torrent\Stephen King Soundtrack Collection 8CD\DISC 2\score\05. James Newton Howard - Reading Curtis' Mind.wav

Pre-gap length 0:00:01.58

Peak level 85.2 %
Extraction speed 2.4 X
Track quality 99.7 %
Test CRC F1181352
Copy CRC F1181352
Accurately ripped (confidence 4) [EAA211A9] (AR v2)
Copy OK

Track 6

Filename F:\torrent\Stephen King Soundtrack Collection 8CD\DISC 2\score\06. James Newton Howard - Henry Tells Owen.wav

Pre-gap length 0:00:01.55

Peak level 94.4 %
Extraction speed 4.8 X
Track quality 99.9 %
Test CRC 587B73BA
Copy CRC 587B73BA
Accurately ripped (confidence 4) [5B69EE11] (AR v2)
Copy OK

Track 7

Filename F:\torrent\Stephen King Soundtrack Collection 8CD\DISC 2\score\07. James Newton Howard - Owen Rescues Henry.wav

Pre-gap length 0:00:01.37

Peak level 94.4 %
Extraction speed 5.0 X
Track quality 100.0 %
Test CRC F33A8656
Copy CRC F33A8656
Accurately ripped (confidence 4) [4F0500BF] (AR v2)
Copy OK

Track 8

Filename F:\torrent\Stephen King Soundtrack Collection 8CD\DISC 2\score\08. James Newton Howard - Jonesy Calls Henry.wav

Pre-gap length 0:00:01.37

Peak level 87.2 %
Extraction speed 4.6 X
Track quality 99.9 %
Test CRC F887460F
Copy CRC F887460F
Accurately ripped (confidence 4) [70ACA2B7] (AR v2)
Copy OK

Track 9

Filename F:\torrent\Stephen King Soundtrack Collection 8CD\DISC 2\score\09. James Newton Howard - Picking Up Duddits.wav

Pre-gap length 0:00:01.42

Peak level 50.0 %
Extraction speed 6.8 X
Track quality 100.0 %
Test CRC FE31BFD8
Copy CRC FE31BFD8
Accurately ripped (confidence 4) [48075559] (AR v2)
Copy OK

Track 10

Filename F:\torrent\Stephen King Soundtrack Collection 8CD\DISC 2\score\10. James Newton Howard - Killing Trooper.wav

Pre-gap length 0:00:01.37

Peak level 94.4 %
Extraction speed 5.4 X
Track quality 100.0 %
Test CRC ADCED189
Copy CRC ADCED189
Accurately ripped (confidence 4) [55F2F1C6] (AR v2)
Copy OK

Track 11

Filename F:\torrent\Stephen King Soundtrack Collection 8CD\DISC 2\score\11. James Newton Howard - Duddits Tells Story.wav

Pre-gap length 0:00:01.37

Peak level 94.4 %
Extraction speed 7.3 X
Track quality 100.0 %
Test CRC 02EED717
Copy CRC 02EED717
Accurately ripped (confidence 4) [17E3D06F] (AR v2)
Copy OK

Track 12

Filename F:\torrent\Stephen King Soundtrack Collection 8CD\DISC 2\score\12. James Newton Howard - Curtis Takes Chopper.wav

Pre-gap length 0:00:01.37

Peak level 94.4 %
Extraction speed 6.2 X
Track quality 99.9 %
Test CRC D26C3772
Copy CRC D26C3772
Accurately ripped (confidence 4) [4156CE13] (AR v2)
Copy OK

Track 13

Filename F:\torrent\Stephen King Soundtrack Collection 8CD\DISC 2\score\13. James Newton Howard - Curtis And Owen Battle.wav

Pre-gap length 0:00:01.37

Peak level 94.7 %
Extraction speed 7.7 X
Track quality 100.0 %
Test CRC AA13EBAD
Copy CRC AA13EBAD
Accurately ripped (confidence 4) [29E970B8] (AR v2)
Copy OK

Track 14

Filename F:\torrent\Stephen King Soundtrack Collection 8CD\DISC 2\score\14. James Newton Howard - Owen Dead.wav

Pre-gap length 0:00:01.68

Peak level 94.4 %
Extraction speed 7.5 X
Track quality 100.0 %
Test CRC 336EBCFA
Copy CRC 336EBCFA
Accurately ripped (confidence 4) [C9DD04C8] (AR v2)
Copy OK

Track 15

Filename F:\torrent\Stephen King Soundtrack Collection 8CD\DISC 2\score\15. James Newton Howard - Mr. Gray Go Away.wav

Pre-gap length 0:00:01.37

Peak level 94.5 %
Extraction speed 8.4 X
Track quality 100.0 %
Test CRC A82315B0
Copy CRC A82315B0
Accurately ripped (confidence 4) [DAAD8C32] (AR v2)
Copy OK

Track 16

Filename F:\torrent\Stephen King Soundtrack Collection 8CD\DISC 2\score\16. James Newton Howard - Duddits and Mr. Gray.wav

Pre-gap length 0:00:01.37

Peak level 94.4 %
Extraction speed 8.2 X
Track quality 100.0 %
Test CRC 17651EBE
Copy CRC 17651EBE
Accurately ripped (confidence 4) [FC489761] (AR v2)
Copy OK

Track 17

Filename F:\torrent\Stephen King Soundtrack Collection 8CD\DISC 2\score\17. James Newton Howard - It's Over.wav

Pre-gap length 0:00:01.37

Peak level 94.4 %
Extraction speed 2.9 X
Track quality 99.7 %
Test CRC 71680B5C
Copy CRC 71680B5C
Accurately ripped (confidence 4) [F4D498E8] (AR v2)
Copy OK

Track 18

Filename F:\torrent\Stephen King Soundtrack Collection 8CD\DISC 2\score\18. James Newton Howard - End Credits.wav

Pre-gap length 0:00:01.37

Peak level 94.4 %
Extraction speed 9.3 X
Track quality 100.0 %
Test CRC 4E3FE397
Copy CRC 4E3FE397
Accurately ripped (confidence 4) [823B60F0] (AR v2)
Copy OK

All tracks accurately ripped

No errors occurred

End of status report

–– CUETools DB Plugin V2.1.6

[CTDB TOCID: 5qeNGPB0.sO7GQRwsDbkb6K7tW8-] found
Submit result: 5qeNGPB0.sO7GQRwsDbkb6K7tW8- has been confirmed
Track | CTDB Status
1 | (8/8) Accurately ripped
2 | (8/8) Accurately ripped
3 | (8/8) Accurately ripped
4 | (8/8) Accurately ripped
5 | (8/8) Accurately ripped
6 | (8/8) Accurately ripped
7 | (8/8) Accurately ripped
8 | (8/8) Accurately ripped
9 | (8/8) Accurately ripped
10 | (8/8) Accurately ripped
11 | (8/8) Accurately ripped
12 | (8/8) Accurately ripped
13 | (8/8) Accurately ripped
14 | (8/8) Accurately ripped
15 | (8/8) Accurately ripped
16 | (8/8) Accurately ripped
17 | (8/8) Accurately ripped
18 | (8/8) Accurately ripped

==== Log checksum 49C14E68FCB6634D2BF2EAA976F6F79FEB5F5929CD19C4603491A1AF0DDBE5A3 ====

Exact Audio Copy V1.3 from 2. September 2016

EAC extraction logfile from 22. April 2018, 16:00

Tangerine Dream / Firestarter CD3

Used drive : ATAPI iHBS312 2 Adapter: 1 ID: 1

Read mode : Secure
Utilize accurate stream : Yes
Defeat audio cache : Yes
Make use of C2 pointers : No

Read offset correction : 6
Overread into Lead-In and Lead-Out : No
Fill up missing offset samples with silence : Yes
Delete leading and trailing silent blocks : No
Null samples used in CRC calculations : Yes
Used interface : Native Win32 interface for Win NT & 2000
Gap handling : Appended to previous track

Used output format : User Defined Encoder
Selected bitrate : 1024 kBit/s
Quality : High
Add ID3 tag : No
Command line compressor : C:\Program Files\Exact Audio Copy\Flac\flac.exe
Additional command line options : -V -8 -T "Genre=%genre%" -T "Artist=%artist%" -T "Title=%title%" -T "Album=%albumtitle%" -T "Date=%year%" -T "Tracknumber=%tracknr%" -T "Comment=%comment%" %source%

TOC of the extracted CD

Track | Start | Length | Start sector | End sector
––––––––––––––––––––––––––––-
1 | 0:00.00 | 3:13.63 | 0 | 14537
2 | 3:13.63 | 4:53.26 | 14538 | 36538
3 | 8:07.14 | 4:04.39 | 36539 | 54877
4 | 12:11.53 | 3:58.37 | 54878 | 72764
5 | 16:10.15 | 5:14.08 | 72765 | 96322
6 | 21:24.23 | 2:37.22 | 96323 | 108119
7 | 24:01.45 | 4:23.08 | 108120 | 127852
8 | 28:24.53 | 3:01.22 | 127853 | 141449
9 | 31:26.00 | 3:17.63 | 141450 | 156287
10 | 34:43.63 | 5:20.06 | 156288 | 180293
11 | 40:03.69 | 2:31.56 | 180294 | 191674

Track 1

Filename F:\torrent\Stephen King Soundtrack Collection 8CD\DISC 3\score\01. Tangerine Dream - Crystal Voice.wav

Pre-gap length 0:00:02.00

Peak level 91.4 %
Extraction speed 1.3 X
Track quality 99.9 %
Test CRC 6F93EA67
Copy CRC 6F93EA67
Accurately ripped (confidence 3) [A1A9597A] (AR v2)
Copy OK

Track 2

Filename F:\torrent\Stephen King Soundtrack Collection 8CD\DISC 3\score\02. Tangerine Dream - The Run.wav

Pre-gap length 0:00:02.60

Peak level 64.4 %
Extraction speed 2.2 X
Track quality 100.0 %
Test CRC C5311BA2
Copy CRC C5311BA2
Accurately ripped (confidence 3) [910CBDD7] (AR v2)
Copy OK

Track 3

Filename F:\torrent\Stephen King Soundtrack Collection 8CD\DISC 3\score\03. Tangerine Dream - Testlab.wav

Pre-gap length 0:00:02.64

Peak level 77.5 %
Extraction speed 2.4 X
Track quality 100.0 %
Test CRC A998BDB8
Copy CRC A998BDB8
Accurately ripped (confidence 3) [FF5BB3F7] (AR v2)
Copy OK

Track 4

Filename F:\torrent\Stephen King Soundtrack Collection 8CD\DISC 3\score\04. Tangerine Dream - Charly the Kid.wav

Pre-gap length 0:00:03.10

Peak level 82.1 %
Extraction speed 2.6 X
Track quality 100.0 %
Test CRC 7A5759D2
Copy CRC 7A5759D2
Accurately ripped (confidence 3) [690BE464] (AR v2)
Copy OK

Track 5

Filename F:\torrent\Stephen King Soundtrack Collection 8CD\DISC 3\score\05. Tangerine Dream - Escaping Point.wav

Pre-gap length 0:00:02.55

Peak level 80.7 %
Extraction speed 2.8 X
Track quality 100.0 %
Test CRC 51F27D44
Copy CRC 51F27D44
Accurately ripped (confidence 3) [D5DDF0FD] (AR v2)
Copy OK

Track 6

Filename F:\torrent\Stephen King Soundtrack Collection 8CD\DISC 3\score\06. Tangerine Dream - Rainbirds Move.wav

Pre-gap length 0:00:03.49

Peak level 59.8 %
Extraction speed 2.7 X
Track quality 100.0 %
Test CRC 5AB29E16
Copy CRC 5AB29E16
Accurately ripped (confidence 3) [510E6B58] (AR v2)
Copy OK

Track 7

Filename F:\torrent\Stephen King Soundtrack Collection 8CD\DISC 3\score\07. Tangerine Dream - Burning Force.wav

Pre-gap length 0:00:04.45

Peak level 96.5 %
Extraction speed 3.1 X
Track quality 100.0 %
Test CRC EE621608
Copy CRC EE621608
Accurately ripped (confidence 3) [33E346ED] (AR v2)
Copy OK

Track 8

Filename F:\torrent\Stephen King Soundtrack Collection 8CD\DISC 3\score\08. Tangerine Dream - Between Realities.wav

Pre-gap length 0:00:03.18

Peak level 72.0 %
Extraction speed 3.0 X
Track quality 100.0 %
Test CRC 16124B0E
Copy CRC 16124B0E
Accurately ripped (confidence 3) [86DB1C9F] (AR v2)
Copy OK

Track 9

Filename F:\torrent\Stephen King Soundtrack Collection 8CD\DISC 3\score\09. Tangerine Dream - Shop Territory.wav

Pre-gap length 0:00:02.45

Peak level 60.0 %
Extraction speed 2.2 X
Track quality 99.9 %
Test CRC FA7E150F
Copy CRC FA7E150F
Accurately ripped (confidence 3) [776F386A] (AR v2)
Copy OK

Track 10

Filename F:\torrent\Stephen King Soundtrack Collection 8CD\DISC 3\score\10. Tangerine Dream - Flash Final.wav

Pre-gap length 0:00:01.17

Peak level 67.2 %
Extraction speed 3.5 X
Track quality 100.0 %
Test CRC 4D50AFD5
Copy CRC 4D50AFD5
Accurately ripped (confidence 3) [5A07A60A] (AR v2)
Copy OK

Track 11

Filename F:\torrent\Stephen King Soundtrack Collection 8CD\DISC 3\score\11. Tangerine Dream - Out of the Heat.wav

Pre-gap length 0:00:02.07

Peak level 88.6 %
Extraction speed 2.1 X
Track quality 99.9 %
Test CRC 83F5097F
Copy CRC 83F5097F
Accurately ripped (confidence 3) [AF0A2B53] (AR v2)
Copy OK

All tracks accurately ripped

No errors occurred

End of status report

–– CUETools DB Plugin V2.1.6

[CTDB TOCID: N2oYxn8865vy7ofb5EOdt52jLUU-] found
Submit result: N2oYxn8865vy7ofb5EOdt52jLUU- has been confirmed
Track | CTDB Status
1 | (9/9) Accurately ripped
2 | (9/9) Accurately ripped
3 | (9/9) Accurately ripped
4 | (9/9) Accurately ripped
5 | (9/9) Accurately ripped
6 | (9/9) Accurately ripped
7 | (9/9) Accurately ripped
8 | (9/9) Accurately ripped
9 | (9/9) Accurately ripped
10 | (9/9) Accurately ripped
11 | (9/9) Accurately ripped

==== Log checksum 6D2E5FB6123E1D26CEA656995821EAC64F721FD3750126FCE68493109A3BE374 ====

Exact Audio Copy V1.3 from 2. September 2016

EAC extraction logfile from 22. April 2018, 17:59

Nicholas Pike / Stephen King’s The Shining - Night #1 CD4

Used drive : ATAPI iHBS312 2 Adapter: 1 ID: 1

Read mode : Secure
Utilize accurate stream : Yes
Defeat audio cache : Yes
Make use of C2 pointers : No

Read offset correction : 6
Overread into Lead-In and Lead-Out : No
Fill up missing offset samples with silence : Yes
Delete leading and trailing silent blocks : No
Null samples used in CRC calculations : Yes
Used interface : Native Win32 interface for Win NT & 2000
Gap handling : Appended to previous track

Used output format : User Defined Encoder
Selected bitrate : 1024 kBit/s
Quality : High
Add ID3 tag : No
Command line compressor : C:\Program Files\Exact Audio Copy\Flac\flac.exe
Additional command line options : -V -8 -T "Genre=%genre%" -T "Artist=%artist%" -T "Title=%title%" -T "Album=%albumtitle%" -T "Date=%year%" -T "Tracknumber=%tracknr%" -T "Comment=%comment%" %source%

TOC of the extracted CD

Track | Start | Length | Start sector | End sector
––––––––––––––––––––––––––––-
1 | 0:00.00 | 1:55.11 | 0 | 8635
2 | 1:55.11 | 1:23.57 | 8636 | 14917
3 | 3:18.68 | 2:03.38 | 14918 | 24180
4 | 5:22.31 | 3:26.51 | 24181 | 39681
5 | 8:49.07 | 5:14.44 | 39682 | 63275
6 | 14:03.51 | 2:19.07 | 63276 | 73707
7 | 16:22.58 | 1:37.24 | 73708 | 81006
8 | 18:00.07 | 2:02.25 | 81007 | 90181
9 | 20:02.32 | 4:33.24 | 90182 | 110680
10 | 24:35.56 | 2:14.54 | 110681 | 120784
11 | 26:50.35 | 1:06.48 | 120785 | 125782
12 | 27:57.08 | 1:53.11 | 125783 | 134268
13 | 29:50.19 | 2:24.19 | 134269 | 145087
14 | 32:14.38 | 2:00.73 | 145088 | 154160
15 | 34:15.36 | 2:09.08 | 154161 | 163843
16 | 36:24.44 | 1:40.24 | 163844 | 171367
17 | 38:04.68 | 2:31.66 | 171368 | 182758
18 | 40:36.59 | 2:45.57 | 182759 | 195190
19 | 43:22.41 | 0:52.23 | 195191 | 199113

Track 1

Filename F:\torrent\Stephen King Soundtrack Collection 8CD\DISC 4\score\01. Nicholas Pike - Main Titles – Night #1.wav

Pre-gap length 0:00:02.00

Peak level 89.4 %
Extraction speed 4.2 X
Track quality 100.0 %
Test CRC 816F57BD
Copy CRC 816F57BD
Accurately ripped (confidence 3) [B7AFAAB7] (AR v2)
Copy OK

Track 2

Filename F:\torrent\Stephen King Soundtrack Collection 8CD\DISC 4\score\02. Nicholas Pike - Flashback.wav

Pre-gap length 0:00:02.00

Peak level 90.4 %
Extraction speed 4.1 X
Track quality 100.0 %
Test CRC 62DFBB58
Copy CRC 62DFBB58
Accurately ripped (confidence 3) [710FB027] (AR v2)
Copy OK

Track 3

Filename F:\torrent\Stephen King Soundtrack Collection 8CD\DISC 4\score\03. Nicholas Pike - Hello , Nice Day For Croquet (Tied).wav

Pre-gap length 0:00:02.00

Peak level 98.3 %
Extraction speed 3.5 X
Track quality 99.9 %
Test CRC 2BC247DF
Copy CRC 2BC247DF
Accurately ripped (confidence 3) [AE5E6A47] (AR v2)
Copy OK

Track 4

Filename F:\torrent\Stephen King Soundtrack Collection 8CD\DISC 4\score\04. Nicholas Pike - Tire Slash Time , Time To Play.wav

Pre-gap length 0:00:02.00

Peak level 85.6 %
Extraction speed 5.5 X
Track quality 100.0 %
Test CRC EE14F55C
Copy CRC EE14F55C
Accurately ripped (confidence 3) [BD300B38] (AR v2)
Copy OK

Track 5

Filename F:\torrent\Stephen King Soundtrack Collection 8CD\DISC 4\score\05. Nicholas Pike - Memory Of Dad.wav

Pre-gap length 0:00:02.00

Peak level 99.5 %
Extraction speed 6.4 X
Track quality 100.0 %
Test CRC 2EA7D4B5
Copy CRC 2EA7D4B5
Accurately ripped (confidence 3) [6E051702] (AR v2)
Copy OK

Track 6

Filename F:\torrent\Stephen King Soundtrack Collection 8CD\DISC 4\score\06. Nicholas Pike - Scary Stop Sign.wav

Pre-gap length 0:00:02.00

Peak level 98.9 %
Extraction speed 4.6 X
Track quality 99.9 %
Test CRC 11119C62
Copy CRC 11119C62
Accurately ripped (confidence 3) [0D7E035D] (AR v2)
Copy OK

Track 7

Filename F:\torrent\Stephen King Soundtrack Collection 8CD\DISC 4\score\07. Nicholas Pike - Read Between The Lines.wav

Pre-gap length 0:00:02.00

Peak level 79.0 %
Extraction speed 5.8 X
Track quality 100.0 %
Test CRC A3ECABDA
Copy CRC A3ECABDA
Accurately ripped (confidence 3) [A2324D3C] (AR v2)
Copy OK

Track 8

Filename F:\torrent\Stephen King Soundtrack Collection 8CD\DISC 4\score\08. Nicholas Pike - A Scary View.wav

Pre-gap length 0:00:02.00

Peak level 99.5 %
Extraction speed 6.2 X
Track quality 100.0 %
Test CRC 684D6041
Copy CRC 684D6041
Accurately ripped (confidence 3) [4945DF11] (AR v2)
Copy OK

Track 9

Filename F:\torrent\Stephen King Soundtrack Collection 8CD\DISC 4\score\09. Nicholas Pike - The Hotel Waits , Comin' To Get Doc , Lend Me A Hand.wav

Pre-gap length 0:00:02.00

Peak level 99.9 %
Extraction speed 7.5 X
Track quality 100.0 %
Test CRC 4C36604A
Copy CRC 4C36604A
Accurately ripped (confidence 3) [305FE128] (AR v2)
Copy OK

Track 10

Filename F:\torrent\Stephen King Soundtrack Collection 8CD\DISC 4\score\10. Nicholas Pike - Danny Holds Back.wav

Pre-gap length 0:00:02.00

Peak level 97.5 %
Extraction speed 6.9 X
Track quality 100.0 %
Test CRC C7A7BC0F
Copy CRC C7A7BC0F
Accurately ripped (confidence 3) [9E904B9B] (AR v2)
Copy OK

Track 11

Filename F:\torrent\Stephen King Soundtrack Collection 8CD\DISC 4\score\11. Nicholas Pike - That's How It Is For Me.wav

Pre-gap length 0:00:02.00

Peak level 98.6 %
Extraction speed 5.8 X
Track quality 100.0 %
Test CRC 36377660
Copy CRC 36377660
Accurately ripped (confidence 3) [81BE50F4] (AR v2)
Copy OK

Track 12

Filename F:\torrent\Stephen King Soundtrack Collection 8CD\DISC 4\score\12. Nicholas Pike - Give Me A Holler.wav

Pre-gap length 0:00:02.00

Peak level 69.1 %
Extraction speed 6.9 X
Track quality 100.0 %
Test CRC 84753FAB
Copy CRC 84753FAB
Accurately ripped (confidence 3) [24E0B367] (AR v2)
Copy OK

Track 13

Filename F:\torrent\Stephen King Soundtrack Collection 8CD\DISC 4\score\13. Nicholas Pike - The Lonely Wind , The Picture Changes , What's So Sweet About It.wav

Pre-gap length 0:00:02.00

Peak level 97.9 %
Extraction speed 7.4 X
Track quality 100.0 %
Test CRC 489C2D44
Copy CRC 489C2D44
Accurately ripped (confidence 3) [0526FE37] (AR v2)
Copy OK

Track 14

Filename F:\torrent\Stephen King Soundtrack Collection 8CD\DISC 4\score\14. Nicholas Pike - Alone.wav

Pre-gap length 0:00:02.00

Peak level 97.3 %
Extraction speed 7.3 X
Track quality 100.0 %
Test CRC B9FC1F3E
Copy CRC B9FC1F3E
Accurately ripped (confidence 3) [825D45C9] (AR v2)
Copy OK

Track 15

Filename F:\torrent\Stephen King Soundtrack Collection 8CD\DISC 4\score\15. Nicholas Pike - A Near Fall.wav

Pre-gap length 0:00:02.00

Peak level 98.7 %
Extraction speed 5.7 X
Track quality 99.9 %
Test CRC 35450C3A
Copy CRC 35450C3A
Accurately ripped (confidence 3) [F7606582] (AR v2)
Copy OK

Track 16

Filename F:\torrent\Stephen King Soundtrack Collection 8CD\DISC 4\score\16. Nicholas Pike - No Sale.wav

Pre-gap length 0:00:02.00

Peak level 42.2 %
Extraction speed 7.2 X
Track quality 100.0 %
Test CRC 877A1BF0
Copy CRC 877A1BF0
Accurately ripped (confidence 3) [55E44B23] (AR v2)
Copy OK

Track 17

Filename F:\torrent\Stephen King Soundtrack Collection 8CD\DISC 4\score\17. Nicholas Pike - Safe As Safe Can Be , There Is No Tony.wav

Pre-gap length 0:00:02.00

Peak level 99.9 %
Extraction speed 8.1 X
Track quality 100.0 %
Test CRC 65E34330
Copy CRC 65E34330
Accurately ripped (confidence 3) [43076966] (AR v2)
Copy OK

Track 18

Filename F:\torrent\Stephen King Soundtrack Collection 8CD\DISC 4\score\18. Nicholas Pike - Night Nest , Freeze You Bastards.wav

Pre-gap length 0:00:02.00

Peak level 99.3 %
Extraction speed 8.5 X
Track quality 100.0 %
Test CRC 069E3A19
Copy CRC 069E3A19
Accurately ripped (confidence 3) [8A27C8FD] (AR v2)
Copy OK

Track 19

Filename F:\torrent\Stephen King Soundtrack Collection 8CD\DISC 4\score\19. Nicholas Pike - End Credits – Night #1.wav

Pre-gap length 0:00:02.00

Peak level 68.9 %
Extraction speed 6.1 X
Track quality 100.0 %
Test CRC A4EF7014
Copy CRC A4EF7014
Accurately ripped (confidence 3) [C23C7A06] (AR v2)
Copy OK

All tracks accurately ripped

No errors occurred

End of status report

–– CUETools DB Plugin V2.1.6

[CTDB TOCID: 5rCse.6fDF.d3PpEwMOY64e2Qhc-] found
Submit result: 5rCse.6fDF.d3PpEwMOY64e2Qhc- has been confirmed
Track | CTDB Status
1 | (7/7) Accurately ripped
2 | (7/7) Accurately ripped
3 | (7/7) Accurately ripped
4 | (7/7) Accurately ripped
5 | (7/7) Accurately ripped
6 | (7/7) Accurately ripped
7 | (7/7) Accurately ripped
8 | (7/7) Accurately ripped
9 | (7/7) Accurately ripped
10 | (7/7) Accurately ripped
11 | (7/7) Accurately ripped
12 | (7/7) Accurately ripped
13 | (7/7) Accurately ripped
14 | (7/7) Accurately ripped
15 | (7/7) Accurately ripped
16 | (7/7) Accurately ripped
17 | (6/7) Accurately ripped
18 | (7/7) Accurately ripped
19 | (7/7) Accurately ripped

==== Log checksum 12592F150579C7D700DBBAD5374929F611849647CF6ACE1CAEC6A263E80C2F0E ====

Exact Audio Copy V1.3 from 2. September 2016

EAC extraction logfile from 22. April 2018, 18:24

Nicholas Pike / Stephen King’s The Shining - Night #2 CD5

Used drive : ATAPI iHBS312 2 Adapter: 1 ID: 1

Read mode : Secure
Utilize accurate stream : Yes
Defeat audio cache : Yes
Make use of C2 pointers : No

Read offset correction : 6
Overread into Lead-In and Lead-Out : No
Fill up missing offset samples with silence : Yes
Delete leading and trailing silent blocks : No
Null samples used in CRC calculations : Yes
Used interface : Native Win32 interface for Win NT & 2000
Gap handling : Appended to previous track

Used output format : User Defined Encoder
Selected bitrate : 1024 kBit/s
Quality : High
Add ID3 tag : No
Command line compressor : C:\Program Files\Exact Audio Copy\Flac\flac.exe
Additional command line options : -V -8 -T "Genre=%genre%" -T "Artist=%artist%" -T "Title=%title%" -T "Album=%albumtitle%" -T "Date=%year%" -T "Tracknumber=%tracknr%" -T "Comment=%comment%" %source%

TOC of the extracted CD

Track | Start | Length | Start sector | End sector
––––––––––––––––––––––––––––-
1 | 0:00.00 | 2:00.32 | 0 | 9031
2 | 2:00.32 | 1:35.21 | 9032 | 16177
3 | 3:35.53 | 2:49.22 | 16178 | 28874
4 | 6:25.00 | 5:40.71 | 28875 | 54445
5 | 12:05.71 | 3:02.41 | 54446 | 68136
6 | 15:08.37 | 1:56.57 | 68137 | 76893
7 | 17:05.19 | 6:17.65 | 76894 | 105233
8 | 23:23.09 | 5:19.72 | 105234 | 129230
9 | 28:43.06 | 2:29.08 | 129231 | 140413
10 | 31:12.14 | 1:56.72 | 140414 | 149185
11 | 33:09.11 | 0:58.13 | 149186 | 153548
12 | 34:07.24 | 2:30.05 | 153549 | 164803
13 | 36:37.29 | 3:36.73 | 164804 | 181076
14 | 40:14.27 | 0:51.60 | 181077 | 184961

Track 1

Filename F:\torrent\Stephen King Soundtrack Collection 8CD\DISC 5\score\01. Nicholas Pike - Main Titles – Night #2.wav

Pre-gap length 0:00:02.00

Peak level 95.4 %
Extraction speed 4.2 X
Track quality 100.0 %
Test CRC 1703E3EC
Copy CRC 1703E3EC
Accurately ripped (confidence 3) [3344E672] (AR v2)
Copy OK

Track 2

Filename F:\torrent\Stephen King Soundtrack Collection 8CD\DISC 5\score\02. Nicholas Pike - How Did He Break His Arm.wav

Pre-gap length 0:00:02.00

Peak level 55.4 %
Extraction speed 3.0 X
Track quality 99.8 %
Test CRC E0D46D8C
Copy CRC E0D46D8C
Accurately ripped (confidence 3) [7DDB9A06] (AR v2)
Copy OK

Track 3

Filename F:\torrent\Stephen King Soundtrack Collection 8CD\DISC 5\score\03. Nicholas Pike - The Usual Suspects.wav

Pre-gap length 0:00:02.00

Peak level 99.4 %
Extraction speed 4.1 X
Track quality 99.9 %
Test CRC 0395B6AA
Copy CRC 0395B6AA
Accurately ripped (confidence 3) [70C70974] (AR v2)
Copy OK

Track 4

Filename F:\torrent\Stephen King Soundtrack Collection 8CD\DISC 5\score\04. Nicholas Pike - Behind The Door.wav

Pre-gap length 0:00:02.00

Peak level 99.8 %
Extraction speed 5.5 X
Track quality 99.9 %
Test CRC C5D032F2
Copy CRC C5D032F2
Accurately ripped (confidence 3) [A26EF203] (AR v2)
Copy OK

Track 5

Filename F:\torrent\Stephen King Soundtrack Collection 8CD\DISC 5\score\05. Nicholas Pike - Are You Gonna Hurt Me , What Does Redrum Mean.wav

Pre-gap length 0:00:02.00

Peak level 99.0 %
Extraction speed 6.2 X
Track quality 100.0 %
Test CRC 2D274FEB
Copy CRC 2D274FEB
Accurately ripped (confidence 3) [ABF248A8] (AR v2)
Copy OK

Track 6

Filename F:\torrent\Stephen King Soundtrack Collection 8CD\DISC 5\score\06. Nicholas Pike - Please Stay.wav

Pre-gap length 0:00:02.00

Peak level 35.5 %
Extraction speed 5.9 X
Track quality 100.0 %
Test CRC 845D7D28
Copy CRC 845D7D28
Accurately ripped (confidence 3) [C4D9B766] (AR v2)
Copy OK

Track 7

Filename F:\torrent\Stephen King Soundtrack Collection 8CD\DISC 5\score\07. Nicholas Pike - Dollhouse Mallet , Into The Room.wav

Pre-gap length 0:00:02.00

Peak level 98.6 %
Extraction speed 7.5 X
Track quality 100.0 %
Test CRC 86573B2B
Copy CRC 86573B2B
Accurately ripped (confidence 3) [B0D5DA51] (AR v2)
Copy OK

Track 8

Filename F:\torrent\Stephen King Soundtrack Collection 8CD\DISC 5\score\08. Nicholas Pike - Dad On The Radio , That Was Close.wav

Pre-gap length 0:00:02.00

Peak level 99.1 %
Extraction speed 8.0 X
Track quality 100.0 %
Test CRC AF1E3D39
Copy CRC AF1E3D39
Accurately ripped (confidence 3) [3343AF96] (AR v2)
Copy OK

Track 9

Filename F:\torrent\Stephen King Soundtrack Collection 8CD\DISC 5\score\09. Nicholas Pike - A Key Is Missing.wav

Pre-gap length 0:00:02.00

Peak level 88.7 %
Extraction speed 7.4 X
Track quality 100.0 %
Test CRC 4879B71E
Copy CRC 4879B71E
Accurately ripped (confidence 3) [A034FDD0] (AR v2)
Copy OK

Track 10

Filename F:\torrent\Stephen King Soundtrack Collection 8CD\DISC 5\score\10. Nicholas Pike - Boy On The Stairs.wav

Pre-gap length 0:00:02.00

Peak level 99.5 %
Extraction speed 7.2 X
Track quality 100.0 %
Test CRC D17A7AC5
Copy CRC D17A7AC5
Accurately ripped (confidence 3) [836E3DE7] (AR v2)
Copy OK

Track 11

Filename F:\torrent\Stephen King Soundtrack Collection 8CD\DISC 5\score\11. Nicholas Pike - Boy On The Stairs.wav

Pre-gap length 0:00:02.00

Peak level 97.9 %
Extraction speed 5.9 X
Track quality 100.0 %
Test CRC 97463131
Copy CRC 97463131
Accurately ripped (confidence 3) [B63C59F2] (AR v2)
Copy OK

Track 12

Filename F:\torrent\Stephen King Soundtrack Collection 8CD\DISC 5\score\12. Nicholas Pike - I'm Not Seeing That , Trapped.wav

Pre-gap length 0:00:02.00

Peak level 98.4 %
Extraction speed 6.0 X
Track quality 99.9 %
Test CRC B0F71930
Copy CRC B0F71930
Accurately ripped (confidence 3) [8BFFD241] (AR v2)
Copy OK

Track 13

Filename F:\torrent\Stephen King Soundtrack Collection 8CD\DISC 5\score\13. Nicholas Pike - They're After Danny.wav

Pre-gap length 0:00:02.00

Peak level 96.4 %
Extraction speed 8.6 X
Track quality 100.0 %
Test CRC 9FF61864
Copy CRC 9FF61864
Accurately ripped (confidence 3) [E685086B] (AR v2)
Copy OK

Track 14

Filename F:\torrent\Stephen King Soundtrack Collection 8CD\DISC 5\score\14. Nicholas Pike - End Credits – Night #2.wav

Pre-gap length 0:00:02.00

Peak level 53.5 %
Extraction speed 3.6 X
Track quality 99.7 %
Test CRC 013FA6EE
Copy CRC 013FA6EE
Accurately ripped (confidence 3) [8BAFE6EC] (AR v2)
Copy OK

All tracks accurately ripped

No errors occurred

End of status report

–– CUETools DB Plugin V2.1.6

[CTDB TOCID: sGJYqKbphfl.1p5pgcKR65A2.oc-] found
Submit result: sGJYqKbphfl.1p5pgcKR65A2.oc- has been confirmed
Track | CTDB Status
1 | (7/7) Accurately ripped
2 | (7/7) Accurately ripped
3 | (7/7) Accurately ripped
4 | (7/7) Accurately ripped
5 | (7/7) Accurately ripped
6 | (7/7) Accurately ripped
7 | (7/7) Accurately ripped
8 | (7/7) Accurately ripped
9 | (7/7) Accurately ripped
10 | (7/7) Accurately ripped
11 | (7/7) Accurately ripped
12 | (7/7) Accurately ripped
13 | (7/7) Accurately ripped
14 | (7/7) Accurately ripped

==== Log checksum E0512AAFD8965DAA00C9EBAAF733D9082F19048FF1A9AB216F8DDAD088657967 ====

Exact Audio Copy V1.3 from 2. September 2016

EAC extraction logfile from 22. April 2018, 18:54

Nicholas Pike / Stephen King’s The Shining - Night #3 CD6

Used drive : ATAPI iHBS312 2 Adapter: 1 ID: 1

Read mode : Secure
Utilize accurate stream : Yes
Defeat audio cache : Yes
Make use of C2 pointers : No

Read offset correction : 6
Overread into Lead-In and Lead-Out : No
Fill up missing offset samples with silence : Yes
Delete leading and trailing silent blocks : No
Null samples used in CRC calculations : Yes
Used interface : Native Win32 interface for Win NT & 2000
Gap handling : Appended to previous track

Used output format : User Defined Encoder
Selected bitrate : 1024 kBit/s
Quality : High
Add ID3 tag : No
Command line compressor : C:\Program Files\Exact Audio Copy\Flac\flac.exe
Additional command line options : -V -8 -T "Genre=%genre%" -T "Artist=%artist%" -T "Title=%title%" -T "Album=%albumtitle%" -T "Date=%year%" -T "Tracknumber=%tracknr%" -T "Comment=%comment%" %source%

TOC of the extracted CD

Track | Start | Length | Start sector | End sector
––––––––––––––––––––––––––––-
1 | 0:00.00 | 1:49.14 | 0 | 8188
2 | 1:49.14 | 5:04.37 | 8189 | 31025
3 | 6:53.51 | 1:44.05 | 31026 | 38830
4 | 8:37.56 | 4:56.12 | 38831 | 61042
5 | 13:33.68 | 2:23.55 | 61043 | 71822
6 | 15:57.48 | 2:27.19 | 71823 | 82866
7 | 18:24.67 | 2:49.74 | 82867 | 95615
8 | 21:14.66 | 5:07.44 | 95616 | 118684
9 | 26:22.35 | 1:50.67 | 118685 | 127001
10 | 28:13.27 | 3:37.54 | 127002 | 143330
11 | 31:51.06 | 2:31.27 | 143331 | 154682
12 | 34:22.33 | 2:57.35 | 154683 | 167992
13 | 37:19.68 | 4:29.67 | 167993 | 188234
14 | 41:49.60 | 2:29.57 | 188235 | 199466
15 | 44:19.42 | 2:09.22 | 199467 | 209163
16 | 46:28.64 | 3:04.40 | 209164 | 223003
17 | 49:33.29 | 3:38.43 | 223004 | 239396
18 | 53:11.72 | 0:56.25 | 239397 | 243621
19 | 54:08.22 | 1:54.73 | 243622 | 252244
20 | 56:03.20 | 0:17.20 | 252245 | 253539
21 | 56:20.40 | 1:34.63 | 253540 | 260652
22 | 57:55.28 | 3:24.04 | 260653 | 275956
23 | 61:19.32 | 1:49.26 | 275957 | 284157
24 | 63:08.58 | 2:26.73 | 284158 | 295180

Track 1

Filename F:\torrent\Stephen King Soundtrack Collection 8CD\DISC 6\score\01. Nicholas Pike - Main Titles – Night #3.wav

Pre-gap length 0:00:02.00

Peak level 91.1 %
Extraction speed 3.3 X
Track quality 99.9 %
Test CRC B1F4F0F0
Copy CRC B1F4F0F0
Accurately ripped (confidence 3) [F122F202] (AR v2)
Copy OK

Track 2

Filename F:\torrent\Stephen King Soundtrack Collection 8CD\DISC 6\score\02. Nicholas Pike - Someone Got Their Fuse Blown.wav

Pre-gap length 0:00:02.00

Peak level 98.9 %
Extraction speed 5.9 X
Track quality 100.0 %
Test CRC 8528A764
Copy CRC 8528A764
Accurately ripped (confidence 3) [EFAB0B40] (AR v2)
Copy OK

Track 3

Filename F:\torrent\Stephen King Soundtrack Collection 8CD\DISC 6\score\03. Nicholas Pike - That's Not The Problem.wav

Pre-gap length 0:00:02.00

Peak level 99.9 %
Extraction speed 5.3 X
Track quality 100.0 %
Test CRC 457E4D83
Copy CRC 457E4D83
Accurately ripped (confidence 3) [BE4064FB] (AR v2)
Copy OK

Track 4

Filename F:\torrent\Stephen King Soundtrack Collection 8CD\DISC 6\score\04. Nicholas Pike - Dad In The Window , Where There's A Will.wav

Pre-gap length 0:00:02.00

Peak level 99.4 %
Extraction speed 5.8 X
Track quality 99.9 %
Test CRC F74C87EC
Copy CRC F74C87EC
Accurately ripped (confidence 3) [4CFF248F] (AR v2)
Copy OK

Track 5

Filename F:\torrent\Stephen King Soundtrack Collection 8CD\DISC 6\score\05. Nicholas Pike - Drive Through The Snow.wav

Pre-gap length 0:00:02.00

Peak level 95.7 %
Extraction speed 5.0 X
Track quality 99.9 %
Test CRC 9D22A8A7
Copy CRC 9D22A8A7
Accurately ripped (confidence 3) [1420C31F] (AR v2)
Copy OK

Track 6

Filename F:\torrent\Stephen King Soundtrack Collection 8CD\DISC 6\score\06. Nicholas Pike - Girl With A Knife , Interfering Again.wav

Pre-gap length 0:00:02.00

Peak level 98.0 %
Extraction speed 6.6 X
Track quality 100.0 %
Test CRC 89F19CD8
Copy CRC 89F19CD8
Accurately ripped (confidence 3) [9E41A703] (AR v2)
Copy OK

Track 7

Filename F:\torrent\Stephen King Soundtrack Collection 8CD\DISC 6\score\07. Nicholas Pike - It's A Drag.wav

Pre-gap length 0:00:02.00

Peak level 99.2 %
Extraction speed 5.6 X
Track quality 99.9 %
Test CRC 89FAF890
Copy CRC 89FAF890
Accurately ripped (confidence 3) [9BC03233] (AR v2)
Copy OK

Track 8

Filename F:\torrent\Stephen King Soundtrack Collection 8CD\DISC 6\score\08. Nicholas Pike - Nothing But Spooks , Unmask.wav

Pre-gap length 0:00:02.00

Peak level 98.6 %
Extraction speed 8.1 X
Track quality 100.0 %
Test CRC AFEFE1C3
Copy CRC AFEFE1C3
Accurately ripped (confidence 3) [4C86090C] (AR v2)
Copy OK

Track 9

Filename F:\torrent\Stephen King Soundtrack Collection 8CD\DISC 6\score\09. Nicholas Pike - Batter Up , Run And Hide.wav

Pre-gap length 0:00:02.00

Peak level 97.3 %
Extraction speed 5.2 X
Track quality 99.9 %
Test CRC 3BF6F8EC
Copy CRC 3BF6F8EC
Accurately ripped (confidence 3) [5A63C9F3] (AR v2)
Copy OK

Track 10

Filename F:\torrent\Stephen King Soundtrack Collection 8CD\DISC 6\score\10. Nicholas Pike - Between The Eyes.wav

Pre-gap length 0:00:02.00

Peak level 99.2 %
Extraction speed 8.4 X
Track quality 100.0 %
Test CRC F3C4FD03
Copy CRC F3C4FD03
Accurately ripped (confidence 3) [60F4E0AC] (AR v2)
Copy OK

Track 11

Filename F:\torrent\Stephen King Soundtrack Collection 8CD\DISC 6\score\11. Nicholas Pike - Here's Jack.wav

Pre-gap length 0:00:02.00

Peak level 99.3 %
Extraction speed 6.3 X
Track quality 99.9 %
Test CRC 6C3EF470
Copy CRC 6C3EF470
Accurately ripped (confidence 3) [2FE4DF11] (AR v2)
Copy OK

Track 12

Filename F:\torrent\Stephen King Soundtrack Collection 8CD\DISC 6\score\12. Nicholas Pike - What's Been Forgotten.wav

Pre-gap length 0:00:02.00

Peak level 99.0 %
Extraction speed 8.6 X
Track quality 100.0 %
Test CRC 3616161F
Copy CRC 3616161F
Accurately ripped (confidence 3) [95852824] (AR v2)
Copy OK

Track 13

Filename F:\torrent\Stephen King Soundtrack Collection 8CD\DISC 6\score\13. Nicholas Pike - Take Your Medicine.wav

Pre-gap length 0:00:02.00

Peak level 99.3 %
Extraction speed 8.0 X
Track quality 99.9 %
Test CRC 4B069F93
Copy CRC 4B069F93
Accurately ripped (confidence 3) [FF6E694B] (AR v2)
Copy OK

Track 14

Filename F:\torrent\Stephen King Soundtrack Collection 8CD\DISC 6\score\14. Nicholas Pike - What Could You Know.wav

Pre-gap length 0:00:02.00

Peak level 93.8 %
Extraction speed 8.8 X
Track quality 100.0 %
Test CRC 5B33CB27
Copy CRC 5B33CB27
Accurately ripped (confidence 3) [EA4E719C] (AR v2)
Copy OK

Track 15

Filename F:\torrent\Stephen King Soundtrack Collection 8CD\DISC 6\score\15. Nicholas Pike - Dump It.wav

Pre-gap length 0:00:02.00

Peak level 92.1 %
Extraction speed 8.7 X
Track quality 100.0 %
Test CRC 24651CB4
Copy CRC 24651CB4
Accurately ripped (confidence 3) [794F994D] (AR v2)
Copy OK

Track 16

Filename F:\torrent\Stephen King Soundtrack Collection 8CD\DISC 6\score\16. Nicholas Pike - Think The Party's Over.wav

Pre-gap length 0:00:02.00

Peak level 95.6 %
Extraction speed 9.3 X
Track quality 100.0 %
Test CRC F03F7119
Copy CRC F03F7119
Accurately ripped (confidence 3) [02567368] (AR v2)
Copy OK

Track 17

Filename F:\torrent\Stephen King Soundtrack Collection 8CD\DISC 6\score\17. Nicholas Pike - All's Well That Ends Well.wav

Pre-gap length 0:00:02.00

Peak level 88.4 %
Extraction speed 9.9 X
Track quality 100.0 %
Test CRC 45D9E67D
Copy CRC 45D9E67D
Accurately ripped (confidence 3) [3BC68CD3] (AR v2)
Copy OK

Track 18

Filename F:\torrent\Stephen King Soundtrack Collection 8CD\DISC 6\score\18. Nicholas Pike - End Credits – Night #3.wav

Pre-gap length 0:00:02.00

Peak level 65.9 %
Extraction speed 6.9 X
Track quality 100.0 %
Test CRC 2AE6F32E
Copy CRC 2AE6F32E
Accurately ripped (confidence 3) [5E511D0B] (AR v2)
Copy OK

Track 19

Filename F:\torrent\Stephen King Soundtrack Collection 8CD\DISC 6\score\19. Nicholas Pike - Main Titles – Night #1 [Mix 1] - Bonus Track.wav

Pre-gap length 0:00:05.00

Peak level 95.1 %
Extraction speed 8.9 X
Track quality 100.0 %
Test CRC 8508F5BC
Copy CRC 8508F5BC
Accurately ripped (confidence 3) [C24434AC] (AR v2)
Copy OK

Track 20

Filename F:\torrent\Stephen King Soundtrack Collection 8CD\DISC 6\score\20. Nicholas Pike - Hello - Bonus Track.wav

Pre-gap length 0:00:02.00

Peak level 98.5 %
Extraction speed 1.8 X
Track quality 99.3 %
Test CRC 9AA6E729
Copy CRC 9AA6E729
Accurately ripped (confidence 3) [0B72380E] (AR v2)
Copy OK

Track 21

Filename F:\torrent\Stephen King Soundtrack Collection 8CD\DISC 6\score\21. Nicholas Pike - Nice Day For Croquet - Bonus Track.wav

Pre-gap length 0:00:02.00

Peak level 57.6 %
Extraction speed 8.5 X
Track quality 100.0 %
Test CRC 280025DD
Copy CRC 280025DD
Accurately ripped (confidence 3) [056B8CFB] (AR v2)
Copy OK

Track 22

Filename F:\torrent\Stephen King Soundtrack Collection 8CD\DISC 6\score\22. Nicholas Pike - They're After Danny [Mix 1] - Bonus Track.wav

Pre-gap length 0:00:02.00

Peak level 96.4 %
Extraction speed 10.4 X
Track quality 100.0 %
Test CRC C8072BDD
Copy CRC C8072BDD
Accurately ripped (confidence 3) [CE8C5D36] (AR v2)
Copy OK

Track 23

Filename F:\torrent\Stephen King Soundtrack Collection 8CD\DISC 6\score\23. Nicholas Pike - Main Titles – Night #3 [Mix 1] - Bonus Track.wav

Pre-gap length 0:00:02.00

Peak level 82.8 %
Extraction speed 9.3 X
Track quality 100.0 %
Test CRC C961A6B7
Copy CRC C961A6B7
Accurately ripped (confidence 3) [B9B19CCC] (AR v2)
Copy OK

Track 24

Filename F:\torrent\Stephen King Soundtrack Collection 8CD\DISC 6\score\24. Nicholas Pike - What Could You Know [Mix 1] - Bonus Track.wav

Pre-gap length 0:00:02.00

Peak level 91.7 %
Extraction speed 9.7 X
Track quality 100.0 %
Test CRC 32216355
Copy CRC 32216355
Accurately ripped (confidence 3) [1992C53B] (AR v2)
Copy OK

All tracks accurately ripped

No errors occurred

End of status report

–– CUETools DB Plugin V2.1.6

[CTDB TOCID: msk0QB.2s7_Vi93S.U7l6rwcpSY-] found
Submit result: msk0QB.2s7_Vi93S.U7l6rwcpSY- has been confirmed
Track | CTDB Status
1 | (7/7) Accurately ripped
2 | (7/7) Accurately ripped
3 | (7/7) Accurately ripped
4 | (7/7) Accurately ripped
5 | (7/7) Accurately ripped
6 | (7/7) Accurately ripped
7 | (7/7) Accurately ripped
8 | (7/7) Accurately ripped
9 | (7/7) Accurately ripped
10 | (7/7) Accurately ripped
11 | (7/7) Accurately ripped
12 | (7/7) Accurately ripped
13 | (7/7) Accurately ripped
14 | (7/7) Accurately ripped
15 | (7/7) Accurately ripped
16 | (7/7) Accurately ripped
17 | (7/7) Accurately ripped
18 | (7/7) Accurately ripped
19 | (7/7) Accurately ripped
20 | (7/7) Accurately ripped
21 | (7/7) Accurately ripped
22 | (7/7) Accurately ripped
23 | (7/7) Accurately ripped
24 | (7/7) Accurately ripped

==== Log checksum C600CB653463755D7F4D028947B088A3EC9CFBE3D101F1112CF49CCB0023C384 ====

Exact Audio Copy V1.3 from 2. September 2016

EAC extraction logfile from 22. April 2018, 19:26

W.G. Snuffy Walden / Stephen King’s The Stand: Deluxe Edition disc one CD7

Used drive : ATAPI iHBS312 2 Adapter: 1 ID: 1

Read mode : Secure
Utilize accurate stream : Yes
Defeat audio cache : Yes
Make use of C2 pointers : No

Read offset correction : 6
Overread into Lead-In and Lead-Out : No
Fill up missing offset samples with silence : Yes
Delete leading and trailing silent blocks : No
Null samples used in CRC calculations : Yes
Used interface : Native Win32 interface for Win NT & 2000
Gap handling : Appended to previous track

Used output format : User Defined Encoder
Selected bitrate : 1024 kBit/s
Quality : High
Add ID3 tag : No
Command line compressor : C:\Program Files\Exact Audio Copy\Flac\flac.exe
Additional command line options : -V -8 -T "Genre=%genre%" -T "Artist=%artist%" -T "Title=%title%" -T "Album=%albumtitle%" -T "Date=%year%" -T "Tracknumber=%tracknr%" -T "Comment=%comment%" %source%

TOC of the extracted CD

Track | Start | Length | Start sector | End sector
––––––––––––––––––––––––––––-
1 | 0:00.00 | 1:33.30 | 0 | 7004
2 | 1:33.30 | 2:08.33 | 7005 | 16637
3 | 3:41.63 | 3:56.69 | 16638 | 34406
4 | 7:38.57 | 1:58.09 | 34407 | 43265
5 | 9:36.66 | 1:55.69 | 43266 | 51959
6 | 11:32.60 | 2:38.08 | 51960 | 63817
7 | 14:10.68 | 3:10.53 | 63818 | 78120
8 | 17:21.46 | 2:54.67 | 78121 | 91237
9 | 20:16.38 | 3:21.62 | 91238 | 106374
10 | 23:38.25 | 1:25.53 | 106375 | 112802
11 | 25:04.03 | 2:12.70 | 112803 | 122772
12 | 27:16.73 | 3:43.70 | 122773 | 139567
13 | 31:00.68 | 3:22.11 | 139568 | 154728
14 | 34:23.04 | 3:46.32 | 154729 | 171710
15 | 38:09.36 | 2:33.47 | 171711 | 183232
16 | 40:43.08 | 6:00.59 | 183233 | 210291

Track 1

Filename F:\torrent\Stephen King Soundtrack Collection 8CD\DISC 7\score\01. W.G. Snuffy Walden - Project Blue.wav

Pre-gap length 0:00:02.00

Peak level 92.9 %
Extraction speed 3.9 X
Track quality 100.0 %
Test CRC 9E011980
Copy CRC 9E011980
Accurately ripped (confidence 4) [AAA1891D] (AR v2)
Copy OK

Track 2

Filename F:\torrent\Stephen King Soundtrack Collection 8CD\DISC 7\score\02. W.G. Snuffy Walden - The Dreams Begin.wav

Peak level 94.4 %
Extraction speed 3.4 X
Track quality 99.9 %
Test CRC 900CEB23
Copy CRC 900CEB23
Accurately ripped (confidence 4) [AE4BD451] (AR v2)
Copy OK

Track 3

Filename F:\torrent\Stephen King Soundtrack Collection 8CD\DISC 7\score\03. W.G. Snuffy Walden - On the Road to Kansas.wav

Pre-gap length 0:00:00.61

Peak level 94.4 %
Extraction speed 5.5 X
Track quality 100.0 %
Test CRC A72DEEF6
Copy CRC A72DEEF6
Accurately ripped (confidence 4) [3825F7FC] (AR v2)
Copy OK

Track 4

Filename F:\torrent\Stephen King Soundtrack Collection 8CD\DISC 7\score\04. W.G. Snuffy Walden - The Trashman in Vegas.wav

Pre-gap length 0:00:00.29

Peak level 94.4 %
Extraction speed 5.2 X
Track quality 100.0 %
Test CRC B9A20596
Copy CRC B9A20596
Accurately ripped (confidence 4) [43184841] (AR v2)
Copy OK

Track 5

Filename F:\torrent\Stephen King Soundtrack Collection 8CD\DISC 7\score\05. W.G. Snuffy Walden - Headin' West.wav

Pre-gap length 0:00:00.31

Peak level 73.1 %
Extraction speed 5.3 X
Track quality 100.0 %
Test CRC C00CCD77
Copy CRC C00CCD77
Accurately ripped (confidence 4) [8583D83B] (AR v2)
Copy OK

Track 6

Filename F:\torrent\Stephen King Soundtrack Collection 8CD\DISC 7\score\06. W.G. Snuffy Walden - Larry & Nadine (The Rejection).wav

Peak level 79.1 %
Extraction speed 6.0 X
Track quality 100.0 %
Test CRC 21E8003F
Copy CRC 21E8003F
Accurately ripped (confidence 4) [186674BE] (AR v2)
Copy OK

Track 7

Filename F:\torrent\Stephen King Soundtrack Collection 8CD\DISC 7\score\07. W.G. Snuffy Walden - Mother Abigail.wav

Peak level 77.8 %
Extraction speed 6.6 X
Track quality 100.0 %
Test CRC EB025483
Copy CRC EB025483
Accurately ripped (confidence 4) [0CB08D86] (AR v2)
Copy OK

Track 8

Filename F:\torrent\Stephen King Soundtrack Collection 8CD\DISC 7\score\08. W.G. Snuffy Walden - ''Sorry Mister, I Don't Understand'' (Tom & Nick Meet).wav

Pre-gap length 0:00:00.43

Peak level 90.7 %
Extraction speed 6.8 X
Track quality 100.0 %
Test CRC 63990D9A
Copy CRC 63990D9A
Accurately ripped (confidence 4) [83F91F97] (AR v2)
Copy OK

Track 9

Filename F:\torrent\Stephen King Soundtrack Collection 8CD\DISC 7\score\09. W.G. Snuffy Walden - Mid Country- By the Stream.wav

Pre-gap length 0:00:01.06

Peak level 94.4 %
Extraction speed 5.8 X
Track quality 99.9 %
Test CRC E2FDFB25
Copy CRC E2FDFB25
Accurately ripped (confidence 4) [BD0D03A8] (AR v2)
Copy OK

Track 10

Filename F:\torrent\Stephen King Soundtrack Collection 8CD\DISC 7\score\10. W.G. Snuffy Walden - Mother Greets the Multitudes.wav

Peak level 81.6 %
Extraction speed 6.1 X
Track quality 100.0 %
Test CRC 6F6A0EAB
Copy CRC 6F6A0EAB
Accurately ripped (confidence 4) [701F9FDC] (AR v2)
Copy OK

Track 11

Filename F:\torrent\Stephen King Soundtrack Collection 8CD\DISC 7\score\11. W.G. Snuffy Walden - M-O-O-N… That Spells Suicide.wav

Peak level 89.7 %
Extraction speed 7.0 X
Track quality 100.0 %
Test CRC 3EF13B17
Copy CRC 3EF13B17
Accurately ripped (confidence 4) [EDA425EE] (AR v2)
Copy OK

Track 12

Filename F:\torrent\Stephen King Soundtrack Collection 8CD\DISC 7\score\12. W.G. Snuffy Walden - ''One Will Fall by the Way''.wav

Peak level 61.2 %
Extraction speed 8.0 X
Track quality 100.0 %
Test CRC 8A61BE51
Copy CRC 8A61BE51
Accurately ripped (confidence 4) [6B8686F6] (AR v2)
Copy OK

Track 13

Filename F:\torrent\Stephen King Soundtrack Collection 8CD\DISC 7\score\13. W.G. Snuffy Walden - Beginning of the End.wav

Peak level 94.4 %
Extraction speed 6.5 X
Track quality 99.9 %
Test CRC 13F59EA2
Copy CRC 13F59EA2
Accurately ripped (confidence 4) [8927299A] (AR v2)
Copy OK

Track 14

Filename F:\torrent\Stephen King Soundtrack Collection 8CD\DISC 7\score\14. W.G. Snuffy Walden - The Stand.wav

Pre-gap length 0:00:01.00

Peak level 94.4 %
Extraction speed 6.9 X
Track quality 99.9 %
Test CRC 59B830E1
Copy CRC 59B830E1
Accurately ripped (confidence 4) [7F61506C] (AR v2)
Copy OK

Track 15

Filename F:\torrent\Stephen King Soundtrack Collection 8CD\DISC 7\score\15. W.G. Snuffy Walden - Tom & Stu Go Home.wav

Pre-gap length 0:00:00.48

Peak level 90.2 %
Extraction speed 8.1 X
Track quality 100.0 %
Test CRC 9730BE8F
Copy CRC 9730BE8F
Accurately ripped (confidence 4) [626F45DE] (AR v2)
Copy OK

Track 16

Filename F:\torrent\Stephen King Soundtrack Collection 8CD\DISC 7\score\16. W.G. Snuffy Walden - ''Ain't She Beautiful''.wav

Peak level 56.8 %
Extraction speed 9.3 X
Track quality 100.0 %
Test CRC 81E4EB49
Copy CRC 81E4EB49
Accurately ripped (confidence 4) [CC7B14D7] (AR v2)
Copy OK

All tracks accurately ripped

No errors occurred

End of status report

–– CUETools DB Plugin V2.1.6

[CTDB TOCID: 71kn59OYwxgr55xlJVHv5QzdYrU-] found
Submit result: 71kn59OYwxgr55xlJVHv5QzdYrU- has been confirmed
Track | CTDB Status
1 | (7/7) Accurately ripped
2 | (7/7) Accurately ripped
3 | (7/7) Accurately ripped
4 | (7/7) Accurately ripped
5 | (7/7) Accurately ripped
6 | (7/7) Accurately ripped
7 | (7/7) Accurately ripped
8 | (7/7) Accurately ripped
9 | (7/7) Accurately ripped
10 | (7/7) Accurately ripped
11 | (7/7) Accurately ripped
12 | (7/7) Accurately ripped
13 | (7/7) Accurately ripped
14 | (7/7) Accurately ripped
15 | (7/7) Accurately ripped
16 | (7/7) Accurately ripped

==== Log checksum D07342A12DEFB0BCE42C6C90DFEE44BD2CB7080F80E5CBBAD133657B81FF8FD4 ====

Exact Audio Copy V1.3 from 2. September 2016

EAC extraction logfile from 22. April 2018, 19:51

W.G. Snuffy Walden / Stephen King’s The Stand: Deluxe Edition disc two CD8

Used drive : ATAPI iHBS312 2 Adapter: 1 ID: 1

Read mode : Secure
Utilize accurate stream : Yes
Defeat audio cache : Yes
Make use of C2 pointers : No

Read offset correction : 6
Overread into Lead-In and Lead-Out : No
Fill up missing offset samples with silence : Yes
Delete leading and trailing silent blocks : No
Null samples used in CRC calculations : Yes
Used interface : Native Win32 interface for Win NT & 2000
Gap handling : Appended to previous track

Used output format : User Defined Encoder
Selected bitrate : 1024 kBit/s
Quality : High
Add ID3 tag : No
Command line compressor : C:\Program Files\Exact Audio Copy\Flac\flac.exe
Additional command line options : -V -8 -T "Genre=%genre%" -T "Artist=%artist%" -T "Title=%title%" -T "Album=%albumtitle%" -T "Date=%year%" -T "Tracknumber=%tracknr%" -T "Comment=%comment%" %source%

TOC of the extracted CD

Track | Start | Length | Start sector | End sector
––––––––––––––––––––––––––––-
1 | 0:00.00 | 2:06.08 | 0 | 9457
2 | 2:06.08 | 0:53.64 | 9458 | 13496
3 | 2:59.72 | 1:24.33 | 13497 | 19829
4 | 4:24.30 | 1:27.41 | 19830 | 26395
5 | 5:51.71 | 2:06.22 | 26396 | 35867
6 | 7:58.18 | 2:03.69 | 35868 | 45161
7 | 10:02.12 | 3:51.37 | 45162 | 62523
8 | 13:53.49 | 2:58.30 | 62524 | 75903
9 | 16:52.04 | 1:43.40 | 75904 | 83668
10 | 18:35.44 | 3:14.28 | 83669 | 98246
11 | 21:49.72 | 1:55.46 | 98247 | 106917
12 | 23:45.43 | 5:44.34 | 106918 | 132751
13 | 29:30.02 | 3:07.57 | 132752 | 146833
14 | 32:37.59 | 1:56.40 | 146834 | 155573
15 | 34:34.24 | 2:51.24 | 155574 | 168422
16 | 37:25.48 | 2:06.15 | 168423 | 177887
17 | 39:31.63 | 3:23.40 | 177888 | 193152

Track 1

Filename F:\torrent\Stephen King Soundtrack Collection 8CD\DISC 8\score\01. W.G. Snuffy Walden - Escaping.wav

Pre-gap length 0:00:02.00

Peak level 96.3 %
Extraction speed 4.4 X
Track quality 100.0 %
Test CRC F1EBE66A
Copy CRC F1EBE66A
Accurately ripped (confidence 4) [CE0DB4EC] (AR v2)
Copy OK

Track 2

Filename F:\torrent\Stephen King Soundtrack Collection 8CD\DISC 8\score\02. W.G. Snuffy Walden - Streets Of New York.wav

Pre-gap length 0:00:02.00

Peak level 67.3 %
Extraction speed 3.4 X
Track quality 100.0 %
Test CRC 049BA450
Copy CRC 049BA450
Accurately ripped (confidence 4) [7AA0EC64] (AR v2)
Copy OK

Track 3

Filename F:\torrent\Stephen King Soundtrack Collection 8CD\DISC 8\score\03. W.G. Snuffy Walden - Trashy And The Dark Man.wav

Pre-gap length 0:00:02.00

Peak level 96.8 %
Extraction speed 4.2 X
Track quality 100.0 %
Test CRC C9C6F4B2
Copy CRC C9C6F4B2
Accurately ripped (confidence 4) [0027316A] (AR v2)
Copy OK

Track 4

Filename F:\torrent\Stephen King Soundtrack Collection 8CD\DISC 8\score\04. W.G. Snuffy Walden - Sewing The Canvas.wav

Pre-gap length 0:00:02.00

Peak level 64.5 %
Extraction speed 4.4 X
Track quality 100.0 %
Test CRC 52E0836E
Copy CRC 52E0836E
Accurately ripped (confidence 4) [33B13618] (AR v2)
Copy OK

Track 5

Filename F:\torrent\Stephen King Soundtrack Collection 8CD\DISC 8\score\05. W.G. Snuffy Walden - Corn Fields.wav

Pre-gap length 0:00:02.00

Peak level 85.5 %
Extraction speed 5.1 X
Track quality 100.0 %
Test CRC 7920D4E9
Copy CRC 7920D4E9
Accurately ripped (confidence 4) [3ACD0194] (AR v2)
Copy OK

Track 6

Filename F:\torrent\Stephen King Soundtrack Collection 8CD\DISC 8\score\06. W.G. Snuffy Walden - Locked Up.wav

Pre-gap length 0:00:02.00

Peak level 96.3 %
Extraction speed 5.4 X
Track quality 100.0 %
Test CRC 1FF70BD3
Copy CRC 1FF70BD3
Accurately ripped (confidence 4) [B0281048] (AR v2)
Copy OK

Track 7

Filename F:\torrent\Stephen King Soundtrack Collection 8CD\DISC 8\score\07. W.G. Snuffy Walden - New York No More.wav

Pre-gap length 0:00:02.00

Peak level 72.0 %
Extraction speed 6.3 X
Track quality 100.0 %
Test CRC B276F564
Copy CRC B276F564
Accurately ripped (confidence 4) [E1915887] (AR v2)
Copy OK

Track 8

Filename F:\torrent\Stephen King Soundtrack Collection 8CD\DISC 8\score\08. W.G. Snuffy Walden - The Funeral.wav

Pre-gap length 0:00:02.00

Peak level 91.4 %
Extraction speed 6.4 X
Track quality 100.0 %
Test CRC F5B7D22B
Copy CRC F5B7D22B
Accurately ripped (confidence 4) [BD2C8531] (AR v2)
Copy OK

Track 9

Filename F:\torrent\Stephen King Soundtrack Collection 8CD\DISC 8\score\09. W.G. Snuffy Walden - Leaving Mother Abigail's.wav

Pre-gap length 0:00:02.00

Peak level 96.0 %
Extraction speed 6.0 X
Track quality 100.0 %
Test CRC 7358ED3C
Copy CRC 7358ED3C
Accurately ripped (confidence 4) [6069D3B3] (AR v2)
Copy OK

Track 10

Filename F:\torrent\Stephen King Soundtrack Collection 8CD\DISC 8\score\10. W.G. Snuffy Walden - Las Vegas.wav

Pre-gap length 0:00:02.00

Peak level 73.4 %
Extraction speed 7.0 X
Track quality 100.0 %
Test CRC 001D06C6
Copy CRC 001D06C6
Accurately ripped (confidence 4) [B1EDD90D] (AR v2)
Copy OK

Track 11

Filename F:\torrent\Stephen King Soundtrack Collection 8CD\DISC 8\score\11. W.G. Snuffy Walden - Nadine Seduction.wav

Pre-gap length 0:00:02.00

Peak level 96.1 %
Extraction speed 6.6 X
Track quality 100.0 %
Test CRC 1D46087F
Copy CRC 1D46087F
Accurately ripped (confidence 4) [89F9338E] (AR v2)
Copy OK

Track 12

Filename F:\torrent\Stephen King Soundtrack Collection 8CD\DISC 8\score\12. W.G. Snuffy Walden - Table Talk.wav

Pre-gap length 0:00:02.00

Peak level 96.1 %
Extraction speed 8.1 X
Track quality 100.0 %
Test CRC 77C0691D
Copy CRC 77C0691D
Accurately ripped (confidence 4) [9E452D0A] (AR v2)
Copy OK

Track 13

Filename F:\torrent\Stephen King Soundtrack Collection 8CD\DISC 8\score\13. W.G. Snuffy Walden - Boulder To Vegas.wav

Pre-gap length 0:00:02.00

Peak level 97.4 %
Extraction speed 7.9 X
Track quality 100.0 %
Test CRC 1E2F3845
Copy CRC 1E2F3845
Accurately ripped (confidence 4) [60C5CE77] (AR v2)
Copy OK

Track 14

Filename F:\torrent\Stephen King Soundtrack Collection 8CD\DISC 8\score\14. W.G. Snuffy Walden - Trashy Lights Up.wav

Pre-gap length 0:00:02.00

Peak level 96.5 %
Extraction speed 5.4 X
Track quality 99.9 %
Test CRC 4D92BE5F
Copy CRC 4D92BE5F
Accurately ripped (confidence 4) [374373F2] (AR v2)
Copy OK

Track 15

Filename F:\torrent\Stephen King Soundtrack Collection 8CD\DISC 8\score\15. W.G. Snuffy Walden - Nadine's Dream.wav

Pre-gap length 0:00:02.00

Peak level 86.1 %
Extraction speed 6.5 X
Track quality 99.9 %
Test CRC C36C2C63
Copy CRC C36C2C63
Accurately ripped (confidence 4) [26CEE981] (AR v2)
Copy OK

Track 16

Filename F:\torrent\Stephen King Soundtrack Collection 8CD\DISC 8\score\16. W.G. Snuffy Walden - Captured.wav

Pre-gap length 0:00:02.00

Peak level 96.5 %
Extraction speed 7.8 X
Track quality 100.0 %
Test CRC 16E6AD6D
Copy CRC 16E6AD6D
Accurately ripped (confidence 4) [10BCE2A1] (AR v2)
Copy OK

Track 17

Filename F:\torrent\Stephen King Soundtrack Collection 8CD\DISC 8\score\17. W.G. Snuffy Walden - War Preparations.wav

Pre-gap length 0:00:02.00

Peak level 86.6 %
Extraction speed 7.0 X
Track quality 99.9 %
Test CRC B65B9AC3
Copy CRC B65B9AC3
Accurately ripped (confidence 4) [D24EF739] (AR v2)
Copy OK

All tracks accurately ripped

No errors occurred

End of status report

–– CUETools DB Plugin V2.1.6

[CTDB TOCID: PaBg39iPj46ZrXmg_FJAUDL_rz0-] found
Submit result: PaBg39iPj46ZrXmg_FJAUDL_rz0- has been confirmed
Track | CTDB Status
1 | (8/8) Accurately ripped
2 | (8/8) Accurately ripped
3 | (8/8) Accurately ripped
4 | (8/8) Accurately ripped
5 | (8/8) Accurately ripped
6 | (8/8) Accurately ripped
7 | (8/8) Accurately ripped
8 | (8/8) Accurately ripped
9 | (8/8) Accurately ripped
10 | (8/8) Accurately ripped
11 | (8/8) Accurately ripped
12 | (8/8) Accurately ripped
13 | (8/8) Accurately ripped
14 | (8/8) Accurately ripped
15 | (8/8) Accurately ripped
16 | (8/8) Accurately ripped
17 | (8/8) Accurately ripped

==== Log checksum 283F54D27699EA6D0954A8AC794E0AED13191C744C3AEFA5F10111F1D22B63DB ====

All thanks go to the Sarant

More Music in My Blog
Follow My RSS Channel