Subcategories

V.A. – Extra Bachata (1998)

Posted By: Melaron
V.A. – Extra Bachata (1998)

V.A. – Extra Bachata (1998)
1 CD EAC 1.00 b1 | time: 1 h 01 m 04 s | HQ scans 300 dpi | tags | FLAC > 382,52 MB (3 parts) | MP3 320 CBR > 145,20 MB
Latin American, Various Artists, Vocal, World / Label: Envidia B60 6051 / Filesonic, Fileserve, Depositfiles

Album released in Spain in 1998 by the label Envidia, a compilation of 14 bachata hits at the time. As expected some of the performers appear more recently recognized in the art, such as Joe Veras or Frank Reyes and themes of success as 'El gato en la oscuridad', 'Es una ladrona', etc.. Good set of cuttings, suitable for dance this Dominican and Caribbean sensual dance, with hybrid rhythm from bolero and other Latin styles. Extra party of bachata.
Track list:

1. Se te nota (Joe Veras)
2. La bella (Nelson Roig)
3. El gato en la oscuridad (Francis Deo)
4. Amante (Sandy Reyes)
5. Feelings (Marcelys)
6. No llores por mí (Manuel Jiménez)
7. Es una ladrona (Blas Durán)
8. Cuando seas mía (Frank Reyes)
9. Rulo con boca (Boquita)
10. Dos corazones (Llave maestra)
11. Cambia de vida (Joe Veras)
12. La loca (Ramonchy)
13. Ay, amor (Sandy Reyes)
14. Qué más te doy (Danny García)

Exact Audio Copy V1.0 beta 1 from 15. November 2010

EAC extraction logfile from 6. December 2011, 16:19

Various / Extra Bachata

Used drive : HL-DT-STDVDRAM GSA-4167B Adapter: 1 ID: 1

Read mode : Secure
Utilize accurate stream : Yes
Defeat audio cache : No
Make use of C2 pointers : No

Read offset correction : 667
Overread into Lead-In and Lead-Out : No
Fill up missing offset samples with silence : Yes
Delete leading and trailing silent blocks : No
Null samples used in CRC calculations : Yes
Used interface : Installed external ASPI interface
Gap handling : Appended to previous track

Used output format : User Defined Encoder
Selected bitrate : 1024 kBit/s
Quality : High
Add ID3 tag : Yes
Command line compressor : D:\APLICACIONES\Exact Audio Copy\Flac\flac.exe
Additional command line options : -8 -V -T "tracknumber=%n" -T "title=%t" -T "artist=%a" -T "genre=%m" -T "album=%g" -T "date=%y" %s


TOC of the extracted CD

Track | Start | Length | Start sector | End sector
––––––––––––––––––––––––––––-
1 | 0:00.01 | 3:59.16 | 1 | 17941
2 | 3:59.17 | 5:18.10 | 17942 | 41801
3 | 9:17.27 | 3:37.17 | 41802 | 58093
4 | 12:54.44 | 5:13.34 | 58094 | 81602
5 | 18:08.03 | 4:30.52 | 81603 | 101904
6 | 22:38.55 | 4:27.12 | 101905 | 121941
7 | 27:05.67 | 4:09.26 | 121942 | 140642
8 | 31:15.18 | 5:06.13 | 140643 | 163605
9 | 36:21.31 | 3:24.64 | 163606 | 178969
10 | 39:46.20 | 3:23.18 | 178970 | 194212
11 | 43:09.38 | 5:03.08 | 194213 | 216945
12 | 48:12.46 | 3:53.00 | 216946 | 234420
13 | 52:05.46 | 4:48.23 | 234421 | 256043
14 | 56:53.69 | 4:10.05 | 256044 | 274798


Track 1

Filename D:\Mis DOCUMENTOS\Mi MUSICA\MML RIPEO propio\01-Joe Veras-Se te nota.wav

Pre-gap length 0:00:02.01

Peak level 100.0 %
Extraction speed 8.4 X
Track quality 100.0 %
Test CRC 52FB6A42
Copy CRC 52FB6A42
Track not present in AccurateRip database
Copy OK

Track 2

Filename D:\Mis DOCUMENTOS\Mi MUSICA\MML RIPEO propio\02-Nelson Roig-La Bella.wav

Suspicious position 0:02:41

Peak level 100.0 %
Extraction speed 3.2 X
Track quality 99.1 %
Test CRC 3F7B7363
Copy CRC 5715B2AE
Track not present in AccurateRip database
Copy finished

Track 3

Filename D:\Mis DOCUMENTOS\Mi MUSICA\MML RIPEO propio\03-Francis Deo-El gato en la oscuridad.wav

Peak level 100.0 %
Extraction speed 10.4 X
Track quality 100.0 %
Test CRC A47F861D
Copy CRC A47F861D
Track not present in AccurateRip database
Copy OK

Track 4

Filename D:\Mis DOCUMENTOS\Mi MUSICA\MML RIPEO propio\04-Sandy Reyes-Amante.wav

Peak level 100.0 %
Extraction speed 10.4 X
Track quality 99.9 %
Test CRC 20E312A3
Copy CRC 20E312A3
Track not present in AccurateRip database
Copy OK

Track 5

Filename D:\Mis DOCUMENTOS\Mi MUSICA\MML RIPEO propio\05-Marcelys-Feelings.wav

Peak level 100.0 %
Extraction speed 12.1 X
Track quality 100.0 %
Test CRC 22DE7B3D
Copy CRC 22DE7B3D
Track not present in AccurateRip database
Copy OK

Track 6

Filename D:\Mis DOCUMENTOS\Mi MUSICA\MML RIPEO propio\06-Manuel Jimenez-No llores por mi.wav

Peak level 100.0 %
Extraction speed 12.2 X
Track quality 100.0 %
Test CRC 9A7B303D
Copy CRC 9A7B303D
Track not present in AccurateRip database
Copy OK

Track 7

Filename D:\Mis DOCUMENTOS\Mi MUSICA\MML RIPEO propio\07-Blas Duran-Es una Ladrona.wav

Peak level 100.0 %
Extraction speed 12.8 X
Track quality 100.0 %
Test CRC 0556DF37
Copy CRC 0556DF37
Track not present in AccurateRip database
Copy OK

Track 8

Filename D:\Mis DOCUMENTOS\Mi MUSICA\MML RIPEO propio\08-Frank Reyes-Cuando seas mia.wav

Peak level 100.0 %
Extraction speed 12.8 X
Track quality 99.9 %
Test CRC F9CE5914
Copy CRC F9CE5914
Track not present in AccurateRip database
Copy OK

Track 9

Filename D:\Mis DOCUMENTOS\Mi MUSICA\MML RIPEO propio\09-Boquita-Rulo con la boca.wav

Peak level 100.0 %
Extraction speed 13.4 X
Track quality 99.9 %
Test CRC 69EEC4E4
Copy CRC 69EEC4E4
Track not present in AccurateRip database
Copy OK

Track 10

Filename D:\Mis DOCUMENTOS\Mi MUSICA\MML RIPEO propio\10-Llave Maestra-Dos Corazones.wav

Peak level 100.0 %
Extraction speed 15.0 X
Track quality 100.0 %
Test CRC E34D4EBE
Copy CRC E34D4EBE
Track not present in AccurateRip database
Copy OK

Track 11

Filename D:\Mis DOCUMENTOS\Mi MUSICA\MML RIPEO propio\11-Joe Veras-Cambia de vida.wav

Peak level 100.0 %
Extraction speed 9.3 X
Track quality 99.8 %
Test CRC 9551AF41
Copy CRC 3BF83513
Track not present in AccurateRip database
Copy OK

Track 12

Filename D:\Mis DOCUMENTOS\Mi MUSICA\MML RIPEO propio\12-Ramonchy-La loca.wav

Peak level 100.0 %
Extraction speed 12.3 X
Track quality 99.9 %
Test CRC C74D9DEF
Copy CRC C74D9DEF
Track not present in AccurateRip database
Copy OK

Track 13

Filename D:\Mis DOCUMENTOS\Mi MUSICA\MML RIPEO propio\13-Sandy Reyes-Ay Amor.wav

Peak level 100.0 %
Extraction speed 14.5 X
Track quality 99.9 %
Test CRC 2C4F40B6
Copy CRC 2C4F40B6
Track not present in AccurateRip database
Copy OK

Track 14

Filename D:\Mis DOCUMENTOS\Mi MUSICA\MML RIPEO propio\14-Danny Garcia-Que Mas te doy.wav

Peak level 100.0 %
Extraction speed 11.3 X
Track quality 99.9 %
Test CRC 5A09CF2B
Copy CRC 5A09CF2B
Track not present in AccurateRip database
Copy OK


None of the tracks are present in the AccurateRip database

There were errors

End of status report

==== Log checksum 98559CB96EB05185060981AF79154698AB12BDC343C0777176DCF8E56DB867BF ====

V.A. – Extra Bachata (1998)


Download (no pass)

FLAC > Filesonic / Fileserve

MP3 320 CBR > Depositfiles / Filesonic