Subcategories

VA - 100 Best London Symphony Orchestra (2013) (6CD Box set) {Warner Classics}

Posted By: shamanicus
VA - 100 Best London Symphony Orchestra (2013) (6CD Box set) {Warner Classics}

VA - 100 Best London Symphony Orchestra (2013) (6CD Box set)
XLD Rip | FLAC (tracks+.cue, log) | Artwork | 2011 mb | MP3 CBR 320kbps | RAR | 1048 mb
Classical | Label: Warner Classics / 50999 4 33232 2 7

This 6CD set contains 100 tracks from the catalogues of EMI Records, EMI Classics and Virgin Classics of recordings by the London Symphony Orchestra under some of the world’s greatest conductors and with a number of famous soloists.

VA - 100 Best London Symphony Orchestra (2013) (6CD Box set) {Warner Classics}


The London Symphony Orchestra was created in 1904 as Britain’s first independent, self-governing orchestra and continues to this day as one of the finest orchestras in the world. It made its first recordings for HMV (the main predecessor of EMI Classics along with British Columbia) at Hayes, Middlesex, in 1913 by the technically very limited acoustic process and went on to record widely for both HMV and Columbia after electrical recording began in 1925.

VA - 100 Best London Symphony Orchestra (2013) (6CD Box set) {Warner Classics}


This collection covers recordings made since the advent of stereo in around 1956, the technological advance that made it possible for the full range and colour of orchestral performances to be captured on record and faithfully reproduced in the home.

VA - 100 Best London Symphony Orchestra (2013) (6CD Box set) {Warner Classics}


Among the conductors represented, the most widely recorded by EMI was André Previn, now Conductor Laureate of the orchestra. He was Principal Conductor of the London Symphony Orchestra from 1968 to 1979 and presided over the orchestra during what have become known as the 'glamorous years'. Charismatic, youthful and engaging, he brought the London Symphony Orchestra to a wide audience through many appearances on TV, including his regular series André Previn's Music Night. The programme heard here includes EMI’s first digital recording made in 1979 of Debussy’s Images conducted by Previn.

VA - 100 Best London Symphony Orchestra (2013) (6CD Box set) {Warner Classics}


Other popular London-based conductors heard here include Sir John Barbirolli, Sir Adrian Boult, Sir Colin Davis and Sir Charles Mackerras, while Aram Khachaturian, Krzysztof Penderecki and Sir William Walton are featured in landmark recordings of their own compositions. Guest conductors include Lamberto Gardelli, Eugen Jochum and Gennadi Rozhdestvensky.

The programme focuses mainly on symphonic repertoire, but there are extracts from other genres featuring famous soloists such as the cellist Steven Isserlis, the violinists Yehudi Menuhi and Dmitry Sitkovetsky, the pianist Michel Beroff and the mezzo-soprano Janet Baker.

Tracklist:

Disc 1 of 6 (17 / 1:18:08)

01. Symphony No. 5 in c minor Op. 67 - 1. Allegro con brio
02. Symphony No. 8 in F Op. 93 - II. Allegretto scherzando
03. Die Geschopfe des Prometheus Op. 4 - Overture
04. A Midsummer Night's Dream - Overture Op. 21
05. A Midsummer Night's Dream - Op. 61 - Scherzo
06. A Midsummer Night's Dream - Op. 61 - Nocturne
07. A Midsummer Night's Dream - Op. 61 - Wedding March
08. Symphony No. 1 in D Op. 24 'Classical'
09. The Nutcracker - Miniature Overture
10. The Nutcracker - March (Act I)
11. The Nutcracker - Divertissement (Act II) - Coffee (Arab Dance)
12. The Nutcracker - Divertissement (Act II) - Tea (Chinese Dance)
13. The Nutcracker - Divertissement (Act II) - Trepak (Russian Dance)
14. The Nutcracker - Divertissement (Act II) - Dance of the Reed Flutes
15. The Nutcracker - Pas de deux (Act II)
16. The Nutcracker - Dance of the Sugar-Plum Fairy (Act II)
17. The Nutcracker - Final Waltz and Apotheosis (Act II)


Disc 2 of 6 (16 / 1:13:38)

01. Swan Lake - Scene (Act II)
02. Swan Lake - Dance of the Little Swans (Act II)
03. Swan Lake - Pas de deux (Act II)
04. Swan Lake - Hungarian Dance: Csardas (Act III)
05. Swan Lake - Spanish Dance (Act III)
06. Hansel und Gretel - Overture
07. Parsifal - Prelude to Act III
08. Carmina Burana - Tanz
09. Turangalila Symphony - I. Introduction
10. Concert champetre - II. Sicilienne: Andante
11. I pini di Via Appia
12. Fantasia on 'Greensleeves'
13. By the Sleepy Lagoon
14. Symphony No. 8 in c minor Op. 65 - II. Allegretto
15. Adagio of Spartacus and Phrygia
16. Bolero - Conclusion


Disc 3 of 6 (17 / 1:19:00)

01. Raphsody in Blue - Beginning
02. Romeo and Juliet - Act I - No. 4 Morning Dance
03. Romeo and Juliet - Act I - No. 10 Juliet as a Young Girl
04. Romeo and Juliet - Act I - No. 13 Dance of the Knights
05. Romeo and Juliet - Act I - No. 19 Balcony Scene
06. Romeo and Juliet - Act II - No. 31 Folk Dance
07. Romeo and Juliet - Act III - No. 39 The last Farewell
08. Romeo and Juliet - Act III - No. 48 Morning Serenade
09. Romeo and Juliet - Act III - No. 52 Death of Juliet
10. Nimrod (Enigma Variations)
11. Satan's Dance of Triumph
12. Cello Concerto in e minor Op. 85 - III. Adagio
13. English Folk Song Suite - I. March (Seventeen Come Sunday)
14. Four Sea Interludes - Sunday Morning (Allegro spiritoso)
15. Violin Concerto No. 2 in g minor Op. 63 - III. Allegro ben marcato
16. Serenade in C for strings Op. 48 - II. Valse: Moderato
17. Marche slave Op. 31


Disc 4 of 6 (16 / 1:10:27)

01. Fidelio - Overture
02. Symphony No. 2 in D Op. 36 - III. Scherzo: Allergo & Trio
03. Symphony No. 3 in E-Flat Op. 55 'Eroica' - I. Allegro con brio (extract)
04. Sleeping Beauty - Waltz (Act I)
05. Sleeping Beauty - Rose Adagio (Act I)
06. Sleeping Beauty - Panorama (Act II)
07. Sleeping Beauty - Pas de deux - Introduction (Adagio)
08. Sleeping Beauty - Pas de deux - Variation I - Allegro Tempo di valse)
09. Sleeping Beauty - Pas de deux - Variation II (Andantino)
10. Sleeping Beauty - Pas de deux - Coda (Presto)
11. Sleeping Beauty - Pas de deux - Entree (Allegretto - Allegro moderato)
12. Sleeping Beauty - Pas de deux - Adagio (Andante non troppo)
13. Sleeping Beauty - Pas de deux - Coda (Allegro vivace)
14. Parsifal - Good Friday Music (Act III)
15. Parsifal - Transformation Music (Act III)
16. L'Apprenti sorcier


Disc 5 of 6 (17 / 1:12:53)

01. Candide - Overture
02. Gayaneh - Lezghinka
03. Gayaneh - Lullaby
04. Gayaneh - Sabre Dance
05. Gayaneh - Mountaineers
06. Images - II. Iberia - 3. Le matin d'un jour de fete
07. Daphnis et Chloe - Danse generale - Bacchanale
08. Concerto in G minor for organ, string orchestra and timpani - Tempo de l'Allegro initial
09. Sospiri Op. 70
10. The Planets - Jupiter
11. The Perfect Fool - I. Andante
12. The Perfect Fool - II. Dance of Spirits of Earth
13. The Perfect Fool - III. Dance of Spirits of Water
14. The Perfect Fool - IV. Dance of Spirits of Fire
15. Violin Concerto - II. Presto capriccioso alla napolitana & Trio - Canzonetta
16. The Protecting Veil - The Incarnation
17. Adagio for Strings Op. 11


Disc 6 of 6 (17 / 1:08:21)

01. Cinderella - Act 1 - No. 2 Dance with the Shawl
02. Cinderella - Act 1 - No. 12 Spring Fairy - No. 13 Summer Fairy
03. Cinderella - Act 1 - No. 14 Grasshoppers and Dragonflies
04. Cinderella - Act 1 - No. 15 Autumn Fairy - No. 16 Winter Fairy
05. Cinderella - Act 1 - No. 19 Cinderella's departure for the Ball
06. Cinderella - Act 2 - Duet of the Sisters with their Oranges
07. Cinderella - Act 2 - Pas de deux: The Prince and Cinderella
08. Fontane di Roma - La fontana di Valle Giulia all'alba
09. Fontane di Roma - La fontana del Tritone al mattino
10. Fontane di Roma - La fontana di Trevi al meriggio
11. Fontane di Roma - La fontana di Villa Medici al tramonto
12. Romanian Rhapsody No. 1 Op. 11
13. The Merrymakers - Miniature Overture
14. Where Corals Lie
15. Intermezzo: Dorabella (Enigma Variations)
16. Anaklasis for strings and percussion
17. Carmina Burana - O fortuna

VA - 100 Best London Symphony Orchestra (2013) (6CD Box set) {Warner Classics}


X Lossless Decoder version 20161007 (149.3)

XLD extraction logfile from 2016-12-23 18:19:28 -0800

London Symphony Orchestra / 100 Best London Symphony Orchestra

Used drive : HL-DT-ST DVDRAM GP60NB50 (revision PE00)
Media type : Pressed CD

Ripper mode : XLD Secure Ripper
Disable audio cache : OK for the drive with a cache less than 1375KiB
Make use of C2 pointers : NO
Read offset correction : 6
Max retry count : 20
Gap status : Analyzed, Appended (except HTOA)

TOC of the extracted CD
Track | Start | Length | Start sector | End sector
––––––––––––––––––––––––––––-
1 | 00:00:00 | 08:23:64 | 0 | 37788
2 | 08:23:64 | 04:26:24 | 37789 | 57762
3 | 12:50:13 | 05:11:13 | 57763 | 81100
4 | 18:01:26 | 12:34:51 | 81101 | 137701
5 | 30:36:02 | 04:54:64 | 137702 | 159815
6 | 35:30:66 | 07:16:25 | 159816 | 192540
7 | 42:47:16 | 05:16:54 | 192541 | 216294
8 | 48:03:70 | 04:12:45 | 216295 | 235239
9 | 52:16:40 | 03:29:28 | 235240 | 250942
10 | 55:45:68 | 02:27:53 | 250943 | 262020
11 | 58:13:46 | 03:13:22 | 262021 | 276517
12 | 61:26:68 | 01:06:73 | 276518 | 281540
13 | 62:33:66 | 01:07:09 | 281541 | 286574
14 | 63:41:00 | 02:20:23 | 286575 | 297097
15 | 66:01:23 | 04:58:34 | 297098 | 319481
16 | 70:59:57 | 02:10:45 | 319482 | 329276
17 | 73:10:27 | 04:57:31 | 329277 | 351582

AccurateRip Summary (DiscID: 00399365-02b31b2a-18124f11)
Track 01 : OK (v2, confidence 1/2)
Track 02 : OK (v2, confidence 1/2)
Track 03 : OK (v2, confidence 1/2)
Track 04 : OK (v2, confidence 1/2)
Track 05 : OK (v2, confidence 1/2)
Track 06 : OK (v2, confidence 1/2)
Track 07 : OK (v2, confidence 1/2)
Track 08 : OK (v2, confidence 1/2)
Track 09 : OK (v2, confidence 1/2)
Track 10 : OK (v2, confidence 1/2)
Track 11 : OK (v2, confidence 1/2)
Track 12 : OK (v2, confidence 1/2)
Track 13 : OK (v2, confidence 1/2)
Track 14 : OK (v2, confidence 1/2)
Track 15 : OK (v2, confidence 1/2)
Track 16 : OK (v2, confidence 1/2)
Track 17 : OK (v2, confidence 1/2)
->All tracks accurately ripped.

All Tracks
Album gain : -1.95 dB
Peak : 0.974823
Statistics
Read error : 0
Jitter error (maybe fixed) : 0
Retry sector count : 0
Damaged sector count : 0

Track 01
Filename : /Users/Shared/rips/LSO - Best 100 (6CD)/Disc 1 of 6/London Symphony Orchestra - 2013 - 100 Best London Symphony Orchestra [FLAC]/01 - Eugen Jochum & LSO - Ludwig van Beethoven - Symphony No. 5 in c minor Op. 67 - 1. Allegro con brio.flac
Pre-gap length : 00:02:00

Track gain : -1.83 dB
Peak : 0.974823
CRC32 hash (test run) : B110C466
CRC32 hash : B110C466
CRC32 hash (skip zero) : 6111ACF3
AccurateRip v1 signature : 6AAF87C7
AccurateRip v2 signature : FB755FC8
->Accurately ripped (v2, confidence 1/2)
Statistics
Read error : 0
Jitter error (maybe fixed) : 0
Retry sector count : 0
Damaged sector count : 0

Track 02
Filename : /Users/Shared/rips/LSO - Best 100 (6CD)/Disc 1 of 6/London Symphony Orchestra - 2013 - 100 Best London Symphony Orchestra [FLAC]/02 - Eugen Jochum & LSO - Ludwig van Beethoven - Symphony No. 8 in F Op. 93 - II. Allegretto scherzando.flac
Pre-gap length : 00:04:13

Track gain : 3.52 dB
Peak : 0.745514
CRC32 hash (test run) : F8C712A3
CRC32 hash : F8C712A3
CRC32 hash (skip zero) : 4163BEE0
AccurateRip v1 signature : 43C2DC0C
AccurateRip v2 signature : 95B7F1B8
->Accurately ripped (v2, confidence 1/2)
Statistics
Read error : 0
Jitter error (maybe fixed) : 0
Retry sector count : 0
Damaged sector count : 0

Track 03
Filename : /Users/Shared/rips/LSO - Best 100 (6CD)/Disc 1 of 6/London Symphony Orchestra - 2013 - 100 Best London Symphony Orchestra [FLAC]/03 - Eugen Jochum & LSO - Ludwig van Beethoven - Die Geschopfe des Prometheus Op. 4 - Overture.flac
Pre-gap length : 00:04:44

Track gain : -1.37 dB
Peak : 0.642517
CRC32 hash (test run) : 61899FD1
CRC32 hash : 61899FD1
CRC32 hash (skip zero) : 8FBDED5A
AccurateRip v1 signature : 7ACF09D6
AccurateRip v2 signature : C2F7798B
->Accurately ripped (v2, confidence 1/2)
Statistics
Read error : 0
Jitter error (maybe fixed) : 0
Retry sector count : 0
Damaged sector count : 0

Track 04
Filename : /Users/Shared/rips/LSO - Best 100 (6CD)/Disc 1 of 6/London Symphony Orchestra - 2013 - 100 Best London Symphony Orchestra [FLAC]/04 - Andre Previn & LSO - Felix Mendelssohn - A Midsummer Night's Dream - Overture Op. 21.flac
Pre-gap length : 00:03:53

Track gain : -1.68 dB
Peak : 0.881073
CRC32 hash (test run) : 0899A169
CRC32 hash : 0899A169
CRC32 hash (skip zero) : 849018A4
AccurateRip v1 signature : EE291F51
AccurateRip v2 signature : 4C2B0620
->Accurately ripped (v2, confidence 1/2)
Statistics
Read error : 0
Jitter error (maybe fixed) : 0
Retry sector count : 0
Damaged sector count : 0

Track 05
Filename : /Users/Shared/rips/LSO - Best 100 (6CD)/Disc 1 of 6/London Symphony Orchestra - 2013 - 100 Best London Symphony Orchestra [FLAC]/05 - Andre Previn & LSO - Felix Mendelssohn - A Midsummer Night's Dream - Op. 61 - Scherzo.flac

Track gain : 6.17 dB
Peak : 0.462494
CRC32 hash (test run) : 944730E8
CRC32 hash : 944730E8
CRC32 hash (skip zero) : 81B8A7E3
AccurateRip v1 signature : DFD2B5AE
AccurateRip v2 signature : 4A9C66C6
->Accurately ripped (v2, confidence 1/2)
Statistics
Read error : 0
Jitter error (maybe fixed) : 0
Retry sector count : 0
Damaged sector count : 0

Track 06
Filename : /Users/Shared/rips/LSO - Best 100 (6CD)/Disc 1 of 6/London Symphony Orchestra - 2013 - 100 Best London Symphony Orchestra [FLAC]/06 - Andre Previn & LSO - Felix Mendelssohn - A Midsummer Night's Dream - Op. 61 - Nocturne.flac

Track gain : 8.21 dB
Peak : 0.306213
CRC32 hash (test run) : 0EB7F2E9
CRC32 hash : 0EB7F2E9
CRC32 hash (skip zero) : BF719E26
AccurateRip v1 signature : 0AB06725
AccurateRip v2 signature : F3270DF7
->Accurately ripped (v2, confidence 1/2)
Statistics
Read error : 0
Jitter error (maybe fixed) : 0
Retry sector count : 0
Damaged sector count : 0

Track 07
Filename : /Users/Shared/rips/LSO - Best 100 (6CD)/Disc 1 of 6/London Symphony Orchestra - 2013 - 100 Best London Symphony Orchestra [FLAC]/07 - Andre Previn & LSO - Felix Mendelssohn - A Midsummer Night's Dream - Op. 61 - Wedding March.flac

Track gain : -2.53 dB
Peak : 0.845032
CRC32 hash (test run) : 52CC1A3C
CRC32 hash : 52CC1A3C
CRC32 hash (skip zero) : B4FE6877
AccurateRip v1 signature : 0C6DFFAB
AccurateRip v2 signature : 5E3859A8
->Accurately ripped (v2, confidence 1/2)
Statistics
Read error : 0
Jitter error (maybe fixed) : 0
Retry sector count : 0
Damaged sector count : 0

Track 08
Filename : /Users/Shared/rips/LSO - Best 100 (6CD)/Disc 1 of 6/London Symphony Orchestra - 2013 - 100 Best London Symphony Orchestra [FLAC]/08 - Andre Previn & LSO - Sergei Prokofiev - Symphony No. 1 in D Op. 24 'Classical'.flac
Pre-gap length : 00:04:52

Track gain : 0.75 dB
Peak : 0.801636
CRC32 hash (test run) : 33CC9B70
CRC32 hash : 33CC9B70
CRC32 hash (skip zero) : A4210FA9
AccurateRip v1 signature : C6A8A491
AccurateRip v2 signature : 98561824
->Accurately ripped (v2, confidence 1/2)
Statistics
Read error : 0
Jitter error (maybe fixed) : 0
Retry sector count : 0
Damaged sector count : 0

Track 09
Filename : /Users/Shared/rips/LSO - Best 100 (6CD)/Disc 1 of 6/London Symphony Orchestra - 2013 - 100 Best London Symphony Orchestra [FLAC]/09 - Andre Previn & LSO - Pyotr Ilyich Tchaikovsky - The Nutcracker - Miniature Overture.flac
Pre-gap length : 00:04:04

Track gain : 2.93 dB
Peak : 0.517120
CRC32 hash (test run) : 16B65289
CRC32 hash : 16B65289
CRC32 hash (skip zero) : 685C1150
AccurateRip v1 signature : 81339E6D
AccurateRip v2 signature : 8561DC7E
->Accurately ripped (v2, confidence 1/2)
Statistics
Read error : 0
Jitter error (maybe fixed) : 0
Retry sector count : 0
Damaged sector count : 0

Track 10
Filename : /Users/Shared/rips/LSO - Best 100 (6CD)/Disc 1 of 6/London Symphony Orchestra - 2013 - 100 Best London Symphony Orchestra [FLAC]/10 - Andre Previn & LSO - Pyotr Ilyich Tchaikovsky - The Nutcracker - March (Act I).flac
Pre-gap length : 00:01:25

Track gain : -0.95 dB
Peak : 0.619843
CRC32 hash (test run) : 13BD4231
CRC32 hash : 13BD4231
CRC32 hash (skip zero) : 8128AC69
AccurateRip v1 signature : 56F6E4A0
AccurateRip v2 signature : 9D762588
->Accurately ripped (v2, confidence 1/2)
Statistics
Read error : 0
Jitter error (maybe fixed) : 0
Retry sector count : 0
Damaged sector count : 0

Track 11
Filename : /Users/Shared/rips/LSO - Best 100 (6CD)/Disc 1 of 6/London Symphony Orchestra - 2013 - 100 Best London Symphony Orchestra [FLAC]/11 - Andre Previn & LSO - Pyotr Ilyich Tchaikovsky - The Nutcracker - Divertissement (Act II) - Coffee (Arab Dance).flac
Pre-gap length : 00:02:41

Track gain : 10.31 dB
Peak : 0.255737
CRC32 hash (test run) : 32DCA0B4
CRC32 hash : 32DCA0B4
CRC32 hash (skip zero) : 1D935DFA
AccurateRip v1 signature : 91F97876
AccurateRip v2 signature : C70CA6E8
->Accurately ripped (v2, confidence 1/2)
Statistics
Read error : 0
Jitter error (maybe fixed) : 0
Retry sector count : 0
Damaged sector count : 0

Track 12
Filename : /Users/Shared/rips/LSO - Best 100 (6CD)/Disc 1 of 6/London Symphony Orchestra - 2013 - 100 Best London Symphony Orchestra [FLAC]/12 - Andre Previn & LSO - Pyotr Ilyich Tchaikovsky - The Nutcracker - Divertissement (Act II) - Tea (Chinese Dance).flac

Track gain : 4.36 dB
Peak : 0.363037
CRC32 hash (test run) : 5AA9B508
CRC32 hash : 5AA9B508
CRC32 hash (skip zero) : 7079E10C
AccurateRip v1 signature : 13E9F52A
AccurateRip v2 signature : 31D3E759
->Accurately ripped (v2, confidence 1/2)
Statistics
Read error : 0
Jitter error (maybe fixed) : 0
Retry sector count : 0
Damaged sector count : 0

Track 13
Filename : /Users/Shared/rips/LSO - Best 100 (6CD)/Disc 1 of 6/London Symphony Orchestra - 2013 - 100 Best London Symphony Orchestra [FLAC]/13 - Andre Previn & LSO - Pyotr Ilyich Tchaikovsky - The Nutcracker - Divertissement (Act II) - Trepak (Russian Dance).flac

Track gain : -4.08 dB
Peak : 0.774597
CRC32 hash (test run) : 920DE890
CRC32 hash : 920DE890
CRC32 hash (skip zero) : 37DE4A4C
AccurateRip v1 signature : 4A13BF79
AccurateRip v2 signature : D77CCA98
->Accurately ripped (v2, confidence 1/2)
Statistics
Read error : 0
Jitter error (maybe fixed) : 0
Retry sector count : 0
Damaged sector count : 0

Track 14
Filename : /Users/Shared/rips/LSO - Best 100 (6CD)/Disc 1 of 6/London Symphony Orchestra - 2013 - 100 Best London Symphony Orchestra [FLAC]/14 - Andre Previn & LSO - Pyotr Ilyich Tchaikovsky - The Nutcracker - Divertissement (Act II) - Dance of the Reed Flutes.flac

Track gain : 4.69 dB
Peak : 0.414581
CRC32 hash (test run) : ACA9823A
CRC32 hash : ACA9823A
CRC32 hash (skip zero) : BE1DEB52
AccurateRip v1 signature : 4AFE2668
AccurateRip v2 signature : 55F6A5A3
->Accurately ripped (v2, confidence 1/2)
Statistics
Read error : 0
Jitter error (maybe fixed) : 0
Retry sector count : 0
Damaged sector count : 0

Track 15
Filename : /Users/Shared/rips/LSO - Best 100 (6CD)/Disc 1 of 6/London Symphony Orchestra - 2013 - 100 Best London Symphony Orchestra [FLAC]/15 - Andre Previn & LSO - Pyotr Ilyich Tchaikovsky - The Nutcracker - Pas de deux (Act II).flac
Pre-gap length : 00:02:46

Track gain : -5.19 dB
Peak : 0.941193
CRC32 hash (test run) : CAA5991D
CRC32 hash : CAA5991D
CRC32 hash (skip zero) : 75953B8F
AccurateRip v1 signature : 14C7B46C
AccurateRip v2 signature : FF5747FD
->Accurately ripped (v2, confidence 1/2)
Statistics
Read error : 0
Jitter error (maybe fixed) : 0
Retry sector count : 0
Damaged sector count : 0

Track 16
Filename : /Users/Shared/rips/LSO - Best 100 (6CD)/Disc 1 of 6/London Symphony Orchestra - 2013 - 100 Best London Symphony Orchestra [FLAC]/16 - Andre Previn & LSO - Pyotr Ilyich Tchaikovsky - The Nutcracker - Dance of the Sugar-Plum Fairy (Act II).flac

Track gain : 10.04 dB
Peak : 0.397858
CRC32 hash (test run) : 68365ABD
CRC32 hash : 68365ABD
CRC32 hash (skip zero) : 054A6336
AccurateRip v1 signature : CE69692A
AccurateRip v2 signature : B50481A6
->Accurately ripped (v2, confidence 1/2)
Statistics
Read error : 0
Jitter error (maybe fixed) : 0
Retry sector count : 0
Damaged sector count : 0

Track 17
Filename : /Users/Shared/rips/LSO - Best 100 (6CD)/Disc 1 of 6/London Symphony Orchestra - 2013 - 100 Best London Symphony Orchestra [FLAC]/17 - Andre Previn & LSO - Pyotr Ilyich Tchaikovsky - The Nutcracker - Final Waltz and Apotheosis (Act II).flac

Track gain : -3.34 dB
Peak : 0.850403
CRC32 hash (test run) : 7E73A2D6
CRC32 hash : 7E73A2D6
CRC32 hash (skip zero) : 5BB232CA
AccurateRip v1 signature : 9043C67E
AccurateRip v2 signature : 58A0BE35
->Accurately ripped (v2, confidence 1/2)
Statistics
Read error : 0
Jitter error (maybe fixed) : 0
Retry sector count : 0
Damaged sector count : 0

No errors occurred

End of status report

––-BEGIN XLD SIGNATURE––-
SeZaGLo2YZrG.nYXrs4woP0aSg3BlaH.HnpX4vaV0PfpTNKOkgDkmGVH9OwZPp.6Fmr2_HDaXrki6cF_B79PQVDVfXX5e5bfsHe5hvi
––-END XLD SIGNATURE––-

X Lossless Decoder version 20161007 (149.3)

XLD extraction logfile from 2016-12-23 18:31:37 -0800

London Symphony Orchestra / 100 Best London Symphony Orchestra

Used drive : TSSTcorp CDDVDW SH-S202N (revision SB02)
Media type : Pressed CD

Ripper mode : XLD Secure Ripper
Disable audio cache : OK for the drive with a cache less than 1375KiB
Make use of C2 pointers : NO
Read offset correction : 6
Max retry count : 20
Gap status : Analyzed, Appended (except HTOA)

TOC of the extracted CD
Track | Start | Length | Start sector | End sector
––––––––––––––––––––––––––––-
1 | 00:00:00 | 02:51:35 | 0 | 12859
2 | 02:51:35 | 01:32:18 | 12860 | 19777
3 | 04:23:53 | 06:03:06 | 19778 | 47008
4 | 10:26:59 | 03:00:16 | 47009 | 60524
5 | 13:27:00 | 02:33:60 | 60525 | 72059
6 | 16:00:60 | 07:52:13 | 72060 | 107472
7 | 23:52:73 | 05:22:04 | 107473 | 131626
8 | 29:15:02 | 01:46:11 | 131627 | 139587
9 | 31:01:13 | 06:54:08 | 139588 | 170645
10 | 37:55:21 | 05:52:13 | 170646 | 197058
11 | 43:47:34 | 05:10:10 | 197059 | 220318
12 | 48:57:44 | 04:36:32 | 220319 | 241050
13 | 53:34:01 | 03:05:73 | 241051 | 254998
14 | 56:39:74 | 05:53:15 | 254999 | 281488
15 | 62:33:14 | 05:47:59 | 281489 | 307572
16 | 68:20:73 | 05:17:07 | 307573 | 331354

AccurateRip Summary (DiscID: 00279a53-01e950eb-e9114210)
Track 01 : OK (v2, confidence 1/2)
Track 02 : OK (v2, confidence 1/2)
Track 03 : OK (v2, confidence 1/2)
Track 04 : OK (v2, confidence 1/2)
Track 05 : OK (v2, confidence 1/2)
Track 06 : OK (v2, confidence 1/2)
Track 07 : OK (v2, confidence 1/2)
Track 08 : OK (v2, confidence 1/2)
Track 09 : OK (v2, confidence 1/2)
Track 10 : OK (v2, confidence 1/2)
Track 11 : OK (v2, confidence 1/2)
Track 12 : OK (v2, confidence 1/2)
Track 13 : OK (v2, confidence 1/2)
Track 14 : OK (v2, confidence 1/2)
Track 15 : OK (v2, confidence 1/2)
Track 16 : OK (v2, confidence 1/2)
->All tracks accurately ripped.

All Tracks
Album gain : -1.42 dB
Peak : 0.999969
Statistics
Read error : 0
Jitter error (maybe fixed) : 0
Retry sector count : 0
Damaged sector count : 0

Track 01
Filename : /Users/Shared/rips/LSO - Best 100 (6CD)/Disc 2 of 6/London Symphony Orchestra - 2013 - 100 Best London Symphony Orchestra [FLAC]/01 - Andre Previn & LSO - Pyotr Ilyich Tchaikovsky - Swan Lake - Scene (Act II).flac
Pre-gap length : 00:02:00

Track gain : -3.19 dB
Peak : 0.883209
CRC32 hash (test run) : 30723161
CRC32 hash : 30723161
CRC32 hash (skip zero) : 9CADFC9B
AccurateRip v1 signature : 07BA8D48
AccurateRip v2 signature : BB4A5FC7
->Accurately ripped (v2, confidence 1/2)
Statistics
Read error : 0
Jitter error (maybe fixed) : 0
Retry sector count : 0
Damaged sector count : 0

Track 02
Filename : /Users/Shared/rips/LSO - Best 100 (6CD)/Disc 2 of 6/London Symphony Orchestra - 2013 - 100 Best London Symphony Orchestra [FLAC]/02 - Andre Previn & LSO - Pyotr Ilyich Tchaikovsky - Swan Lake - Dance of the Little Swans (Act II).flac
Pre-gap length : 00:01:25

Track gain : 12.62 dB
Peak : 0.719116
CRC32 hash (test run) : A1A079A1
CRC32 hash : A1A079A1
CRC32 hash (skip zero) : 9D97992C
AccurateRip v1 signature : 529F1D1B
AccurateRip v2 signature : 4B1A2029
->Accurately ripped (v2, confidence 1/2)
Statistics
Read error : 0
Jitter error (maybe fixed) : 0
Retry sector count : 0
Damaged sector count : 0

Track 03
Filename : /Users/Shared/rips/LSO - Best 100 (6CD)/Disc 2 of 6/London Symphony Orchestra - 2013 - 100 Best London Symphony Orchestra [FLAC]/03 - Andre Previn & LSO - Pyotr Ilyich Tchaikovsky - Swan Lake - Pas de deux (Act II).flac
Pre-gap length : 00:02:55

Track gain : 5.04 dB
Peak : 0.706787
CRC32 hash (test run) : 74AE1ECC
CRC32 hash : 74AE1ECC
CRC32 hash (skip zero) : 5B34F417
AccurateRip v1 signature : 1D4FF150
AccurateRip v2 signature : 1F76C228
->Accurately ripped (v2, confidence 1/2)
Statistics
Read error : 0
Jitter error (maybe fixed) : 0
Retry sector count : 0
Damaged sector count : 0

Track 04
Filename : /Users/Shared/rips/LSO - Best 100 (6CD)/Disc 2 of 6/London Symphony Orchestra - 2013 - 100 Best London Symphony Orchestra [FLAC]/04 - Andre Previn & LSO - Pyotr Ilyich Tchaikovsky - Swan Lake - Hungarian Dance - Csardas (Act III).flac
Pre-gap length : 00:02:70

Track gain : -1.18 dB
Peak : 0.995575
CRC32 hash (test run) : EA82D5E3
CRC32 hash : EA82D5E3
CRC32 hash (skip zero) : 0AF65E1D
AccurateRip v1 signature : 38FF0513
AccurateRip v2 signature : 77BB0FDB
->Accurately ripped (v2, confidence 1/2)
Statistics
Read error : 0
Jitter error (maybe fixed) : 0
Retry sector count : 0
Damaged sector count : 0

Track 05
Filename : /Users/Shared/rips/LSO - Best 100 (6CD)/Disc 2 of 6/London Symphony Orchestra - 2013 - 100 Best London Symphony Orchestra [FLAC]/05 - Andre Previn & LSO - Pyotr Ilyich Tchaikovsky - Swan Lake - Spanish Dance (Act III).flac
Pre-gap length : 00:02:67

Track gain : -0.66 dB
Peak : 0.930725
CRC32 hash (test run) : CB632CE8
CRC32 hash : CB632CE8
CRC32 hash (skip zero) : B78BDF74
AccurateRip v1 signature : A4EDB8D1
AccurateRip v2 signature : B6844337
->Accurately ripped (v2, confidence 1/2)
Statistics
Read error : 0
Jitter error (maybe fixed) : 0
Retry sector count : 0
Damaged sector count : 0

Track 06
Filename : /Users/Shared/rips/LSO - Best 100 (6CD)/Disc 2 of 6/London Symphony Orchestra - 2013 - 100 Best London Symphony Orchestra [FLAC]/06 - Andre Previn & LSO - Engelbert Humperdinck - Hansel und Gretel - Overture.flac
Pre-gap length : 00:01:55

Track gain : 2.38 dB
Peak : 0.830994
CRC32 hash (test run) : 536C9918
CRC32 hash : 536C9918
CRC32 hash (skip zero) : A9591D46
AccurateRip v1 signature : 33B21FE1
AccurateRip v2 signature : 3FEEC288
->Accurately ripped (v2, confidence 1/2)
Statistics
Read error : 0
Jitter error (maybe fixed) : 0
Retry sector count : 0
Damaged sector count : 0

Track 07
Filename : /Users/Shared/rips/LSO - Best 100 (6CD)/Disc 2 of 6/London Symphony Orchestra - 2013 - 100 Best London Symphony Orchestra [FLAC]/07 - Sir Adrian Boult & LSO - Richard Wagner - Parsifal - Prelude to Act III.flac
Pre-gap length : 00:06:02

Track gain : 0.48 dB
Peak : 0.590454
CRC32 hash (test run) : 3F59F39D
CRC32 hash : 3F59F39D
CRC32 hash (skip zero) : A0FCADFD
AccurateRip v1 signature : 6AA30348
AccurateRip v2 signature : 830B40E2
->Accurately ripped (v2, confidence 1/2)
Statistics
Read error : 0
Jitter error (maybe fixed) : 0
Retry sector count : 0
Damaged sector count : 0

Track 08
Filename : /Users/Shared/rips/LSO - Best 100 (6CD)/Disc 2 of 6/London Symphony Orchestra - 2013 - 100 Best London Symphony Orchestra [FLAC]/08 - Andre Previn & LSO Chorus - Carl Orff - Carmina Burana - Tanz.flac
Pre-gap length : 00:04:47

Track gain : -1.57 dB
Peak : 0.831085
CRC32 hash (test run) : 69604AD1
CRC32 hash : 69604AD1
CRC32 hash (skip zero) : 14CCA986
AccurateRip v1 signature : 42750748
AccurateRip v2 signature : 11AF2ADB
->Accurately ripped (v2, confidence 1/2)
Statistics
Read error : 0
Jitter error (maybe fixed) : 0
Retry sector count : 0
Damaged sector count : 0

Track 09
Filename : /Users/Shared/rips/LSO - Best 100 (6CD)/Disc 2 of 6/London Symphony Orchestra - 2013 - 100 Best London Symphony Orchestra [FLAC]/09 - Andre Previn, Michel Beroff, Jeanne Loriod, LSO - Olivier Messiaen - Turangalila Symphony - I. Introduction.flac
Pre-gap length : 00:02:49

Track gain : -1.94 dB
Peak : 0.910614
CRC32 hash (test run) : EDC2727B
CRC32 hash : EDC2727B
CRC32 hash (skip zero) : 81466D90
AccurateRip v1 signature : B849ED6F
AccurateRip v2 signature : 2A57FA18
->Accurately ripped (v2, confidence 1/2)
Statistics
Read error : 0
Jitter error (maybe fixed) : 0
Retry sector count : 0
Damaged sector count : 0

Track 10
Filename : /Users/Shared/rips/LSO - Best 100 (6CD)/Disc 2 of 6/London Symphony Orchestra - 2013 - 100 Best London Symphony Orchestra [FLAC]/10 - Andre Previn, Simon Preston, LSO - Francis Poulenc - Concert champetre - II. Sicilienne - Andante.flac
Pre-gap length : 00:04:21

Track gain : 3.31 dB
Peak : 0.790771
CRC32 hash (test run) : 20C440DA
CRC32 hash : 20C440DA
CRC32 hash (skip zero) : 162CF277
AccurateRip v1 signature : 8B7DB779
AccurateRip v2 signature : D5B07480
->Accurately ripped (v2, confidence 1/2)
Statistics
Read error : 0
Jitter error (maybe fixed) : 0
Retry sector count : 0
Damaged sector count : 0

Track 11
Filename : /Users/Shared/rips/LSO - Best 100 (6CD)/Disc 2 of 6/London Symphony Orchestra - 2013 - 100 Best London Symphony Orchestra [FLAC]/11 - Lamberto Gardelli & LSO - Ottorino Respighi - I pini di Via Appia.flac
Pre-gap length : 00:02:06

Track gain : -4.08 dB
Peak : 0.993835
CRC32 hash (test run) : F93E5CDF
CRC32 hash : F93E5CDF
CRC32 hash (skip zero) : FE95A4BF
AccurateRip v1 signature : 5665EAD2
AccurateRip v2 signature : 060E3FF3
->Accurately ripped (v2, confidence 1/2)
Statistics
Read error : 0
Jitter error (maybe fixed) : 0
Retry sector count : 0
Damaged sector count : 0

Track 12
Filename : /Users/Shared/rips/LSO - Best 100 (6CD)/Disc 2 of 6/London Symphony Orchestra - 2013 - 100 Best London Symphony Orchestra [FLAC]/12 - Sir Adrian Boult & LSO - Ralph Vaughan Williams - Fantasia on 'Greensleeves'.flac
Pre-gap length : 00:06:15

Track gain : 4.88 dB
Peak : 0.443909
CRC32 hash (test run) : 84E14453
CRC32 hash : 84E14453
CRC32 hash (skip zero) : 3C404643
AccurateRip v1 signature : 97C73383
AccurateRip v2 signature : D2A8B711
->Accurately ripped (v2, confidence 1/2)
Statistics
Read error : 0
Jitter error (maybe fixed) : 0
Retry sector count : 0
Damaged sector count : 0

Track 13
Filename : /Users/Shared/rips/LSO - Best 100 (6CD)/Disc 2 of 6/London Symphony Orchestra - 2013 - 100 Best London Symphony Orchestra [FLAC]/13 - Sir Charles Mackerras & LSO - Eric Coates - By the Sleepy Lagoon.flac
Pre-gap length : 00:03:47

Track gain : 5.04 dB
Peak : 0.391632
CRC32 hash (test run) : C9D935ED
CRC32 hash : C9D935ED
CRC32 hash (skip zero) : C2380649
AccurateRip v1 signature : 00CCDA30
AccurateRip v2 signature : 56CE6C3D
->Accurately ripped (v2, confidence 1/2)
Statistics
Read error : 0
Jitter error (maybe fixed) : 0
Retry sector count : 0
Damaged sector count : 0

Track 14
Filename : /Users/Shared/rips/LSO - Best 100 (6CD)/Disc 2 of 6/London Symphony Orchestra - 2013 - 100 Best London Symphony Orchestra [FLAC]/14 - Andre Previn & LSO - Dmitri Shostakovich - Symphony No. 8 in c minor Op. 65 - II. Allegretto.flac
Pre-gap length : 00:02:30

Track gain : -3.22 dB
Peak : 0.825104
CRC32 hash (test run) : 120D8456
CRC32 hash : 120D8456
CRC32 hash (skip zero) : D8D04A4E
AccurateRip v1 signature : 9C07E2BD
AccurateRip v2 signature : 982B7E2C
->Accurately ripped (v2, confidence 1/2)
Statistics
Read error : 0
Jitter error (maybe fixed) : 0
Retry sector count : 0
Damaged sector count : 0

Track 15
Filename : /Users/Shared/rips/LSO - Best 100 (6CD)/Disc 2 of 6/London Symphony Orchestra - 2013 - 100 Best London Symphony Orchestra [FLAC]/15 - Aram Khachaturian & LSO - Aram Khachaturian - Adagio of Spartacus and Phrygia.flac
Pre-gap length : 00:03:65

Track gain : -0.32 dB
Peak : 0.999969
CRC32 hash (test run) : D01CEEE6
CRC32 hash : D01CEEE6
CRC32 hash (skip zero) : 57F926FF
AccurateRip v1 signature : 95A16FE0
AccurateRip v2 signature : E19CBAE1
->Accurately ripped (v2, confidence 1/2)
Statistics
Read error : 0
Jitter error (maybe fixed) : 0
Retry sector count : 0
Damaged sector count : 0

Track 16
Filename : /Users/Shared/rips/LSO - Best 100 (6CD)/Disc 2 of 6/London Symphony Orchestra - 2013 - 100 Best London Symphony Orchestra [FLAC]/16 - Andre Previn - Maurice Ravel - Bolero - Conclusion.flac
Pre-gap length : 00:02:73

Track gain : -2.27 dB
Peak : 0.908203
CRC32 hash (test run) : B9379E27
CRC32 hash : B9379E27
CRC32 hash (skip zero) : 1E1BB282
AccurateRip v1 signature : C25AD4A8
AccurateRip v2 signature : B35A70F0
->Accurately ripped (v2, confidence 1/2)
Statistics
Read error : 0
Jitter error (maybe fixed) : 0
Retry sector count : 0
Damaged sector count : 0

No errors occurred

End of status report

––-BEGIN XLD SIGNATURE––-
rooFFICI.DXeQeXMrbZ7PyWbIXi6S.F30aqB9pBXKfeXmiMqKEQp1UpXax81z.t2tW1Hvy4n75jMfgmhkx32q5lIMU.iA1FVijMR8xS
––-END XLD SIGNATURE––-

X Lossless Decoder version 20161007 (149.3)

XLD extraction logfile from 2016-12-23 19:17:30 -0800

London Symphony Orchestra / 100 Best London Symphony Orchestra

Used drive : HL-DT-ST DVDRAM GP60NB50 (revision PE00)
Media type : Pressed CD

Ripper mode : XLD Secure Ripper
Disable audio cache : OK for the drive with a cache less than 1375KiB
Make use of C2 pointers : NO
Read offset correction : 6
Max retry count : 20
Gap status : Analyzed, Appended (except HTOA)

TOC of the extracted CD
Track | Start | Length | Start sector | End sector
––––––––––––––––––––––––––––-
1 | 00:00:00 | 05:22:10 | 0 | 24159
2 | 05:22:10 | 02:08:54 | 24160 | 33813
3 | 07:30:64 | 03:33:36 | 33814 | 49824
4 | 11:04:25 | 05:41:52 | 49825 | 75451
5 | 16:46:02 | 08:40:24 | 75452 | 114475
6 | 25:26:26 | 02:27:31 | 114476 | 125531
7 | 27:53:57 | 05:35:45 | 125532 | 150701
8 | 33:29:27 | 02:44:73 | 150702 | 163074
9 | 36:14:25 | 04:09:46 | 163075 | 181795
10 | 40:23:71 | 04:01:03 | 181796 | 199873
11 | 44:24:74 | 03:32:37 | 199874 | 215810
12 | 47:57:36 | 04:50:40 | 215811 | 237600
13 | 52:48:01 | 02:56:16 | 237601 | 250816
14 | 55:44:17 | 03:52:00 | 250817 | 268216
15 | 59:36:17 | 05:53:43 | 268217 | 294734
16 | 65:29:60 | 03:53:64 | 294735 | 312273
17 | 69:23:49 | 09:36:09 | 312274 | 355482

AccurateRip Summary (DiscID: 002e984c-024d4406-f5128311)
Track 01 : OK (v2, confidence 1/2)
Track 02 : OK (v2, confidence 1/2)
Track 03 : OK (v2, confidence 1/2)
Track 04 : OK (v2, confidence 1/2)
Track 05 : OK (v2, confidence 1/2)
Track 06 : OK (v2, confidence 1/2)
Track 07 : OK (v2, confidence 1/2)
Track 08 : OK (v2, confidence 1/2)
Track 09 : OK (v2, confidence 1/2)
Track 10 : OK (v2, confidence 1/2)
Track 11 : OK (v2, confidence 1/2)
Track 12 : OK (v2, confidence 1/2)
Track 13 : OK (v2, confidence 1/2)
Track 14 : OK (v2, confidence 1/2)
Track 15 : OK (v2, confidence 1/2)
Track 16 : OK (v2, confidence 1/2)
Track 17 : OK (v2, confidence 1/2)
->All tracks accurately ripped.

All Tracks
Album gain : -1.31 dB
Peak : 0.981110
Statistics
Read error : 0
Jitter error (maybe fixed) : 0
Retry sector count : 0
Damaged sector count : 0

Track 01
Filename : /Users/Shared/rips/LSO - Best 100 (6CD)/Disc 3 of 6/London Symphony Orchestra - 2013 - 100 Best London Symphony Orchestra [FLAC]/01 - Andre Previn, Gervase de Peyer, LSO - George Gershwin - Raphsody in Blue - Beginning.flac
Pre-gap length : 00:02:00

Track gain : -0.90 dB
Peak : 0.840302
CRC32 hash (test run) : 3FB60450
CRC32 hash : 3FB60450
CRC32 hash (skip zero) : 9E74CE69
AccurateRip v1 signature : CA370C5D
AccurateRip v2 signature : 29C65509
->Accurately ripped (v2, confidence 1/2)
Statistics
Read error : 0
Jitter error (maybe fixed) : 0
Retry sector count : 0
Damaged sector count : 0

Track 02
Filename : /Users/Shared/rips/LSO - Best 100 (6CD)/Disc 3 of 6/London Symphony Orchestra - 2013 - 100 Best London Symphony Orchestra [FLAC]/02 - Andre Previn, LSO - Sergei Prokofiev - Romeo and Juliet - Act I - No. 4 Morning Dance.flac
Pre-gap length : 00:04:29

Track gain : 0.70 dB
Peak : 0.620941
CRC32 hash (test run) : 7BB49924
CRC32 hash : 7BB49924
CRC32 hash (skip zero) : AB4D3B60
AccurateRip v1 signature : 69E8D54D
AccurateRip v2 signature : EA743AB1
->Accurately ripped (v2, confidence 1/2)
Statistics
Read error : 0
Jitter error (maybe fixed) : 0
Retry sector count : 0
Damaged sector count : 0

Track 03
Filename : /Users/Shared/rips/LSO - Best 100 (6CD)/Disc 3 of 6/London Symphony Orchestra - 2013 - 100 Best London Symphony Orchestra [FLAC]/03 - Andre Previn, LSO - Sergei Prokofiev - Romeo and Juliet - Act I - No. 10 Juliet as a Young Girl.flac
Pre-gap length : 00:03:59

Track gain : 8.91 dB
Peak : 0.428436
CRC32 hash (test run) : 8DACD027
CRC32 hash : 8DACD027
CRC32 hash (skip zero) : BBBC5235
AccurateRip v1 signature : 0D9A133C
AccurateRip v2 signature : 1B5EF576
->Accurately ripped (v2, confidence 1/2)
Statistics
Read error : 0
Jitter error (maybe fixed) : 0
Retry sector count : 0
Damaged sector count : 0

Track 04
Filename : /Users/Shared/rips/LSO - Best 100 (6CD)/Disc 3 of 6/London Symphony Orchestra - 2013 - 100 Best London Symphony Orchestra [FLAC]/04 - Andre Previn, LSO - Sergei Prokofiev - Romeo and Juliet - Act I - No. 13 Dance of the Knights.flac
Pre-gap length : 00:02:16

Track gain : 0.52 dB
Peak : 0.607391
CRC32 hash (test run) : A23AAF75
CRC32 hash : A23AAF75
CRC32 hash (skip zero) : 13AA9686
AccurateRip v1 signature : 9CD0D026
AccurateRip v2 signature : E8122F01
->Accurately ripped (v2, confidence 1/2)
Statistics
Read error : 0
Jitter error (maybe fixed) : 0
Retry sector count : 0
Damaged sector count : 0

Track 05
Filename : /Users/Shared/rips/LSO - Best 100 (6CD)/Disc 3 of 6/London Symphony Orchestra - 2013 - 100 Best London Symphony Orchestra [FLAC]/05 - Andre Previn, LSO - Sergei Prokofiev - Romeo and Juliet - Act I - No. 19 Balcony Scene.flac
Pre-gap length : 00:03:43

Track gain : 0.52 dB
Peak : 0.769836
CRC32 hash (test run) : 56AA9CDC
CRC32 hash : 56AA9CDC
CRC32 hash (skip zero) : 76C657BB
AccurateRip v1 signature : CDDDFC7D
AccurateRip v2 signature : 77AABDC7
->Accurately ripped (v2, confidence 1/2)
Statistics
Read error : 0
Jitter error (maybe fixed) : 0
Retry sector count : 0
Damaged sector count : 0

Track 06
Filename : /Users/Shared/rips/LSO - Best 100 (6CD)/Disc 3 of 6/London Symphony Orchestra - 2013 - 100 Best London Symphony Orchestra [FLAC]/06 - Andre Previn, LSO - Sergei Prokofiev - Romeo and Juliet - Act II - No. 31 Folk Dance.flac
Pre-gap length : 00:04:52

Track gain : -0.64 dB
Peak : 0.834625
CRC32 hash (test run) : 3FFD2731
CRC32 hash : 3FFD2731
CRC32 hash (skip zero) : 85315F8E
AccurateRip v1 signature : 4016E7B6
AccurateRip v2 signature : C13E6012
->Accurately ripped (v2, confidence 1/2)
Statistics
Read error : 0
Jitter error (maybe fixed) : 0
Retry sector count : 0
Damaged sector count : 0

Track 07
Filename : /Users/Shared/rips/LSO - Best 100 (6CD)/Disc 3 of 6/London Symphony Orchestra - 2013 - 100 Best London Symphony Orchestra [FLAC]/07 - Andre Previn, LSO - Sergei Prokofiev - Romeo and Juliet - Act III - No. 39 The last Farewell.flac
Pre-gap length : 00:03:38

Track gain : 6.98 dB
Peak : 0.339874
CRC32 hash (test run) : 077E6FCE
CRC32 hash : 077E6FCE
CRC32 hash (skip zero) : 1CD955AD
AccurateRip v1 signature : DB2FFE19
AccurateRip v2 signature : D2F68297
->Accurately ripped (v2, confidence 1/2)
Statistics
Read error : 0
Jitter error (maybe fixed) : 0
Retry sector count : 0
Damaged sector count : 0

Track 08
Filename : /Users/Shared/rips/LSO - Best 100 (6CD)/Disc 3 of 6/London Symphony Orchestra - 2013 - 100 Best London Symphony Orchestra [FLAC]/08 - Andre Previn, LSO - Sergei Prokofiev - Romeo and Juliet - Act III - No. 48 Morning Serenade.flac
Pre-gap length : 00:02:51

Track gain : 9.88 dB
Peak : 0.193970
CRC32 hash (test run) : 3168A603
CRC32 hash : 3168A603
CRC32 hash (skip zero) : CF0DAB7E
AccurateRip v1 signature : A1771CB4
AccurateRip v2 signature : AC53F654
->Accurately ripped (v2, confidence 1/2)
Statistics
Read error : 0
Jitter error (maybe fixed) : 0
Retry sector count : 0
Damaged sector count : 0

Track 09
Filename : /Users/Shared/rips/LSO - Best 100 (6CD)/Disc 3 of 6/London Symphony Orchestra - 2013 - 100 Best London Symphony Orchestra [FLAC]/09 - Andre Previn, LSO - Sergei Prokofiev - Romeo and Juliet - Act III - No. 52 Death of Juliet.flac
Pre-gap length : 00:03:29

Track gain : 0.22 dB
Peak : 0.598785
CRC32 hash (test run) : 7DD6A47F
CRC32 hash : 7DD6A47F
CRC32 hash (skip zero) : 019EF251
AccurateRip v1 signature : 2D1E81FD
AccurateRip v2 signature : 14E466AA
->Accurately ripped (v2, confidence 1/2)
Statistics
Read error : 0
Jitter error (maybe fixed) : 0
Retry sector count : 0
Damaged sector count : 0

Track 10
Filename : /Users/Shared/rips/LSO - Best 100 (6CD)/Disc 3 of 6/London Symphony Orchestra - 2013 - 100 Best London Symphony Orchestra [FLAC]/10 - Sir Adrian Boult, LSO - Edward Elgar - Nimrod (Enigma Variations).flac
Pre-gap length : 00:05:36

Track gain : -2.47 dB
Peak : 0.981110
CRC32 hash (test run) : 52D467FB
CRC32 hash : 52D467FB
CRC32 hash (skip zero) : 02CD7FB5
AccurateRip v1 signature : EA42C410
AccurateRip v2 signature : DF4587A1
->Accurately ripped (v2, confidence 1/2)
Statistics
Read error : 0
Jitter error (maybe fixed) : 0
Retry sector count : 0
Damaged sector count : 0

Track 11
Filename : /Users/Shared/rips/LSO - Best 100 (6CD)/Disc 3 of 6/London Symphony Orchestra - 2013 - 100 Best London Symphony Orchestra [FLAC]/11 - Sir Adrian Boult, LSO - Ralph Vaughan Williams - Satan's Dance of Triumph.flac
Pre-gap length : 00:06:04

Track gain : -1.73 dB
Peak : 0.886139
CRC32 hash (test run) : 5E74DCEA
CRC32 hash : 5E74DCEA
CRC32 hash (skip zero) : 5A4EAFCD
AccurateRip v1 signature : 1063CEC5
AccurateRip v2 signature : 33EB8CBF
->Accurately ripped (v2, confidence 1/2)
Statistics
Read error : 0
Jitter error (maybe fixed) : 0
Retry sector count : 0
Damaged sector count : 0

Track 12
Filename : /Users/Shared/rips/LSO - Best 100 (6CD)/Disc 3 of 6/London Symphony Orchestra - 2013 - 100 Best London Symphony Orchestra [FLAC]/12 - Richard Hickox, Steven Isserlis, LSO - Edward Elgar - Cello Concerto in e minor Op. 85 - III. Adagio.flac
Pre-gap length : 00:02:05

Track gain : 6.41 dB
Peak : 0.476349
CRC32 hash (test run) : 17DEDE37
CRC32 hash : 17DEDE37
CRC32 hash (skip zero) : 6C5150F6
AccurateRip v1 signature : 9A0ED443
AccurateRip v2 signature : C8C98B1E
->Accurately ripped (v2, confidence 1/2)
Statistics
Read error : 0
Jitter error (maybe fixed) : 0
Retry sector count : 0
Damaged sector count : 0

Track 13
Filename : /Users/Shared/rips/LSO - Best 100 (6CD)/Disc 3 of 6/London Symphony Orchestra - 2013 - 100 Best London Symphony Orchestra [FLAC]/13 - Sir Adrian Boult, LSO - Ralph Vaughan Williams - English FOlk Song Suite - I. March (Seventeen Come Sunday).flac
Pre-gap length : 00:03:48

Track gain : -3.03 dB
Peak : 0.848938
CRC32 hash (test run) : A63285EC
CRC32 hash : A63285EC
CRC32 hash (skip zero) : 02A5B0E6
AccurateRip v1 signature : F658B4FA
AccurateRip v2 signature : 7AB8C996
->Accurately ripped (v2, confidence 1/2)
Statistics
Read error : 0
Jitter error (maybe fixed) : 0
Retry sector count : 0
Damaged sector count : 0

Track 14
Filename : /Users/Shared/rips/LSO - Best 100 (6CD)/Disc 3 of 6/London Symphony Orchestra - 2013 - 100 Best London Symphony Orchestra [FLAC]/14 - Andre Previn, LSO - Benjamin Britten - Four Sea Interludes - Sunday Morning (Allegro spiritoso).flac
Pre-gap length : 00:04:44

Track gain : 1.76 dB
Peak : 0.612762
CRC32 hash (test run) : E1A2C973
CRC32 hash : E1A2C973
CRC32 hash (skip zero) : 2FF492E3
AccurateRip v1 signature : 3BC5D0B0
AccurateRip v2 signature : 6C90B998
->Accurately ripped (v2, confidence 1/2)
Statistics
Read error : 0
Jitter error (maybe fixed) : 0
Retry sector count : 0
Damaged sector count : 0

Track 15
Filename : /Users/Shared/rips/LSO - Best 100 (6CD)/Disc 3 of 6/London Symphony Orchestra - 2013 - 100 Best London Symphony Orchestra [FLAC]/15 - Sir Colin Davis, Dmitry Sitkovetsky, LSO - Sergei Prokofiev - Violin Concerto No. 2 in g minor Op. 63 - III. Allegro ben marcato.flac
Pre-gap length : 00:03:21

Track gain : 3.17 dB
Peak : 0.590027
CRC32 hash (test run) : 33F5593D
CRC32 hash : 33F5593D
CRC32 hash (skip zero) : 8C1D8DC4
AccurateRip v1 signature : C496B9B9
AccurateRip v2 signature : E85ED061
->Accurately ripped (v2, confidence 1/2)
Statistics
Read error : 0
Jitter error (maybe fixed) : 0
Retry sector count : 0
Damaged sector count : 0

Track 16
Filename : /Users/Shared/rips/LSO - Best 100 (6CD)/Disc 3 of 6/London Symphony Orchestra - 2013 - 100 Best London Symphony Orchestra [FLAC]/16 - Sir John Barbirolli, LSO - Pyotr Ilyich Tchaikovsky - Serenade in C for strings Op. 48 - II. Valse - Moderato.flac
Pre-gap length : 00:02:50

Track gain : 3.54 dB
Peak : 0.332336
CRC32 hash (test run) : EE325393
CRC32 hash : EE325393
CRC32 hash (skip zero) : 673F9E60
AccurateRip v1 signature : 99308108
AccurateRip v2 signature : 4D2A11D8
->Accurately ripped (v2, confidence 1/2)
Statistics
Read error : 0
Jitter error (maybe fixed) : 0
Retry sector count : 0
Damaged sector count : 0

Track 17
Filename : /Users/Shared/rips/LSO - Best 100 (6CD)/Disc 3 of 6/London Symphony Orchestra - 2013 - 100 Best London Symphony Orchestra [FLAC]/17 - Andre Previn, LSO - Pyotr Ilyich Tchaikovsky - Marche slave Op. 31.flac
Pre-gap length : 00:03:25

Track gain : -4.46 dB
Peak : 0.859406
CRC32 hash (test run) : 926E607C
CRC32 hash : 926E607C
CRC32 hash (skip zero) : 18393E30
AccurateRip v1 signature : 5600401D
AccurateRip v2 signature : 2D320EE8
->Accurately ripped (v2, confidence 1/2)
Statistics
Read error : 0
Jitter error (maybe fixed) : 0
Retry sector count : 0
Damaged sector count : 0

No errors occurred

End of status report

––-BEGIN XLD SIGNATURE––-
4vfTmSe4VlZ7.AqMuZ2JvbRf6ocXna9As_ZNEaGCeNVwdskq62g6z2SFdZPBhFKiiHieIti0gCrproN8LOs3x2GAoTPHLwXX0FeECWy
––-END XLD SIGNATURE––-

X Lossless Decoder version 20161007 (149.3)

XLD extraction logfile from 2016-12-23 19:44:54 -0800

London Symphony Orchestra / 100 Best London Symphony Orchestra

Used drive : TSSTcorp CDDVDW SH-S202N (revision SB02)
Media type : Pressed CD

Ripper mode : XLD Secure Ripper
Disable audio cache : OK for the drive with a cache less than 1375KiB
Make use of C2 pointers : NO
Read offset correction : 6
Max retry count : 20
Gap status : Analyzed, Appended (except HTOA)

TOC of the extracted CD
Track | Start | Length | Start sector | End sector
––––––––––––––––––––––––––––-
1 | 00:00:00 | 06:31:69 | 0 | 29393
2 | 06:31:69 | 04:06:73 | 29394 | 47916
3 | 10:38:67 | 06:29:41 | 47917 | 77132
4 | 17:08:33 | 05:00:41 | 77133 | 99673
5 | 22:08:74 | 06:15:72 | 99674 | 127870
6 | 28:24:71 | 04:04:24 | 127871 | 146194
7 | 32:29:20 | 02:02:10 | 146195 | 155354
8 | 34:31:30 | 00:57:45 | 155355 | 159674
9 | 35:29:00 | 00:46:69 | 159675 | 163193
10 | 36:15:69 | 01:27:73 | 163194 | 169791
11 | 37:43:67 | 01:42:05 | 169792 | 177446
12 | 39:25:72 | 04:39:70 | 177447 | 198441
13 | 44:05:67 | 01:26:26 | 198442 | 204917
14 | 45:32:18 | 08:50:35 | 204918 | 244702
15 | 54:22:53 | 04:45:16 | 244703 | 266093
16 | 59:07:69 | 11:19:42 | 266094 | 317060

AccurateRip Summary (DiscID: 00277121-01c7ddc0-d0108310)
Track 01 : OK (v2, confidence 1/2)
Track 02 : OK (v2, confidence 1/2)
Track 03 : OK (v2, confidence 1/2)
Track 04 : OK (v2, confidence 1/2)
Track 05 : OK (v2, confidence 1/2)
Track 06 : OK (v2, confidence 1/2)
Track 07 : OK (v2, confidence 1/2)
Track 08 : OK (v2, confidence 1/2)
Track 09 : OK (v2, confidence 1/2)
Track 10 : OK (v2, confidence 1/2)
Track 11 : OK (v2, confidence 1/2)
Track 12 : OK (v2, confidence 1/2)
Track 13 : OK (v2, confidence 1/2)
Track 14 : OK (v2, confidence 1/2)
Track 15 : OK (v2, confidence 1/2)
Track 16 : OK (v2, confidence 1/2)
->All tracks accurately ripped.

All Tracks
Album gain : -2.02 dB
Peak : 0.963165
Statistics
Read error : 0
Jitter error (maybe fixed) : 0
Retry sector count : 0
Damaged sector count : 0

Track 01
Filename : /Users/Shared/rips/LSO - Best 100 (6CD)/Disc 4 of 6/London Symphony Orchestra - 2013 - 100 Best London Symphony Orchestra [FLAC]/01 - Eugen Jochum, LSO - Ludwig van Beethoven - Fidelio - Overture.flac
Pre-gap length : 00:02:00

Track gain : -1.65 dB
Peak : 0.868866
CRC32 hash (test run) : 7007DEE0
CRC32 hash : 7007DEE0
CRC32 hash (skip zero) : E8FFFF77
AccurateRip v1 signature : 32987205
AccurateRip v2 signature : 4C2B982E
->Accurately ripped (v2, confidence 1/2)
Statistics
Read error : 0
Jitter error (maybe fixed) : 0
Retry sector count : 0
Damaged sector count : 0

Track 02
Filename : /Users/Shared/rips/LSO - Best 100 (6CD)/Disc 4 of 6/London Symphony Orchestra - 2013 - 100 Best London Symphony Orchestra [FLAC]/02 - Eugen Jochum, LSO - Ludwig van Beethoven - Symphony No. 2 in D Op. 36 - III. Scherzo - Allergo & Trio.flac
Pre-gap length : 00:03:23

Track gain : -0.77 dB
Peak : 0.871887
CRC32 hash (test run) : B417E865
CRC32 hash : B417E865
CRC32 hash (skip zero) : 25B395F2
AccurateRip v1 signature : 1C3C4644
AccurateRip v2 signature : DC367000
->Accurately ripped (v2, confidence 1/2)
Statistics
Read error : 0
Jitter error (maybe fixed) : 0
Retry sector count : 0
Damaged sector count : 0

Track 03
Filename : /Users/Shared/rips/LSO - Best 100 (6CD)/Disc 4 of 6/London Symphony Orchestra - 2013 - 100 Best London Symphony Orchestra [FLAC]/03 - Eugen Jochum, LSO - Ludwig van Beethoven - Symphony No. 3 in E-Flat Op. 55 'Eroica' - I. Allegro con brio (extract).flac
Pre-gap length : 00:04:50

Track gain : -0.29 dB
Peak : 0.781250
CRC32 hash (test run) : 791D3969
CRC32 hash : 791D3969
CRC32 hash (skip zero) : FE7CE37D
AccurateRip v1 signature : 4071CE2B
AccurateRip v2 signature : 07238D49
->Accurately ripped (v2, confidence 1/2)
Statistics
Read error : 0
Jitter error (maybe fixed) : 0
Retry sector count : 0
Damaged sector count : 0

Track 04
Filename : /Users/Shared/rips/LSO - Best 100 (6CD)/Disc 4 of 6/London Symphony Orchestra - 2013 - 100 Best London Symphony Orchestra [FLAC]/04 - Andre Previn, LSO - Pytor Ilyich Tchaikovsky - Sleeping Beauty - Waltz (Act I).flac
Pre-gap length : 00:03:74

Track gain : -1.40 dB
Peak : 0.821320
CRC32 hash (test run) : 593F164A
CRC32 hash : 593F164A
CRC32 hash (skip zero) : 8B99C30F
AccurateRip v1 signature : 9937B7DD
AccurateRip v2 signature : DBF05E94
->Accurately ripped (v2, confidence 1/2)
Statistics
Read error : 0
Jitter error (maybe fixed) : 0
Retry sector count : 0
Damaged sector count : 0

Track 05
Filename : /Users/Shared/rips/LSO - Best 100 (6CD)/Disc 4 of 6/London Symphony Orchestra - 2013 - 100 Best London Symphony Orchestra [FLAC]/05 - Andre Previn, LSO - Pytor Ilyich Tchaikovsky - Sleeping Beauty - Rose Adagio (Act I).flac
Pre-gap length : 00:01:07

Track gain : -3.87 dB
Peak : 0.963165
CRC32 hash (test run) : 647E55D5
CRC32 hash : 647E55D5
CRC32 hash (skip zero) : 808F5CD8
AccurateRip v1 signature : 3018E9D0
AccurateRip v2 signature : 50454AAB
->Accurately ripped (v2, confidence 1/2)
Statistics
Read error : 0
Jitter error (maybe fixed) : 0
Retry sector count : 0
Damaged sector count : 0

Track 06
Filename : /Users/Shared/rips/LSO - Best 100 (6CD)/Disc 4 of 6/London Symphony Orchestra - 2013 - 100 Best London Symphony Orchestra [FLAC]/06 - Andre Previn, LSO - Pytor Ilyich Tchaikovsky - Sleeping Beauty - Panorama (Act II).flac
Pre-gap length : 00:03:28

Track gain : 11.31 dB
Peak : 0.242645
CRC32 hash (test run) : 7A7C0D37
CRC32 hash : 7A7C0D37
CRC32 hash (skip zero) : DDCBCC8D
AccurateRip v1 signature : 623A86A9
AccurateRip v2 signature : F2F48838
->Accurately ripped (v2, confidence 1/2)
Statistics
Read error : 0
Jitter error (maybe fixed) : 0
Retry sector count : 0
Damaged sector count : 0

Track 07
Filename : /Users/Shared/rips/LSO - Best 100 (6CD)/Disc 4 of 6/London Symphony Orchestra - 2013 - 100 Best London Symphony Orchestra [FLAC]/07 - Andre Previn, LSO - Pytor Ilyich Tchaikovsky - Sleeping Beauty - Pas de deux - Introduction (Adagio).flac
Pre-gap length : 00:02:70

Track gain : 7.79 dB
Peak : 0.322937
CRC32 hash (test run) : FBD37262
CRC32 hash : FBD37262
CRC32 hash (skip zero) : 728C0A37
AccurateRip v1 signature : 3904C2AA
AccurateRip v2 signature : 52047A04
->Accurately ripped (v2, confidence 1/2)
Statistics
Read error : 0
Jitter error (maybe fixed) : 0
Retry sector count : 0
Damaged sector count : 0

Track 08
Filename : /Users/Shared/rips/LSO - Best 100 (6CD)/Disc 4 of 6/London Symphony Orchestra - 2013 - 100 Best London Symphony Orchestra [FLAC]/08 - Andre Previn, LSO - Pytor Ilyich Tchaikovsky - Sleeping Beauty - Pas de deux - Variation I - Allegro Tempo di valse).flac

Track gain : -0.43 dB
Peak : 0.557098
CRC32 hash (test run) : 13BF3DD8
CRC32 hash : 13BF3DD8
CRC32 hash (skip zero) : 3D88F6B9
AccurateRip v1 signature : 8F3AA654
AccurateRip v2 signature : AB7773EA
->Accurately ripped (v2, confidence 1/2)
Statistics
Read error : 0
Jitter error (maybe fixed) : 0
Retry sector count : 0
Damaged sector count : 0

Track 09
Filename : /Users/Shared/rips/LSO - Best 100 (6CD)/Disc 4 of 6/London Symphony Orchestra - 2013 - 100 Best London Symphony Orchestra [FLAC]/09 - Andre Previn, LSO - Pytor Ilyich Tchaikovsky - Sleeping Beauty - Pas de deux - Variation II (Andantino).flac

Track gain : 12.66 dB
Peak : 0.184753
CRC32 hash (test run) : E471C55A
CRC32 hash : E471C55A
CRC32 hash (skip zero) : 7074035A
AccurateRip v1 signature : 54206D68
AccurateRip v2 signature : 733BFCF6
->Accurately ripped (v2, confidence 1/2)
Statistics
Read error : 0
Jitter error (maybe fixed) : 0
Retry sector count : 0
Damaged sector count : 0

Track 10
Filename : /Users/Shared/rips/LSO - Best 100 (6CD)/Disc 4 of 6/London Symphony Orchestra - 2013 - 100 Best London Symphony Orchestra [FLAC]/10 - Andre Previn, LSO - Pytor Ilyich Tchaikovsky - Sleeping Beauty - Pas de deux - Coda (Presto).flac

Track gain : -0.32 dB
Peak : 0.673676
CRC32 hash (test run) : F4BD47BB
CRC32 hash : F4BD47BB
CRC32 hash (skip zero) : D5BE55BF
AccurateRip v1 signature : 5A5CA011
AccurateRip v2 signature : 173119F4
->Accurately ripped (v2, confidence 1/2)
Statistics
Read error : 0
Jitter error (maybe fixed) : 0
Retry sector count : 0
Damaged sector count : 0

Track 11
Filename : /Users/Shared/rips/LSO - Best 100 (6CD)/Disc 4 of 6/London Symphony Orchestra - 2013 - 100 Best London Symphony Orchestra [FLAC]/11 - Andre Previn, LSO - Pytor Ilyich Tchaikovsky - Sleeping Beauty - Pas de deux - Entree (Allegretto - Allegro moderato).flac
Pre-gap length : 00:04:05

Track gain : 0.18 dB
Peak : 0.854340
CRC32 hash (test run) : D10FBC8B
CRC32 hash : D10FBC8B
CRC32 hash (skip zero) : BBC39FD8
AccurateRip v1 signature : BFDAA580
AccurateRip v2 signature : 6B48E9BD
->Accurately ripped (v2, confidence 1/2)
Statistics
Read error : 0
Jitter error (maybe fixed) : 0
Retry sector count : 0
Damaged sector count : 0

Track 12
Filename : /Users/Shared/rips/LSO - Best 100 (6CD)/Disc 4 of 6/London Symphony Orchestra - 2013 - 100 Best London Symphony Orchestra [FLAC]/12 - Andre Previn, LSO - Pytor Ilyich Tchaikovsky - Sleeping Beauty - Pas de deux - Adagio (Andante non troppo).flac

Track gain : -4.35 dB
Peak : 0.860138
CRC32 hash (test run) : B26ADD47
CRC32 hash : B26ADD47
CRC32 hash (skip zero) : E480691E
AccurateRip v1 signature : EA68D15D
AccurateRip v2 signature : 81EF7B53
->Accurately ripped (v2, confidence 1/2)
Statistics
Read error : 0
Jitter error (maybe fixed) : 0
Retry sector count : 0
Damaged sector count : 0

Track 13
Filename : /Users/Shared/rips/LSO - Best 100 (6CD)/Disc 4 of 6/London Symphony Orchestra - 2013 - 100 Best London Symphony Orchestra [FLAC]/13 - Andre Previn, LSO - Pytor Ilyich Tchaikovsky - Sleeping Beauty - Pas de deux - Coda (Allegro vivace).flac

Track gain : -4.91 dB
Peak : 0.862091
CRC32 hash (test run) : 76C94030
CRC32 hash : 76C94030
CRC32 hash (skip zero) : BB1CC2D3
AccurateRip v1 signature : 133D135A
AccurateRip v2 signature : F4BAFE4E
->Accurately ripped (v2, confidence 1/2)
Statistics
Read error : 0
Jitter error (maybe fixed) : 0
Retry sector count : 0
Damaged sector count : 0

Track 14
Filename : /Users/Shared/rips/LSO - Best 100 (6CD)/Disc 4 of 6/London Symphony Orchestra - 2013 - 100 Best London Symphony Orchestra [FLAC]/14 - Sir Adrian Boult, LSO - Richard Wagner - Parsifal - Good Friday Music (Act III).flac
Pre-gap length : 00:05:28

Track gain : 1.55 dB
Peak : 0.687988
CRC32 hash (test run) : FB238479
CRC32 hash : FB238479
CRC32 hash (skip zero) : B9572F4C
AccurateRip v1 signature : A0FEB04A
AccurateRip v2 signature : 815BC425
->Accurately ripped (v2, confidence 1/2)
Statistics
Read error : 0
Jitter error (maybe fixed) : 0
Retry sector count : 0
Damaged sector count : 0

Track 15
Filename : /Users/Shared/rips/LSO - Best 100 (6CD)/Disc 4 of 6/London Symphony Orchestra - 2013 - 100 Best London Symphony Orchestra [FLAC]/15 - Sir Adrian Boult, LSO - Richard Wagner - Parsifal - Transformation Music (Act III).flac
Pre-gap length : 00:04:07

Track gain : -1.98 dB
Peak : 0.769958
CRC32 hash (test run) : 7680E080
CRC32 hash : 7680E080
CRC32 hash (skip zero) : 520AFCE1
AccurateRip v1 signature : 65A141B4
AccurateRip v2 signature : 9316D346
->Accurately ripped (v2, confidence 1/2)
Statistics
Read error : 0
Jitter error (maybe fixed) : 0
Retry sector count : 0
Damaged sector count : 0

Track 16
Filename : /Users/Shared/rips/LSO - Best 100 (6CD)/Disc 4 of 6/London Symphony Orchestra - 2013 - 100 Best London Symphony Orchestra [FLAC]/16 - Andre Previn, LSO - Paul Dukas - L'Apprenti sorcier.flac
Pre-gap length : 00:05:52

Track gain : -1.52 dB
Peak : 0.900879
CRC32 hash (test run) : F63C38E6
CRC32 hash : F63C38E6
CRC32 hash (skip zero) : 23D707D5
AccurateRip v1 signature : 435D93A1
AccurateRip v2 signature : 6DB357EA
->Accurately ripped (v2, confidence 1/2)
Statistics
Read error : 0
Jitter error (maybe fixed) : 0
Retry sector count : 0
Damaged sector count : 0

No errors occurred

End of status report

––-BEGIN XLD SIGNATURE––-
SY6vOuONxFXkAISnFQF7F.yH91G1UXhoI6hv5UYlNFFlsungRcvqhZJ4JSpyz9IuYYBk1dNm67yD9hIjPUGUmCWhL2hjr90rrgMZPcO
––-END XLD SIGNATURE––-

X Lossless Decoder version 20161007 (149.3)

XLD extraction logfile from 2017-01-02 23:16:38 +0100

伦敦交响乐团 / 伦敦交响乐团:百分百 Disc5

Used drive : OPTIARC DVD RW AD-5680H (revision 3AHB)
Media type : Pressed CD

Ripper mode : XLD Secure Ripper
Disable audio cache : OK for the drive with a cache less than 1375KiB
Make use of C2 pointers : NO
Read offset correction : 48
Max retry count : 20
Gap status : Analyzed, Appended

TOC of the extracted CD
Track | Start | Length | Start sector | End sector
––––––––––––––––––––––––––––-
1 | 00:00:00 | 04:17:69 | 0 | 19343
2 | 04:17:69 | 02:39:47 | 19344 | 31315
3 | 06:57:41 | 05:28:13 | 31316 | 55928
4 | 12:25:54 | 02:33:43 | 55929 | 67446
5 | 14:59:22 | 02:06:55 | 67447 | 76951
6 | 17:06:02 | 05:01:06 | 76952 | 99532
7 | 22:07:08 | 04:58:47 | 99533 | 121929
8 | 27:05:55 | 02:05:03 | 121930 | 131307
9 | 29:10:58 | 05:04:71 | 131308 | 154178
10 | 34:15:54 | 07:45:04 | 154179 | 189057
11 | 42:00:58 | 00:58:07 | 189058 | 193414
12 | 42:58:65 | 03:39:25 | 193415 | 209864
13 | 46:38:15 | 02:46:46 | 209865 | 222360
14 | 49:24:61 | 03:21:62 | 222361 | 237497
15 | 52:46:48 | 06:48:27 | 237498 | 268124
16 | 59:35:00 | 03:44:12 | 268125 | 284936
17 | 63:19:12 | 09:34:04 | 284937 | 327990

AccurateRip Summary (DiscID: 00291074-020ccc63-f2111511)
Track 01 : OK (v2, confidence 1/2)
Track 02 : OK (v2, confidence 1/2)
Track 03 : OK (v2, confidence 1/2)
Track 04 : OK (v2, confidence 1/2)
Track 05 : OK (v2, confidence 1/2)
Track 06 : OK (v2, confidence 1/2)
Track 07 : OK (v2, confidence 1/2)
Track 08 : OK (v2, confidence 1/2)
Track 09 : OK (v2, confidence 1/2)
Track 10 : OK (v2, confidence 1/2)
Track 11 : OK (v2, confidence 1/2)
Track 12 : OK (v2, confidence 1/2)
Track 13 : OK (v2, confidence 1/2)
Track 14 : OK (v2, confidence 1/2)
Track 15 : OK (v2, confidence 1/2)
Track 16 : OK (v2, confidence 1/2)
Track 17 : OK (v2, confidence 1/2)
->All tracks accurately ripped.

All Tracks
Album gain : -0.96 dB
Peak : 0.989014
Statistics
Read error : 0
Jitter error (maybe fixed) : 0
Retry sector count : 0
Damaged sector count : 0

Track 01
Filename : /Volumes/Stockage/CD-5/伦敦交响乐团 - 2013 - 伦敦交响乐团:百分百 Disc5 [FLAC]/01 - Overture 伯恩斯坦 《坎迪德 - 序曲》.flac
Pre-gap length : 00:02:00

Track gain : -2.10 dB
Peak : 0.819611
CRC32 hash (test run) : 033E53E5
CRC32 hash : 033E53E5
CRC32 hash (skip zero) : CAB9DA27
AccurateRip v1 signature : 63DA27BB
AccurateRip v2 signature : F14ADCF1
->Accurately ripped (v2, confidence 1/2)
Statistics
Read error : 0
Jitter error (maybe fixed) : 0
Retry sector count : 0
Damaged sector count : 0

Track 02
Filename : /Volumes/Stockage/CD-5/伦敦交响乐团 - 2013 - 伦敦交响乐团:百分百 Disc5 [FLAC]/02 - 哈恰图良 《加雅涅》 列斯津卡舞曲.flac
Pre-gap length : 00:04:65

Track gain : -3.40 dB
Peak : 0.989014
CRC32 hash (test run) : 78FFA0AE
CRC32 hash : 78FFA0AE
CRC32 hash (skip zero) : 6360A476
AccurateRip v1 signature : 4B63D250
AccurateRip v2 signature : 00E81541
->Accurately ripped (v2, confidence 1/2)
Statistics
Read error : 0
Jitter error (maybe fixed) : 0
Retry sector count : 0
Damaged sector count : 0

Track 03
Filename : /Volumes/Stockage/CD-5/伦敦交响乐团 - 2013 - 伦敦交响乐团:百分百 Disc5 [FLAC]/03 - 哈恰图良 《加雅涅》摇篮曲.flac
Pre-gap length : 00:02:15

Track gain : 5.99 dB
Peak : 0.390015
CRC32 hash (test run) : 1A5176C8
CRC32 hash : 1A5176C8
CRC32 hash (skip zero) : C3B29BF0
AccurateRip v1 signature : 11A01D1C
AccurateRip v2 signature : 2370190A
->Accurately ripped (v2, confidence 1/2)
Statistics
Read error : 0
Jitter error (maybe fixed) : 0
Retry sector count : 0
Damaged sector count : 0

Track 04
Filename : /Volumes/Stockage/CD-5/伦敦交响乐团 - 2013 - 伦敦交响乐团:百分百 Disc5 [FLAC]/04 - 哈恰图良 《加雅涅》马刀舞曲.flac

Track gain : -3.81 dB
Peak : 0.976074
CRC32 hash (test run) : C1FE49A3
CRC32 hash : C1FE49A3
CRC32 hash (skip zero) : 6A02084A
AccurateRip v1 signature : 7B0FC359
AccurateRip v2 signature : B6701FBF
->Accurately ripped (v2, confidence 1/2)
Statistics
Read error : 0
Jitter error (maybe fixed) : 0
Retry sector count : 0
Damaged sector count : 0

Track 05
Filename : /Volumes/Stockage/CD-5/伦敦交响乐团 - 2013 - 伦敦交响乐团:百分百 Disc5 [FLAC]/05 - 哈恰图良 《加雅涅》登山舞曲.flac

Track gain : -3.07 dB
Peak : 0.984436
CRC32 hash (test run) : 9686A38B
CRC32 hash : 9686A38B
CRC32 hash (skip zero) : D65FD9C2
AccurateRip v1 signature : A8BF7513
AccurateRip v2 signature : FB896E43
->Accurately ripped (v2, confidence 1/2)
Statistics
Read error : 0
Jitter error (maybe fixed) : 0
Retry sector count : 0
Damaged sector count : 0

Track 06
Filename : /Volumes/Stockage/CD-5/伦敦交响乐团 - 2013 - 伦敦交响乐团:百分百 Disc5 [FLAC]/06 - 德彪西 《意象集 – 节日之晨》.flac
Pre-gap length : 00:05:12

Track gain : 1.69 dB
Peak : 0.988495
CRC32 hash (test run) : C0BC6FED
CRC32 hash : C0BC6FED
CRC32 hash (skip zero) : 70652CCA
AccurateRip v1 signature : 0BA34E28
AccurateRip v2 signature : F739C190
->Accurately ripped (v2, confidence 1/2)
Statistics
Read error : 0
Jitter error (maybe fixed) : 0
Retry sector count : 0
Damaged sector count : 0

Track 07
Filename : /Volumes/Stockage/CD-5/伦敦交响乐团 - 2013 - 伦敦交响乐团:百分百 Disc5 [FLAC]/07 - 拉威尔 《达芙妮与克罗埃》.flac
Pre-gap length : 00:03:53

Track gain : -3.65 dB
Peak : 0.886719
CRC32 hash (test run) : A27107AA
CRC32 hash : A27107AA
CRC32 hash (skip zero) : 62151D85
AccurateRip v1 signature : 945E20D0
AccurateRip v2 signature : 26C3D6CE
->Accurately ripped (v2, confidence 1/2)
Statistics
Read error : 0
Jitter error (maybe fixed) : 0
Retry sector count : 0
Damaged sector count : 0

Track 08
Filename : /Volumes/Stockage/CD-5/伦敦交响乐团 - 2013 - 伦敦交响乐团:百分百 Disc5 [FLAC]/08 - 普朗克 《管风琴、弦乐与定音鼓协奏曲》.flac
Pre-gap length : 00:03:33

Track gain : 3.27 dB
Peak : 0.718170
CRC32 hash (test run) : 649C9140
CRC32 hash : 649C9140
CRC32 hash (skip zero) : E86A947F
AccurateRip v1 signature : 197CB511
AccurateRip v2 signature : EDFD079A
->Accurately ripped (v2, confidence 1/2)
Statistics
Read error : 0
Jitter error (maybe fixed) : 0
Retry sector count : 0
Damaged sector count : 0

Track 09
Filename : /Volumes/Stockage/CD-5/伦敦交响乐团 - 2013 - 伦敦交响乐团:百分百 Disc5 [FLAC]/09 - 埃尔加 《叹息》.flac
Pre-gap length : 00:05:14

Track gain : 8.61 dB
Peak : 0.304230
CRC32 hash (test run) : 8B2E4AFF
CRC32 hash : 8B2E4AFF
CRC32 hash (skip zero) : EB7C5BE6
AccurateRip v1 signature : DB8B2491
AccurateRip v2 signature : 35E7711A
->Accurately ripped (v2, confidence 1/2)
Statistics
Read error : 0
Jitter error (maybe fixed) : 0
Retry sector count : 0
Damaged sector count : 0

Track 10
Filename : /Volumes/Stockage/CD-5/伦敦交响乐团 - 2013 - 伦敦交响乐团:百分百 Disc5 [FLAC]/10 - 霍尔斯特 《行星组曲 – 木星》.flac
Pre-gap length : 00:04:69

Track gain : -0.35 dB
Peak : 0.988556
CRC32 hash (test run) : AC35DAEE
CRC32 hash : AC35DAEE
CRC32 hash (skip zero) : F5B1DC99
AccurateRip v1 signature : 5301E08E
AccurateRip v2 signature : 0F2711B3
->Accurately ripped (v2, confidence 1/2)
Statistics
Read error : 0
Jitter error (maybe fixed) : 0
Retry sector count : 0
Damaged sector count : 0

Track 11
Filename : /Volumes/Stockage/CD-5/伦敦交响乐团 - 2013 - 伦敦交响乐团:百分百 Disc5 [FLAC]/11 - 霍尔斯特《大笨蛋 – 芭蕾音乐》行板.flac
Pre-gap length : 00:04:22

Track gain : 2.98 dB
Peak : 0.439941
CRC32 hash (test run) : 9998F2D6
CRC32 hash : 9998F2D6
CRC32 hash (skip zero) : DE41B00A
AccurateRip v1 signature : E8C0BD3B
AccurateRip v2 signature : 0AF23961
->Accurately ripped (v2, confidence 1/2)
Statistics
Read error : 0
Jitter error (maybe fixed) : 0
Retry sector count : 0
Damaged sector count : 0

Track 12
Filename : /Volumes/Stockage/CD-5/伦敦交响乐团 - 2013 - 伦敦交响乐团:百分百 Disc5 [FLAC]/12 - 霍尔斯特《大笨蛋 – 芭蕾音乐》大地精神之舞.flac

Track gain : -0.93 dB
Peak : 0.697876
CRC32 hash (test run) : EA22C3C7
CRC32 hash : EA22C3C7
CRC32 hash (skip zero) : 0BB3EEEE
AccurateRip v1 signature : 3D780DDD
AccurateRip v2 signature : 0C04FF1F
->Accurately ripped (v2, confidence 1/2)
Statistics
Read error : 0
Jitter error (maybe fixed) : 0
Retry sector count : 0
Damaged sector count : 0

Track 13
Filename : /Volumes/Stockage/CD-5/伦敦交响乐团 - 2013 - 伦敦交响乐团:百分百 Disc5 [FLAC]/13 - 霍尔斯特《大笨蛋 – 芭蕾音乐》水之精神之舞(快板).flac

Track gain : 13.24 dB
Peak : 0.417206
CRC32 hash (test run) : 0BCF8A57
CRC32 hash : 0BCF8A57
CRC32 hash (skip zero) : FFBD112D
AccurateRip v1 signature : F140559E
AccurateRip v2 signature : 6D9C0AD6
->Accurately ripped (v2, confidence 1/2)
Statistics
Read error : 0
Jitter error (maybe fixed) : 0
Retry sector count : 0
Damaged sector count : 0

Track 14
Filename : /Volumes/Stockage/CD-5/伦敦交响乐团 - 2013 - 伦敦交响乐团:百分百 Disc5 [FLAC]/14 - 霍尔斯特《大笨蛋 – 芭蕾音乐》火之精神之舞(中速的快板).flac

Track gain : -1.55 dB
Peak : 0.678925
CRC32 hash (test run) : A4F983C9
CRC32 hash : A4F983C9
CRC32 hash (skip zero) : 6003734F
AccurateRip v1 signature : E02D9848
AccurateRip v2 signature : AD489BFD
->Accurately ripped (v2, confidence 1/2)
Statistics
Read error : 0
Jitter error (maybe fixed) : 0
Retry sector count : 0
Damaged sector count : 0

Track 15
Filename : /Volumes/Stockage/CD-5/伦敦交响乐团 - 2013 - 伦敦交响乐团:百分百 Disc5 [FLAC]/15 - 沃尔顿 《小提琴协奏曲》.flac
Pre-gap length : 00:04:12

Track gain : 3.91 dB
Peak : 0.488953
CRC32 hash (test run) : 7D39A778
CRC32 hash : 7D39A778
CRC32 hash (skip zero) : 1800EED8
AccurateRip v1 signature : A5607C0D
AccurateRip v2 signature : E7024475
->Accurately ripped (v2, confidence 1/2)
Statistics
Read error : 0
Jitter error (maybe fixed) : 0
Retry sector count : 0
Damaged sector count : 0

Track 16
Filename : /Volumes/Stockage/CD-5/伦敦交响乐团 - 2013 - 伦敦交响乐团:百分百 Disc5 [FLAC]/16 - 塔夫纳 《护纱 – 转世》.flac
Pre-gap length : 00:02:47

Track gain : 0.67 dB
Peak : 0.794281
CRC32 hash (test run) : 09DACD22
CRC32 hash : 09DACD22
CRC32 hash (skip zero) : 9138D0C8
AccurateRip v1 signature : B691C90D
AccurateRip v2 signature : 858F3ED8
->Accurately ripped (v2, confidence 1/2)
Statistics
Read error : 0
Jitter error (maybe fixed) : 0
Retry sector count : 0
Damaged sector count : 0

Track 17
Filename : /Volumes/Stockage/CD-5/伦敦交响乐团 - 2013 - 伦敦交响乐团:百分百 Disc5 [FLAC]/17 - 巴伯 《弦乐柔板》.flac
Pre-gap length : 00:02:22

Track gain : 4.84 dB
Peak : 0.391663
CRC32 hash (test run) : 43078EAC
CRC32 hash : 43078EAC
CRC32 hash (skip zero) : D510E336
AccurateRip v1 signature : 81EB162E
AccurateRip v2 signature : 022F462B
->Accurately ripped (v2, confidence 1/2)
Statistics
Read error : 0
Jitter error (maybe fixed) : 0
Retry sector count : 0
Damaged sector count : 0

No errors occurred

End of status report

––-BEGIN XLD SIGNATURE––-
CQQX8G._0VMMuZyxlfkvW4VAkRZZnQcJvwxR5RjV_otLzTbJl8idQTm7O2Yisx36Pw6HO9orm2XLqbLT23j.9SrzOMj0GB9ewP6I4TG
––-END XLD SIGNATURE––-

X Lossless Decoder version 20161007 (149.3)

XLD extraction logfile from 2016-12-23 22:14:44 -0800

London Symphony Orchestra / 100 Best London Symphony Orchestra

Used drive : TSSTcorp CDDVDW SH-S202N (revision SB02)
Media type : Pressed CD

Ripper mode : XLD Secure Ripper
Disable audio cache : OK for the drive with a cache less than 1375KiB
Make use of C2 pointers : NO
Read offset correction : 6
Max retry count : 20
Gap status : Analyzed, Appended (except HTOA)

TOC of the extracted CD
Track | Start | Length | Start sector | End sector
––––––––––––––––––––––––––––-
1 | 00:00:00 | 03:34:17 | 0 | 16066
2 | 03:34:17 | 03:10:00 | 16067 | 30316
3 | 06:44:17 | 00:51:55 | 30317 | 34196
4 | 07:35:72 | 02:46:15 | 34197 | 46661
5 | 10:22:12 | 02:17:64 | 46662 | 57000
6 | 12:40:01 | 01:32:48 | 57001 | 63948
7 | 14:12:49 | 04:51:05 | 63949 | 85778
8 | 19:03:54 | 04:26:07 | 85779 | 105735
9 | 23:29:61 | 02:30:46 | 105736 | 117031
10 | 26:00:32 | 03:35:01 | 117032 | 133157
11 | 29:35:33 | 05:47:33 | 133158 | 159215
12 | 35:22:66 | 12:22:39 | 159216 | 214904
13 | 47:45:30 | 04:32:64 | 214905 | 235368
14 | 52:18:19 | 04:14:69 | 235369 | 254487
15 | 56:33:13 | 02:56:69 | 254488 | 267756
16 | 59:30:07 | 06:00:33 | 267757 | 294789
17 | 65:30:40 | 02:50:70 | 294790 | 307609

AccurateRip Summary (DiscID: 0024fce1-01eb6938-e5100511)
Track 01 : OK (v2, confidence 1/2)
Track 02 : OK (v2, confidence 1/2)
Track 03 : OK (v2, confidence 1/2)
Track 04 : OK (v2, confidence 1/2)
Track 05 : OK (v2, confidence 1/2)
Track 06 : OK (v2, confidence 1/2)
Track 07 : OK (v2, confidence 1/2)
Track 08 : OK (v2, confidence 1/2)
Track 09 : OK (v2, confidence 1/2)
Track 10 : OK (v2, confidence 1/2)
Track 11 : OK (v2, confidence 1/2)
Track 12 : OK (v2, confidence 1/2)
Track 13 : OK (v2, confidence 1/2)
Track 14 : OK (v2, confidence 1/2)
Track 15 : OK (v2, confidence 1/2)
Track 16 : OK (v2, confidence 1/2)
Track 17 : OK (v2, confidence 1/2)
->All tracks accurately ripped.

All Tracks
Album gain : -1.99 dB
Peak : 0.998779
Statistics
Read error : 0
Jitter error (maybe fixed) : 0
Retry sector count : 0
Damaged sector count : 0

Track 01
Filename : /Users/Shared/rips/LSO - Best 100 (6CD)/Disc 6 of 6/London Symphony Orchestra - 2013 - 100 Best London Symphony Orchestra [FLAC]/01 - Andre Previn, LSO - Sergei Prokofiev - Cinderella - Act 1 - No. 2 Dance with the Shawl.flac
Pre-gap length : 00:02:00

Track gain : 4.55 dB
Peak : 0.788147
CRC32 hash (test run) : DADF170E
CRC32 hash : DADF170E
CRC32 hash (skip zero) : DF678263
AccurateRip v1 signature : D88BF727
AccurateRip v2 signature : 8832F3FA
->Accurately ripped (v2, confidence 1/2)
Statistics
Read error : 0
Jitter error (maybe fixed) : 0
Retry sector count : 0
Damaged sector count : 0

Track 02
Filename : /Users/Shared/rips/LSO - Best 100 (6CD)/Disc 6 of 6/London Symphony Orchestra - 2013 - 100 Best London Symphony Orchestra [FLAC]/02 - Andre Previn, LSO - Sergei Prokofiev - Cinderella - Act 1 - No. 12 Spring Fairy - No. 13 Summer Fairy.flac
Pre-gap length : 00:03:03

Track gain : 6.25 dB
Peak : 0.645355
CRC32 hash (test run) : 7D69662E
CRC32 hash : 7D69662E
CRC32 hash (skip zero) : D107DC0D
AccurateRip v1 signature : EEF2E1EE
AccurateRip v2 signature : C40D8751
->Accurately ripped (v2, confidence 1/2)
Statistics
Read error : 0
Jitter error (maybe fixed) : 0
Retry sector count : 0
Damaged sector count : 0

Track 03
Filename : /Users/Shared/rips/LSO - Best 100 (6CD)/Disc 6 of 6/London Symphony Orchestra - 2013 - 100 Best London Symphony Orchestra [FLAC]/03 - Andre Previn, LSO - Sergei Prokofiev - Cinderella - Act 1 - No. 14 Grasshoppers and Dragonflies.flac

Track gain : -1.76 dB
Peak : 0.979553
CRC32 hash (test run) : 234FFD97
CRC32 hash : 234FFD97
CRC32 hash (skip zero) : 6A015F1E
AccurateRip v1 signature : B02047A0
AccurateRip v2 signature : 11651283
->Accurately ripped (v2, confidence 1/2)
Statistics
Read error : 0
Jitter error (maybe fixed) : 0
Retry sector count : 0
Damaged sector count : 0

Track 04
Filename : /Users/Shared/rips/LSO - Best 100 (6CD)/Disc 6 of 6/London Symphony Orchestra - 2013 - 100 Best London Symphony Orchestra [FLAC]/04 - Andre Previn, LSO - Sergei Prokofiev - Cinderella - Act 1 - No. 15 Autumn Fairy - No. 16 Winter Fairy.flac

Track gain : -0.36 dB
Peak : 0.851349
CRC32 hash (test run) : 2487CFB4
CRC32 hash : 2487CFB4
CRC32 hash (skip zero) : CEA4DD35
AccurateRip v1 signature : 98FC34D6
AccurateRip v2 signature : D826B17C
->Accurately ripped (v2, confidence 1/2)
Statistics
Read error : 0
Jitter error (maybe fixed) : 0
Retry sector count : 0
Damaged sector count : 0

Track 05
Filename : /Users/Shared/rips/LSO - Best 100 (6CD)/Disc 6 of 6/London Symphony Orchestra - 2013 - 100 Best London Symphony Orchestra [FLAC]/05 - Andre Previn, LSO - Sergei Prokofiev - Cinderella - Act 1 - No. 19 Cinderella's departure for the Ball.flac
Pre-gap length : 00:01:23

Track gain : -0.60 dB
Peak : 0.998779
CRC32 hash (test run) : 7D9DF80C
CRC32 hash : 7D9DF80C
CRC32 hash (skip zero) : 043B25CC
AccurateRip v1 signature : DBF3780C
AccurateRip v2 signature : C544E3CE
->Accurately ripped (v2, confidence 1/2)
Statistics
Read error : 0
Jitter error (maybe fixed) : 0
Retry sector count : 0
Damaged sector count : 0

Track 06
Filename : /Users/Shared/rips/LSO - Best 100 (6CD)/Disc 6 of 6/London Symphony Orchestra - 2013 - 100 Best London Symphony Orchestra [FLAC]/06 - Andre Previn, LSO - Sergei Prokofiev - Cinderella - Act 2 - Duet of the Sisters with their Oranges.flac
Pre-gap length : 00:02:68

Track gain : 1.82 dB
Peak : 0.647491
CRC32 hash (test run) : 8AFFA6A0
CRC32 hash : 8AFFA6A0
CRC32 hash (skip zero) : 754B8C4D
AccurateRip v1 signature : A715ED7F
AccurateRip v2 signature : 43E58BB0
->Accurately ripped (v2, confidence 1/2)
Statistics
Read error : 0
Jitter error (maybe fixed) : 0
Retry sector count : 0
Damaged sector count : 0

Track 07
Filename : /Users/Shared/rips/LSO - Best 100 (6CD)/Disc 6 of 6/London Symphony Orchestra - 2013 - 100 Best London Symphony Orchestra [FLAC]/07 - Andre Previn, LSO - Sergei Prokofiev - Cinderella - Act 2 - Pas de deux - The Prince and Cinderella.flac

Track gain : -0.29 dB
Peak : 0.919708
CRC32 hash (test run) : 6E4052F5
CRC32 hash : 6E4052F5
CRC32 hash (skip zero) : 76D6BAE8
AccurateRip v1 signature : BCE05A59
AccurateRip v2 signature : 680940C5
->Accurately ripped (v2, confidence 1/2)
Statistics
Read error : 0
Jitter error (maybe fixed) : 0
Retry sector count : 0
Damaged sector count : 0

Track 08
Filename : /Users/Shared/rips/LSO - Best 100 (6CD)/Disc 6 of 6/London Symphony Orchestra - 2013 - 100 Best London Symphony Orchestra [FLAC]/08 - Lamberto Gardelli, LSO - Ottorino Respighi - Fontane di Roma - La fontana di Valle Giulia all'alba.flac
Pre-gap length : 00:05:34

Track gain : 12.87 dB
Peak : 0.147400
CRC32 hash (test run) : FCA16D46
CRC32 hash : FCA16D46
CRC32 hash (skip zero) : A8D3D8A7
AccurateRip v1 signature : 44B46FB8
AccurateRip v2 signature : 4D25A165
->Accurately ripped (v2, confidence 1/2)
Statistics
Read error : 0
Jitter error (maybe fixed) : 0
Retry sector count : 0
Damaged sector count : 0

Track 09
Filename : /Users/Shared/rips/LSO - Best 100 (6CD)/Disc 6 of 6/London Symphony Orchestra - 2013 - 100 Best London Symphony Orchestra [FLAC]/09 - Lamberto Gardelli, LSO - Ottorino Respighi - Fontane di Roma - La fontana del Tritone al mattino.flac

Track gain : -3.61 dB
Peak : 0.912323
CRC32 hash (test run) : ECC1F376
CRC32 hash : ECC1F376
CRC32 hash (skip zero) : ED6F66EC
AccurateRip v1 signature : 0CF1BBA9
AccurateRip v2 signature : ED6D128B
->Accurately ripped (v2, confidence 1/2)
Statistics
Read error : 0
Jitter error (maybe fixed) : 0
Retry sector count : 0
Damaged sector count : 0

Track 10
Filename : /Users/Shared/rips/LSO - Best 100 (6CD)/Disc 6 of 6/London Symphony Orchestra - 2013 - 100 Best London Symphony Orchestra [FLAC]/10 - Lamberto Gardelli, LSO - Ottorino Respighi - Fontane di Roma - La fontana di Trevi al meriggio.flac

Track gain : -5.10 dB
Peak : 0.998596
CRC32 hash (test run) : 04A6D958
CRC32 hash : 04A6D958
CRC32 hash (skip zero) : 614F94A7
AccurateRip v1 signature : D84924FE
AccurateRip v2 signature : 4BAC7C70
->Accurately ripped (v2, confidence 1/2)
Statistics
Read error : 0
Jitter error (maybe fixed) : 0
Retry sector count : 0
Damaged sector count : 0

Track 11
Filename : /Users/Shared/rips/LSO - Best 100 (6CD)/Disc 6 of 6/London Symphony Orchestra - 2013 - 100 Best London Symphony Orchestra [FLAC]/11 - Lamberto Gardelli, LSO - Ottorino Respighi - Fontane di Roma - La fontana di Villa Medici al tramonto.flac

Track gain : 12.19 dB
Peak : 0.340393
CRC32 hash (test run) : F1F16A74
CRC32 hash : F1F16A74
CRC32 hash (skip zero) : A8F6B76A
AccurateRip v1 signature : 25E97EA9
AccurateRip v2 signature : CAEEE5E2
->Accurately ripped (v2, confidence 1/2)
Statistics
Read error : 0
Jitter error (maybe fixed) : 0
Retry sector count : 0
Damaged sector count : 0

Track 12
Filename : /Users/Shared/rips/LSO - Best 100 (6CD)/Disc 6 of 6/London Symphony Orchestra - 2013 - 100 Best London Symphony Orchestra [FLAC]/12 - Andre Previn, LSO - George Enescu - Romanian Rhapsody No. 1 Op. 11.flac
Pre-gap length : 00:02:12

Track gain : 0.53 dB
Peak : 0.693695
CRC32 hash (test run) : 9846C152
CRC32 hash : 9846C152
CRC32 hash (skip zero) : 9B1B5CBD
AccurateRip v1 signature : 677D27A4
AccurateRip v2 signature : 4376F129
->Accurately ripped (v2, confidence 1/2)
Statistics
Read error : 0
Jitter error (maybe fixed) : 0
Retry sector count : 0
Damaged sector count : 0

Track 13
Filename : /Users/Shared/rips/LSO - Best 100 (6CD)/Disc 6 of 6/London Symphony Orchestra - 2013 - 100 Best London Symphony Orchestra [FLAC]/13 - Sir Charles Mackerras, LSO - Eric Coates - The Merrymakers - Miniature Overture.flac
Pre-gap length : 00:04:11

Track gain : -0.53 dB
Peak : 0.764984
CRC32 hash (test run) : 8A0B6A02
CRC32 hash : 8A0B6A02
CRC32 hash (skip zero) : 1BFD69D4
AccurateRip v1 signature : E609D98A
AccurateRip v2 signature : 3F988813
->Accurately ripped (v2, confidence 1/2)
Statistics
Read error : 0
Jitter error (maybe fixed) : 0
Retry sector count : 0
Damaged sector count : 0

Track 14
Filename : /Users/Shared/rips/LSO - Best 100 (6CD)/Disc 6 of 6/London Symphony Orchestra - 2013 - 100 Best London Symphony Orchestra [FLAC]/14 - Sir John Barbirolli, Dame Janet Baker, LSO - Edward Elgar - Where Corals Lie.flac
Pre-gap length : 00:03:11

Track gain : 1.92 dB
Peak : 0.405548
CRC32 hash (test run) : 07B1D4A8
CRC32 hash : 07B1D4A8
CRC32 hash (skip zero) : B1C3C258
AccurateRip v1 signature : 713CB858
AccurateRip v2 signature : 090CA219
->Accurately ripped (v2, confidence 1/2)
Statistics
Read error : 0
Jitter error (maybe fixed) : 0
Retry sector count : 0
Damaged sector count : 0

Track 15
Filename : /Users/Shared/rips/LSO - Best 100 (6CD)/Disc 6 of 6/London Symphony Orchestra - 2013 - 100 Best London Symphony Orchestra [FLAC]/15 - Sir Adrian Boult, LSO - Edward Elgar - Intermezzo - Dorabella (Enigma Variations).flac
Pre-gap length : 00:03:46

Track gain : 7.68 dB
Peak : 0.323059
CRC32 hash (test run) : 3D464F89
CRC32 hash : 3D464F89
CRC32 hash (skip zero) : 17879441
AccurateRip v1 signature : FF3845B9
AccurateRip v2 signature : 5603ED12
->Accurately ripped (v2, confidence 1/2)
Statistics
Read error : 0
Jitter error (maybe fixed) : 0
Retry sector count : 0
Damaged sector count : 0

Track 16
Filename : /Users/Shared/rips/LSO - Best 100 (6CD)/Disc 6 of 6/London Symphony Orchestra - 2013 - 100 Best London Symphony Orchestra [FLAC]/16 - Krzysztof Penderecki, LSO - Krzysztof Penderecki - Anaklasis for strings and percussion.flac
Pre-gap length : 00:03:57

Track gain : -3.47 dB
Peak : 0.998291
CRC32 hash (test run) : 3C241A2B
CRC32 hash : 3C241A2B
CRC32 hash (skip zero) : EEBBF86E
AccurateRip v1 signature : 55920367
AccurateRip v2 signature : CA202903
->Accurately ripped (v2, confidence 1/2)
Statistics
Read error : 0
Jitter error (maybe fixed) : 0
Retry sector count : 0
Damaged sector count : 0

Track 17
Filename : /Users/Shared/rips/LSO - Best 100 (6CD)/Disc 6 of 6/London Symphony Orchestra - 2013 - 100 Best London Symphony Orchestra [FLAC]/17 - Andre Previn, LSO - Carl Orff - Carmina Burana - O fortuna.flac
Pre-gap length : 00:03:10

Track gain : -4.29 dB
Peak : 0.953033
CRC32 hash (test run) : 4B74F1B6
CRC32 hash : 4B74F1B6
CRC32 hash (skip zero) : D7968B45
AccurateRip v1 signature : 0FEF6D80
AccurateRip v2 signature : 2EB7A0A8
->Accurately ripped (v2, confidence 1/2)
Statistics
Read error : 0
Jitter error (maybe fixed) : 0
Retry sector count : 0
Damaged sector count : 0

No errors occurred

End of status report

––-BEGIN XLD SIGNATURE––-
JO2HB4xY.3hwkZ4oF2YQSMvgbOT4An43ZC1W5jI.aVyviD0Gy_BWIA8DGdQ7pn94YZGpVFlKGuD.d80T5mn34NxnkHWV8lf0sDKCMbW
––-END XLD SIGNATURE––-


Thanks to the Original customer.