Subcategories

Various Artists - The Alligator Records 25th Anniversary Collection (1996) {2CD Alligator Records ALCD 110-111}

Posted By: ruskaval
Various Artists - The Alligator Records 25th Anniversary Collection (1996) {2CD Alligator Records ALCD 110-111}

Various Artists - The Alligator Records 25th Anniversary Collection (1996) {2CD Alligator Records ALCD 110-111}
EAC rip (secure mode) | FLAC (tracks)+CUE+LOG -> 979 Mb | MP3 @320 -> 348 Mb
Full Artwork @ 600 dpi (jpg) -> 82 Mb | 5% repair rar
© 1996 Alligator Records | ALCD 110-111
Blues

This is a specially priced, two-CDs-for-the-price-of-one photo-cube set, loaded with great stuff from Charlie Musselwhite, Koko Taylor, Lonnie Brooks, Johnny Winter, Billy Boy Arnold, Lonnie Mack, and a host of others who have trotted their wares on the label over the years. Besides giving the novice one great introduction to the label (as the music runs from traditional to modern), the big bonus here is a treasure trove of previously unissued tracks from Roy Buchanan (a chaotic version of Link Wray's "Jack the Ripper"); Floyd Dixon (a recut of his Blues Brothers-approved hit "Hey Bartender"); Albert Collins and Johnny Copeland in a marvelous outtake from the Showdown! album ("Something to Remember You By"); and the band that started it all, Hound Dog Taylor & the Houserockers, with a crazed version of Elmore James' "Look on Yonder's Wall," as sloppy as it is cool. Very good stuff.
Various Artists - The Alligator Records 25th Anniversary Collection (1996) {2CD Alligator Records ALCD 110-111}


Alligator Records review

tracklist & personnel:
CD1

01 - Son Seals - Don't Pick Me for Your Fool
02 - James Cotton - Digging My Potatoes
03 - Albert Collins & Johnny Copeland - Something to Remember You By
04 - William Clarke - The Complainer's Boogie Woogie
05 - Charlie Musselwhite - Stingaree
06 - Lil' Ed & The Blues Imperials - It's Alright
07 - Clifton Chenier and His Red Hot Louisiana Band - Man Smart, Woman Smarter
08 - Maurice John Vaughn - I Want to Be Your Spy
09 - Floyd Dixon - Hey Bartender
10 - Eddie Shaw & The Wolf Gang - Sitting on Top of the World
11 - Cephas & Wiggins - Action Man
12 - Kenny Neal - Bayou Blood
13 - Long John Hunter - T-Bone Intentions
14 - Saffire, The Uppity Blues Women - T'aint Nobody's Business
15 - Lonnie Mack & Stevie Ray Vaughan - If You Have to Know
16 - Billy Boy Arnold - Been Gone Too Long
17 - Tinsley Ellis - A Quitter Never Wins
18 - Sugar Blue - I Ain't Got You
19 - Professor Longhair - Crawfish Fiesta

Various Artists - The Alligator Records 25th Anniversary Collection (1996) {2CD Alligator Records ALCD 110-111}


CD2
01 - Koko Taylor - Evil
02 - Lonnie Brooks - Got Lucky Last Night
03 - Bob Margolin - Blues Lover
04 - Little Charlie & The Nightcats - I Could Deal With It
05 - Luther Allison - Cherry Red Wine
06 - Katie Webster - Hard Lovin' Mama
07 - Elvin Bishop - She Puts Me in the Mood
08 - Cary Bell - Low Down Dirty Shame
09 - Lucky Peterson - Six O'clock Blues
10 - Dave Hole - Keep Your Motor Running
11 - Corey Harris - Roots Woman
12 - Michael Hill's Blues Mob - Can't Recall a Time
13 - Roy Buchanan with Delbert McClinton - Baby, Baby, Baby
14 - Roy Buchanan - Jack the Ripper
15 - Johnny Heartsman - The Sky Is Crying
16 - Johnny Winter - Love, Life and Money
17 - Hound Dog Taylor - Look on Yonder's Wall
18 - Fenton Robinson - Somebody Loan Me a Dime
19 - Clarence 'Gatemouth' Brown - We're Outta Here

Various Artists - The Alligator Records 25th Anniversary Collection (1996) {2CD Alligator Records ALCD 110-111}


Exact Audio Copy V1.0 beta 4 from 7. December 2014

EAC extraction logfile from 25. February 2015, 19:39

Various Artists / The Alligator Records: 25th Anniversary Collection (Disc 1)

Used drive : TSSTcorpCDDVDW SN-208FB Adapter: 1 ID: 0

Read mode : Secure
Utilize accurate stream : Yes
Defeat audio cache : Yes
Make use of C2 pointers : No

Read offset correction : 6
Overread into Lead-In and Lead-Out : No
Fill up missing offset samples with silence : Yes
Delete leading and trailing silent blocks : No
Null samples used in CRC calculations : Yes
Used interface : Native Win32 interface for Win NT & 2000
Gap handling : Appended to previous track

Used output format : User Defined Encoder
Selected bitrate : 1024 kBit/s
Quality : High
Add ID3 tag : No
Command line compressor : C:\Program Files (x86)\Kodeki za Glasbo\FLAC\flac.exe
Additional command line options : -8 -V -T "ARTIST=%artist%" -T "TITLE=%title%" -T "ALBUM=%albumtitle%" -T "DATE=%year%" -T "TRACKNUMBER=%tracknr%" -T "TOTALTRACKS=%numtracks%" -T "GENRE=%genre%" -T "ALBUMARTIST=%albumartist%" -T "ALBUM ARTIST=%albumartist%" -T "COMMENT=EAC Secure Mode, Test & Copy, AccurateRip, FLAC -8" %source%


TOC of the extracted CD

Track | Start | Length | Start sector | End sector
––––––––––––––––––––––––––––-
1 | 0:00.00 | 4:15.22 | 0 | 19146
2 | 4:15.22 | 3:38.73 | 19147 | 35569
3 | 7:54.20 | 5:26.50 | 35570 | 60069
4 | 13:20.70 | 4:52.55 | 60070 | 82024
5 | 18:13.50 | 2:54.27 | 82025 | 95101
6 | 21:08.02 | 4:46.03 | 95102 | 116554
7 | 25:54.05 | 3:01.72 | 116555 | 130201
8 | 28:56.02 | 5:35.05 | 130202 | 155331
9 | 34:31.07 | 3:24.48 | 155332 | 170679
10 | 37:55.55 | 3:41.05 | 170680 | 187259
11 | 41:36.60 | 1:53.70 | 187260 | 195804
12 | 43:30.55 | 3:14.40 | 195805 | 210394
13 | 46:45.20 | 3:08.60 | 210395 | 224554
14 | 49:54.05 | 4:12.20 | 224555 | 243474
15 | 54:06.25 | 4:31.12 | 243475 | 263811
16 | 58:37.37 | 2:54.10 | 263812 | 276871
17 | 61:31.47 | 6:10.55 | 276872 | 304676
18 | 67:42.27 | 2:37.08 | 304677 | 316459
19 | 70:19.35 | 3:15.67 | 316460 | 331151


Track 1

Filename M:\1. my rip\VA - The Alligator records-25th Anniversary Collection 1971 - 1996\CD1\01 - Son Seals - Don't Pick Me for Your Fool.wav

Pre-gap length 0:00:02.00

Peak level 100.0 %
Extraction speed 1.1 X
Track quality 99.9 %
Test CRC 2F32AA6C
Copy CRC 2F32AA6C
Accurately ripped (confidence 21) [067BD6F3] (AR v2)
Copy OK

Track 2

Filename M:\1. my rip\VA - The Alligator records-25th Anniversary Collection 1971 - 1996\CD1\02 - James Cotton - Digging My Potatoes.wav

Peak level 91.9 %
Extraction speed 1.4 X
Track quality 100.0 %
Test CRC A90E4495
Copy CRC A90E4495
Accurately ripped (confidence 21) [F9500A9B] (AR v2)
Copy OK

Track 3

Filename M:\1. my rip\VA - The Alligator records-25th Anniversary Collection 1971 - 1996\CD1\03 - Albert Collins & Johnny Copeland - Something to Remember You By.wav

Peak level 100.0 %
Extraction speed 1.4 X
Track quality 99.9 %
Test CRC E173010D
Copy CRC E173010D
Accurately ripped (confidence 19) [48BA761A] (AR v2)
Copy OK

Track 4

Filename M:\1. my rip\VA - The Alligator records-25th Anniversary Collection 1971 - 1996\CD1\04 - William Clarke - The Complainer's Boogie Woogie.wav

Peak level 71.5 %
Extraction speed 1.7 X
Track quality 100.0 %
Test CRC 80BADF0B
Copy CRC 80BADF0B
Accurately ripped (confidence 21) [575C233A] (AR v2)
Copy OK

Track 5

Filename M:\1. my rip\VA - The Alligator records-25th Anniversary Collection 1971 - 1996\CD1\05 - Charlie Musselwhite - Stingaree.wav

Peak level 75.3 %
Extraction speed 1.7 X
Track quality 100.0 %
Test CRC 09B259B5
Copy CRC 09B259B5
Accurately ripped (confidence 21) [09FDDF6B] (AR v2)
Copy OK

Track 6

Filename M:\1. my rip\VA - The Alligator records-25th Anniversary Collection 1971 - 1996\CD1\06 - Lil' Ed & The Blues Imperials - It's Alright.wav

Peak level 99.9 %
Extraction speed 1.7 X
Track quality 100.0 %
Test CRC D1BC819E
Copy CRC D1BC819E
Accurately ripped (confidence 21) [EA01F75D] (AR v2)
Copy OK

Track 7

Filename M:\1. my rip\VA - The Alligator records-25th Anniversary Collection 1971 - 1996\CD1\07 - Clifton Chenier and His Red Hot Louisiana Band - Man Smart, Woman Smarter.wav

Peak level 100.0 %
Extraction speed 1.8 X
Track quality 100.0 %
Test CRC 12406C72
Copy CRC 12406C72
Accurately ripped (confidence 21) [081C7C96] (AR v2)
Copy OK

Track 8

Filename M:\1. my rip\VA - The Alligator records-25th Anniversary Collection 1971 - 1996\CD1\08 - Maurice John Vaughn - I Want to Be Your Spy.wav

Peak level 100.0 %
Extraction speed 2.0 X
Track quality 100.0 %
Test CRC 6E25CD64
Copy CRC 6E25CD64
Accurately ripped (confidence 21) [3792C649] (AR v2)
Copy OK

Track 9

Filename M:\1. my rip\VA - The Alligator records-25th Anniversary Collection 1971 - 1996\CD1\09 - Floyd Dixon - Hey Bartender.wav

Peak level 98.4 %
Extraction speed 2.1 X
Track quality 100.0 %
Test CRC A3D89E95
Copy CRC A3D89E95
Accurately ripped (confidence 21) [1BC78B01] (AR v2)
Copy OK

Track 10

Filename M:\1. my rip\VA - The Alligator records-25th Anniversary Collection 1971 - 1996\CD1\10 - Eddie Shaw & The Wolf Gang - Sitting on Top of the World.wav

Peak level 87.1 %
Extraction speed 1.9 X
Track quality 99.9 %
Test CRC 38B445DD
Copy CRC 38B445DD
Accurately ripped (confidence 21) [5C74DD8F] (AR v2)
Copy OK

Track 11

Filename M:\1. my rip\VA - The Alligator records-25th Anniversary Collection 1971 - 1996\CD1\11 - Cephas & Wiggins - Action Man.wav

Peak level 80.7 %
Extraction speed 1.9 X
Track quality 100.0 %
Test CRC 353DD37E
Copy CRC 353DD37E
Accurately ripped (confidence 21) [156DC1E6] (AR v2)
Copy OK

Track 12

Filename M:\1. my rip\VA - The Alligator records-25th Anniversary Collection 1971 - 1996\CD1\12 - Kenny Neal - Bayou Blood.wav

Peak level 100.0 %
Extraction speed 1.8 X
Track quality 99.9 %
Test CRC 7B8F3E29
Copy CRC 7B8F3E29
Accurately ripped (confidence 21) [1FB99AB0] (AR v2)
Copy OK

Track 13

Filename M:\1. my rip\VA - The Alligator records-25th Anniversary Collection 1971 - 1996\CD1\13 - Long John Hunter - T-Bone Intentions.wav

Peak level 100.0 %
Extraction speed 2.2 X
Track quality 100.0 %
Test CRC 41ACD364
Copy CRC 41ACD364
Accurately ripped (confidence 21) [864C012F] (AR v2)
Copy OK

Track 14

Filename M:\1. my rip\VA - The Alligator records-25th Anniversary Collection 1971 - 1996\CD1\14 - Saffire, The Uppity Blues Women - T'aint Nobody's Business.wav

Peak level 84.8 %
Extraction speed 2.4 X
Track quality 100.0 %
Test CRC C7255927
Copy CRC C7255927
Accurately ripped (confidence 21) [C02328BF] (AR v2)
Copy OK

Track 15

Filename M:\1. my rip\VA - The Alligator records-25th Anniversary Collection 1971 - 1996\CD1\15 - Lonnie Mack & Stevie Ray Vaughan - If You Have to Know.wav

Peak level 100.0 %
Extraction speed 2.5 X
Track quality 100.0 %
Test CRC BEA06127
Copy CRC BEA06127
Accurately ripped (confidence 20) [66E67860] (AR v2)
Copy OK

Track 16

Filename M:\1. my rip\VA - The Alligator records-25th Anniversary Collection 1971 - 1996\CD1\16 - Billy Boy Arnold - Been Gone Too Long.wav

Peak level 98.7 %
Extraction speed 2.4 X
Track quality 100.0 %
Test CRC 2657AD3C
Copy CRC 2657AD3C
Accurately ripped (confidence 21) [32BE4988] (AR v2)
Copy OK

Track 17

Filename M:\1. my rip\VA - The Alligator records-25th Anniversary Collection 1971 - 1996\CD1\17 - Tinsley Ellis - A Quitter Never Wins.wav

Peak level 100.0 %
Extraction speed 2.7 X
Track quality 100.0 %
Test CRC 2B619AD0
Copy CRC 2B619AD0
Accurately ripped (confidence 21) [6E87FC5B] (AR v2)
Copy OK

Track 18

Filename M:\1. my rip\VA - The Alligator records-25th Anniversary Collection 1971 - 1996\CD1\18 - Sugar Blue - I Ain't Got You.wav

Peak level 100.0 %
Extraction speed 2.5 X
Track quality 100.0 %
Test CRC 07FA7689
Copy CRC 07FA7689
Accurately ripped (confidence 20) [2ED0A593] (AR v2)
Copy OK

Track 19

Filename M:\1. my rip\VA - The Alligator records-25th Anniversary Collection 1971 - 1996\CD1\19 - Professor Longhair - Crawfish Fiesta.wav

Peak level 100.0 %
Extraction speed 2.2 X
Track quality 99.9 %
Test CRC B009839A
Copy CRC B009839A
Accurately ripped (confidence 21) [90F88033] (AR v2)
Copy OK


All tracks accurately ripped

No errors occurred

End of status report

–– CUETools DB Plugin V2.1.4

[CTDB TOCID: .OWlQJjwlEQcT98PjiysbbFQWoI-] found
Submit result: already submitted
Track | CTDB Status
1 | (39/40) Accurately ripped
2 | (40/40) Accurately ripped
3 | (40/40) Accurately ripped
4 | (40/40) Accurately ripped
5 | (40/40) Accurately ripped
6 | (39/40) Accurately ripped
7 | (40/40) Accurately ripped
8 | (39/40) Accurately ripped
9 | (40/40) Accurately ripped
10 | (40/40) Accurately ripped
11 | (40/40) Accurately ripped
12 | (39/40) Accurately ripped
13 | (39/40) Accurately ripped, or (1/40) differs in 2 samples @02:46:39
14 | (39/40) Accurately ripped, or (1/40) differs in 1 samples @00:14:71
15 | (40/40) Accurately ripped
16 | (40/40) Accurately ripped
17 | (40/40) Accurately ripped
18 | (40/40) Accurately ripped
19 | (40/40) Accurately ripped


==== Log checksum 5FECF9B74140C447EAD438843E022BB1999EE911C2AD3CD30D508E90B2457E92 ====

Exact Audio Copy V1.0 beta 4 from 7. December 2014

EAC extraction logfile from 24. February 2015, 22:14

Various Artists / The Alligator Records: 25th Anniversary Collection (Disc 2)

Used drive : TSSTcorpCDDVDW SN-208FB Adapter: 1 ID: 0

Read mode : Secure
Utilize accurate stream : Yes
Defeat audio cache : Yes
Make use of C2 pointers : No

Read offset correction : 6
Overread into Lead-In and Lead-Out : No
Fill up missing offset samples with silence : Yes
Delete leading and trailing silent blocks : No
Null samples used in CRC calculations : Yes
Used interface : Native Win32 interface for Win NT & 2000
Gap handling : Appended to previous track

Used output format : User Defined Encoder
Selected bitrate : 1024 kBit/s
Quality : High
Add ID3 tag : No
Command line compressor : C:\Program Files (x86)\Kodeki za Glasbo\FLAC\flac.exe
Additional command line options : -8 -V -T "ARTIST=%artist%" -T "TITLE=%title%" -T "ALBUM=%albumtitle%" -T "DATE=%year%" -T "TRACKNUMBER=%tracknr%" -T "TOTALTRACKS=%numtracks%" -T "GENRE=%genre%" -T "ALBUMARTIST=%albumartist%" -T "ALBUM ARTIST=%albumartist%" -T "COMMENT=EAC Secure Mode, Test & Copy, AccurateRip, FLAC -8" %source%


TOC of the extracted CD

Track | Start | Length | Start sector | End sector
––––––––––––––––––––––––––––-
1 | 0:00.00 | 4:59.35 | 0 | 22459
2 | 4:59.35 | 2:59.00 | 22460 | 35884
3 | 7:58.35 | 4:53.05 | 35885 | 57864
4 | 12:51.40 | 4:06.35 | 57865 | 76349
5 | 16:58.00 | 4:22.35 | 76350 | 96034
6 | 21:20.35 | 4:12.12 | 96035 | 114946
7 | 25:32.47 | 3:33.00 | 114947 | 130921
8 | 29:05.47 | 4:29.45 | 130922 | 151141
9 | 33:35.17 | 3:42.10 | 151142 | 167801
10 | 37:17.27 | 3:45.23 | 167802 | 184699
11 | 41:02.50 | 2:50.37 | 184700 | 197486
12 | 43:53.12 | 3:45.63 | 197487 | 214424
13 | 47:39.00 | 4:23.72 | 214425 | 234221
14 | 52:02.72 | 2:47.53 | 234222 | 246799
15 | 54:50.50 | 3:17.70 | 246800 | 261644
16 | 58:08.45 | 5:20.65 | 261645 | 285709
17 | 63:29.35 | 3:28.00 | 285710 | 301309
18 | 66:57.35 | 2:56.00 | 301310 | 314509
19 | 69:53.35 | 3:50.57 | 314510 | 331816


Track 1

Filename M:\3. my rip in preparation\VA - The Alligator records-25th Anniversary Collection 1971 - 1996 (1996) [FLAC] (with Box Set 2CD) {Alligator Records ALCD 110-111}\CD2\01 - Koko Taylor - Evil.wav

Pre-gap length 0:00:02.00

Peak level 97.3 %
Extraction speed 2.1 X
Track quality 99.9 %
Test CRC 921EF0B3
Copy CRC 921EF0B3
Accurately ripped (confidence 35) [1A6F2EAE] (AR v2)
Copy OK

Track 2

Filename M:\3. my rip in preparation\VA - The Alligator records-25th Anniversary Collection 1971 - 1996 (1996) [FLAC] (with Box Set 2CD) {Alligator Records ALCD 110-111}\CD2\02 - Lonnie Brooks - Got Lucky Last Night.wav

Peak level 96.0 %
Extraction speed 2.6 X
Track quality 100.0 %
Test CRC 629A0AD8
Copy CRC 629A0AD8
Accurately ripped (confidence 34) [40CABFFE] (AR v2)
Copy OK

Track 3

Filename M:\3. my rip in preparation\VA - The Alligator records-25th Anniversary Collection 1971 - 1996 (1996) [FLAC] (with Box Set 2CD) {Alligator Records ALCD 110-111}\CD2\03 - Bob Margolin - Blues Lover.wav

Peak level 88.8 %
Extraction speed 2.9 X
Track quality 100.0 %
Test CRC 77F2A1A5
Copy CRC 77F2A1A5
Accurately ripped (confidence 36) [E6787662] (AR v2)
Copy OK

Track 4

Filename M:\3. my rip in preparation\VA - The Alligator records-25th Anniversary Collection 1971 - 1996 (1996) [FLAC] (with Box Set 2CD) {Alligator Records ALCD 110-111}\CD2\04 - Little Charlie & The Nightcats - I Could Deal With It.wav

Peak level 76.7 %
Extraction speed 3.1 X
Track quality 100.0 %
Test CRC C76A20E2
Copy CRC C76A20E2
Accurately ripped (confidence 36) [77C77CB8] (AR v2)
Copy OK

Track 5

Filename M:\3. my rip in preparation\VA - The Alligator records-25th Anniversary Collection 1971 - 1996 (1996) [FLAC] (with Box Set 2CD) {Alligator Records ALCD 110-111}\CD2\05 - Luther Allison - Cherry Red Wine.wav

Peak level 94.4 %
Extraction speed 3.3 X
Track quality 100.0 %
Test CRC 163C9A3D
Copy CRC 163C9A3D
Accurately ripped (confidence 36) [D07DB185] (AR v2)
Copy OK

Track 6

Filename M:\3. my rip in preparation\VA - The Alligator records-25th Anniversary Collection 1971 - 1996 (1996) [FLAC] (with Box Set 2CD) {Alligator Records ALCD 110-111}\CD2\06 - Katie Webster - Hard Lovin' Mama.wav

Peak level 97.9 %
Extraction speed 3.5 X
Track quality 100.0 %
Test CRC 40499528
Copy CRC 40499528
Accurately ripped (confidence 36) [8AF6E7CA] (AR v2)
Copy OK

Track 7

Filename M:\3. my rip in preparation\VA - The Alligator records-25th Anniversary Collection 1971 - 1996 (1996) [FLAC] (with Box Set 2CD) {Alligator Records ALCD 110-111}\CD2\07 - Elvin Bishop - She Puts Me in the Mood.wav

Peak level 98.6 %
Extraction speed 3.5 X
Track quality 100.0 %
Test CRC D309B37B
Copy CRC D309B37B
Accurately ripped (confidence 35) [2CFEA851] (AR v2)
Copy OK

Track 8

Filename M:\3. my rip in preparation\VA - The Alligator records-25th Anniversary Collection 1971 - 1996 (1996) [FLAC] (with Box Set 2CD) {Alligator Records ALCD 110-111}\CD2\08 - Cary Bell - Low Down Dirty Shame.wav

Peak level 94.7 %
Extraction speed 3.0 X
Track quality 99.9 %
Test CRC 96AEFCA5
Copy CRC 96AEFCA5
Accurately ripped (confidence 36) [D7DEC450] (AR v2)
Copy OK

Track 9

Filename M:\3. my rip in preparation\VA - The Alligator records-25th Anniversary Collection 1971 - 1996 (1996) [FLAC] (with Box Set 2CD) {Alligator Records ALCD 110-111}\CD2\09 - Lucky Peterson - Six O'clock Blues.wav

Peak level 95.4 %
Extraction speed 3.7 X
Track quality 100.0 %
Test CRC 20BED3C4
Copy CRC 20BED3C4
Accurately ripped (confidence 36) [613F18B2] (AR v2)
Copy OK

Track 10

Filename M:\3. my rip in preparation\VA - The Alligator records-25th Anniversary Collection 1971 - 1996 (1996) [FLAC] (with Box Set 2CD) {Alligator Records ALCD 110-111}\CD2\10 - Dave Hole - Keep Your Motor Running.wav

Peak level 87.9 %
Extraction speed 3.9 X
Track quality 100.0 %
Test CRC 42A2C81A
Copy CRC 42A2C81A
Accurately ripped (confidence 36) [FD26C4C1] (AR v2)
Copy OK

Track 11

Filename M:\3. my rip in preparation\VA - The Alligator records-25th Anniversary Collection 1971 - 1996 (1996) [FLAC] (with Box Set 2CD) {Alligator Records ALCD 110-111}\CD2\11 - Corey Harris - Roots Woman.wav

Peak level 90.6 %
Extraction speed 3.8 X
Track quality 100.0 %
Test CRC F26A7B60
Copy CRC F26A7B60
Accurately ripped (confidence 35) [232C59A5] (AR v2)
Copy OK

Track 12

Filename M:\3. my rip in preparation\VA - The Alligator records-25th Anniversary Collection 1971 - 1996 (1996) [FLAC] (with Box Set 2CD) {Alligator Records ALCD 110-111}\CD2\12 - Michael Hill's Blues Mob - Can't Recall a Time.wav

Peak level 99.7 %
Extraction speed 4.1 X
Track quality 100.0 %
Test CRC 5909F0DA
Copy CRC 5909F0DA
Accurately ripped (confidence 36) [9A3ED54B] (AR v2)
Copy OK

Track 13

Filename M:\3. my rip in preparation\VA - The Alligator records-25th Anniversary Collection 1971 - 1996 (1996) [FLAC] (with Box Set 2CD) {Alligator Records ALCD 110-111}\CD2\13 - Roy Buchanan with Delbert McClinton - Baby, Baby, Baby.wav

Peak level 100.0 %
Extraction speed 3.5 X
Track quality 99.9 %
Test CRC D1596184
Copy CRC D1596184
Accurately ripped (confidence 35) [B49D0E27] (AR v2)
Copy OK

Track 14

Filename M:\3. my rip in preparation\VA - The Alligator records-25th Anniversary Collection 1971 - 1996 (1996) [FLAC] (with Box Set 2CD) {Alligator Records ALCD 110-111}\CD2\14 - Roy Buchanan - Jack the Ripper.wav

Peak level 96.6 %
Extraction speed 4.1 X
Track quality 100.0 %
Test CRC FE391D7D
Copy CRC FE391D7D
Accurately ripped (confidence 35) [EFE4A886] (AR v2)
Copy OK

Track 15

Filename M:\3. my rip in preparation\VA - The Alligator records-25th Anniversary Collection 1971 - 1996 (1996) [FLAC] (with Box Set 2CD) {Alligator Records ALCD 110-111}\CD2\15 - Johnny Heartsman - The Sky Is Crying.wav

Peak level 86.8 %
Extraction speed 4.3 X
Track quality 100.0 %
Test CRC 0EB1B4FB
Copy CRC 0EB1B4FB
Accurately ripped (confidence 35) [E9BE357C] (AR v2)
Copy OK

Track 16

Filename M:\3. my rip in preparation\VA - The Alligator records-25th Anniversary Collection 1971 - 1996 (1996) [FLAC] (with Box Set 2CD) {Alligator Records ALCD 110-111}\CD2\16 - Johnny Winter - Love, Life and Money.wav

Peak level 100.0 %
Extraction speed 4.7 X
Track quality 100.0 %
Test CRC 683C08E6
Copy CRC 683C08E6
Accurately ripped (confidence 35) [6E45C948] (AR v2)
Copy OK

Track 17

Filename M:\3. my rip in preparation\VA - The Alligator records-25th Anniversary Collection 1971 - 1996 (1996) [FLAC] (with Box Set 2CD) {Alligator Records ALCD 110-111}\CD2\17 - Hound Dog Taylor - Look on Yonder's Wall.wav

Peak level 84.0 %
Extraction speed 4.5 X
Track quality 100.0 %
Test CRC 93D78B25
Copy CRC 93D78B25
Accurately ripped (confidence 36) [E43B20F3] (AR v2)
Copy OK

Track 18

Filename M:\3. my rip in preparation\VA - The Alligator records-25th Anniversary Collection 1971 - 1996 (1996) [FLAC] (with Box Set 2CD) {Alligator Records ALCD 110-111}\CD2\18 - Fenton Robinson - Somebody Loan Me a Dime.wav

Peak level 90.2 %
Extraction speed 4.4 X
Track quality 100.0 %
Test CRC 9FB4C69D
Copy CRC 9FB4C69D
Accurately ripped (confidence 36) [F71329C3] (AR v2)
Copy OK

Track 19

Filename M:\3. my rip in preparation\VA - The Alligator records-25th Anniversary Collection 1971 - 1996 (1996) [FLAC] (with Box Set 2CD) {Alligator Records ALCD 110-111}\CD2\19 - Clarence 'Gatemouth' Brown - We're Outta Here.wav

Peak level 97.4 %
Extraction speed 3.7 X
Track quality 99.9 %
Test CRC 6AC3CD02
Copy CRC 6AC3CD02
Accurately ripped (confidence 35) [4915DA42] (AR v2)
Copy OK


All tracks accurately ripped

No errors occurred

End of status report

–– CUETools DB Plugin V2.1.4

[CTDB TOCID: lh_WKxBpdVIXFEcOblbiuVyvF6g-] found
Submit result: lh_WKxBpdVIXFEcOblbiuVyvF6g- has been confirmed
Track | CTDB Status
1 | (29/29) Accurately ripped
2 | (29/29) Accurately ripped
3 | (29/29) Accurately ripped
4 | (29/29) Accurately ripped
5 | (29/29) Accurately ripped
6 | (29/29) Accurately ripped
7 | (29/29) Accurately ripped
8 | (29/29) Accurately ripped
9 | (29/29) Accurately ripped
10 | (29/29) Accurately ripped
11 | (29/29) Accurately ripped
12 | (29/29) Accurately ripped
13 | (29/29) Accurately ripped
14 | (29/29) Accurately ripped
15 | (29/29) Accurately ripped
16 | (29/29) Accurately ripped
17 | (29/29) Accurately ripped
18 | (29/29) Accurately ripped
19 | (29/29) Accurately ripped


==== Log checksum 0E80F23F7721464C044570DD2973CEB5BB6FEBB6469E5DAB83E70035FA098736 ====


Various Artists - The Alligator Records 25th Anniversary Collection (1996) {2CD Alligator Records ALCD 110-111}


All thanks goes to the original releaser!


===