Subcategories

VA - Alternative Rock Xmas (2007)

Posted By: delpotro
VA - Alternative Rock Xmas (2007)

VA - Alternative Rock Xmas (2007)
EAC Rip | FLAC (tracks+log+.cue) | 00:49:36 | 336 Mb
Alternative Rock | Label: Capitol Records

A special Christmas compilation released by Capitol Records in 2007. Jimmy Eat World, The Decemberists, Relient K, Luscious Jackson and others.
Tracklist:
1. The Decemberists - Please Daddy (Dont Get Drunk This Christmas) (03:23)
2. The Dandy Warhols - Little Drummer Boy (03:15)
3. Relient K - In Like a Lion (Always Winter) (03:42)
4. Sinad OConnor - Silent Night (03:42)
5. Jimmy Eat World - 12/23/95 (03:44)
6. Marcy Playground - Keegans Christmas (02:45)
7. Starflyer 59 - Christmas Time Is Here (02:22)
8. Luscious Jackson - Let It Snow (01:36)
9. The Decemberists - Angel Wont You Call Me (02:38)
10. The Specials - Holiday Fortnight (02:47)
11. The Thrills - I Saw Mommy Kissing Santa Claus (02:51)
12. The Alarm - Happy Xmas (War Is Over) (03:42)
13. Dada - My Baby Fell for Ol St. Nick (03:05)
14. The Smithereens - Rudolph, the Red Nosed Reindeer (03:04)
15. Everclear - Santa Baby (03:58)
16. Jimmy Eat World - Christmas Card (02:52)

Exact Audio Copy V1.0 beta 1 from 15. November 2010

EAC extraction logfile from 26. December 2010, 20:15

Various / Alternative Rock Xmas

Used drive : PIONEER DVD-RW DVR-110D Adapter: 0 ID: 0

Read mode : Secure
Utilize accurate stream : Yes
Defeat audio cache : Yes
Make use of C2 pointers : No

Read offset correction : 48
Overread into Lead-In and Lead-Out : No
Fill up missing offset samples with silence : Yes
Delete leading and trailing silent blocks : No
Null samples used in CRC calculations : Yes
Used interface : Native Win32 interface for Win NT & 2000
Gap handling : Appended to previous track

Used output format : User Defined Encoder
Selected bitrate : 128 kBit/s
Quality : High
Add ID3 tag : No
Command line compressor : C:\Program Files\Exact Audio Copy\Flac\flac.exe
Additional command line options : -V -8 -T "artist=%a" -T "title=%t" -T "album=%g" -T "date=%y" -T "tracknumber=%n" -T "genre=%m" %s


TOC of the extracted CD

Track | Start | Length | Start sector | End sector
––––––––––––––––––––––––––––-
1 | 0:00.00 | 3:23.49 | 0 | 15273
2 | 3:23.49 | 3:15.48 | 15274 | 29946
3 | 6:39.22 | 3:42.59 | 29947 | 46655
4 | 10:22.06 | 3:42.64 | 46656 | 63369
5 | 14:04.70 | 3:44.38 | 63370 | 80207
6 | 17:49.33 | 2:45.14 | 80208 | 92596
7 | 20:34.47 | 2:22.64 | 92597 | 103310
8 | 22:57.36 | 1:36.41 | 103311 | 110551
9 | 24:34.02 | 2:38.44 | 110552 | 122445
10 | 27:12.46 | 2:47.65 | 122446 | 135035
11 | 30:00.36 | 2:51.28 | 135036 | 147888
12 | 32:51.64 | 3:42.44 | 147889 | 164582
13 | 36:34.33 | 3:05.63 | 164583 | 178520
14 | 39:40.21 | 3:04.16 | 178521 | 192336
15 | 42:44.37 | 3:58.49 | 192337 | 210235
16 | 46:43.11 | 2:53.02 | 210236 | 223212


Track 1

Filename C:\FLAC\Various - Alternative Rock Xmas (2007) - FLAC\01 - Please Daddy (Don't Get Drunk This Christmas) [The Decemberists] - Please Daddy (Don't Get Drunk This Christmas) [The Decemberists].wav

Pre-gap length 0:00:02.00

Peak level 97.7 %
Extraction speed 3.9 X
Track quality 100.0 %
Test CRC 1320BD55
Copy CRC 1320BD55
Accurately ripped (confidence 7) [CA33ACF8]
Copy OK

Track 2

Filename C:\FLAC\Various - Alternative Rock Xmas (2007) - FLAC\02 - Little Drummer Boy [The Dandy Warhols] - Little Drummer Boy [The Dandy Warhols].wav

Peak level 99.7 %
Extraction speed 3.8 X
Track quality 100.0 %
Test CRC 52733777
Copy CRC 52733777
Accurately ripped (confidence 7) [B7258C84]
Copy OK

Track 3

Filename C:\FLAC\Various - Alternative Rock Xmas (2007) - FLAC\03 - In Like A Lion (Always Winter) [Relient K] - In Like A Lion (Always Winter) [Relient K].wav

Peak level 94.3 %
Extraction speed 4.2 X
Track quality 100.0 %
Test CRC 1D9FC3D9
Copy CRC 1D9FC3D9
Accurately ripped (confidence 7) [6A2F852C]
Copy OK

Track 4

Filename C:\FLAC\Various - Alternative Rock Xmas (2007) - FLAC\04 - Silent Night [Sinead O'Connor] - Silent Night [Sinead O'Connor].wav

Peak level 91.9 %
Extraction speed 5.0 X
Track quality 100.0 %
Test CRC 35D87062
Copy CRC 35D87062
Accurately ripped (confidence 7) [2217B639]
Copy OK

Track 5

Filename C:\FLAC\Various - Alternative Rock Xmas (2007) - FLAC\05 - 12-23-95 [Jimmy Eat World] - 12-23-95 [Jimmy Eat World].wav

Peak level 100.0 %
Extraction speed 5.5 X
Track quality 100.0 %
Test CRC 069CDFD0
Copy CRC 069CDFD0
Accurately ripped (confidence 7) [136BAA9B]
Copy OK

Track 6

Filename C:\FLAC\Various - Alternative Rock Xmas (2007) - FLAC\06 - Keegan's Christmas [Marcy Playground] - Keegan's Christmas [Marcy Playground].wav

Peak level 100.0 %
Extraction speed 4.9 X
Track quality 100.0 %
Test CRC DE27DBA6
Copy CRC DE27DBA6
Accurately ripped (confidence 7) [43BF5D18]
Copy OK

Track 7

Filename C:\FLAC\Various - Alternative Rock Xmas (2007) - FLAC\07 - Christmas Time Is Here [Starflyer 59] - Christmas Time Is Here [Starflyer 59].wav

Peak level 89.0 %
Extraction speed 5.1 X
Track quality 100.0 %
Test CRC D465446C
Copy CRC D465446C
Accurately ripped (confidence 7) [FCF0E80F]
Copy OK

Track 8

Filename C:\FLAC\Various - Alternative Rock Xmas (2007) - FLAC\08 - Let It Snow [Luscious Jackson] - Let It Snow [Luscious Jackson].wav

Peak level 100.0 %
Extraction speed 5.1 X
Track quality 100.0 %
Test CRC F458C3C7
Copy CRC F458C3C7
Accurately ripped (confidence 7) [AFF8F303]
Copy OK

Track 9

Filename C:\FLAC\Various - Alternative Rock Xmas (2007) - FLAC\09 - Angel, Won't You Call Me [The Decemberists] - Angel, Won't You Call Me [The Decemberists].wav

Peak level 100.0 %
Extraction speed 4.5 X
Track quality 100.0 %
Test CRC 10461767
Copy CRC 10461767
Accurately ripped (confidence 7) [C9DF7B95]
Copy OK

Track 10

Filename C:\FLAC\Various - Alternative Rock Xmas (2007) - FLAC\10 - Holiday Fortnight [The Specials] - Holiday Fortnight [The Specials].wav

Peak level 100.0 %
Extraction speed 5.7 X
Track quality 100.0 %
Test CRC 5406E36A
Copy CRC 5406E36A
Accurately ripped (confidence 7) [DBD2EA22]
Copy OK

Track 11

Filename C:\FLAC\Various - Alternative Rock Xmas (2007) - FLAC\11 - I Saw Mommy Kissing Santa Claus [The Thrills] - I Saw Mommy Kissing Santa Claus [The Thrills].wav

Peak level 92.4 %
Extraction speed 5.9 X
Track quality 100.0 %
Test CRC 39ACF78E
Copy CRC 39ACF78E
Accurately ripped (confidence 7) [290AB8E4]
Copy OK

Track 12

Filename C:\FLAC\Various - Alternative Rock Xmas (2007) - FLAC\12 - Happy Xmas (War Is Over) [The Alarm] - Happy Xmas (War Is Over) [The Alarm].wav

Peak level 100.0 %
Extraction speed 6.7 X
Track quality 100.0 %
Test CRC E1EDCAC1
Copy CRC E1EDCAC1
Accurately ripped (confidence 7) [1E4426C8]
Copy OK

Track 13

Filename C:\FLAC\Various - Alternative Rock Xmas (2007) - FLAC\13 - My Baby Fell For Ol' St. Nick [Dada] - My Baby Fell For Ol' St. Nick [Dada].wav

Peak level 100.0 %
Extraction speed 6.2 X
Track quality 100.0 %
Test CRC AE2BAD05
Copy CRC AE2BAD05
Accurately ripped (confidence 7) [E68E57B7]
Copy OK

Track 14

Filename C:\FLAC\Various - Alternative Rock Xmas (2007) - FLAC\14 - Rudolph, The Red Nosed Reindeer [The Smithereens] - Rudolph, The Red Nosed Reindeer [The Smithereens].wav

Peak level 100.0 %
Extraction speed 6.3 X
Track quality 100.0 %
Test CRC E55E5347
Copy CRC E55E5347
Accurately ripped (confidence 7) [C35D0B8F]
Copy OK

Track 15

Filename C:\FLAC\Various - Alternative Rock Xmas (2007) - FLAC\15 - Santa Baby [Everclear] - Santa Baby [Everclear].wav

Peak level 100.0 %
Extraction speed 6.3 X
Track quality 100.0 %
Test CRC ACFAA4F8
Copy CRC ACFAA4F8
Accurately ripped (confidence 7) [F2326DAD]
Copy OK

Track 16

Filename C:\FLAC\Various - Alternative Rock Xmas (2007) - FLAC\16 - Christmas Card [Jimmy Eat World] - Christmas Card [Jimmy Eat World].wav

Peak level 100.0 %
Extraction speed 5.3 X
Track quality 99.9 %
Test CRC ACF8C1D5
Copy CRC ACF8C1D5
Accurately ripped (confidence 7) [1C7ABEA0]
Copy OK


All tracks accurately ripped

No errors occurred

End of status report

==== Log checksum 708FD300157E64B0BAB7E60244B54E4CF3985DC91567D4E4EADC6922FA1F6604 ====

Thanks to the Original ripper Creator !