Subcategories

VA – Chart Breaker - Greatest Hits Of The 50’s And 60’s (Comp. 1997) (10-CD-Box)

Posted By: janwal46
VA – Chart Breaker - Greatest Hits Of The 50’s And 60’s (Comp. 1997) (10-CD-Box)

VA – Chart Breaker - Greatest Hits Of The 50’s And 60’s (Comp. 1997) (10-CD-Box)

VA – Chart Breaker - Greatest Hits Of The 50’s And 60’s (Comp. 1997) (10-CD-Box)

VA – Chart Breaker – Greatest Hits Of The 50’s And 60’s (Comp. 1997) (10-CD-Box)
Disky | Comp. 1997 | Pop Rock'n Roll | EAC RIP | FLAC+CUE+LOG+HQ-Covers (400Dpi) | 325Mb+310Mb+324Mb+305Mb+313Mb+320Mb+317Mb+325Mb+316Mb+304Mb+96Mb

For the oldies amongst you, but probably also for the youngsters, here's a very pleasant 10-CD set in lossless of 200 hits from the 50's and 60's. This bundle is accompanied by complete HQ covers. I hope you will enjoy it as much as I do !!!

Tracklists:

CD01
01. Fats Domino - Blueberry Hill
02. Gene Vincent - Be Bop A Lula
03. Dion i The Belmonts - Lovers Who Wander
04. Fabian - Turn Me Loose
05. Johnny Cash - Ballad Of A Teenage Queen
06. The Chordettes - Mister Sandman
07. Bobby Lewis - Tossin i Turnin
08. The Rivingtons - Papa Oom Mow Wow
09. Huey Piano Smith - Rockin Pneumonia
10. Louis Prima - Buona Sera
11. The Beach Boys - I Get Around
12. The Everly Brothers - Wake Up Little Susie
13. Sandy Nelson - Teenbeat
14. Frankie Avalon - Why
15. The Kingsmen - Louie Louie
16. The Four Seasons - Sherry
17. Gene Pitney - Only Love Can Break A Heart
18. Johnny Tillotson - Poetry In Motion
19. Jerry Lee Lewis - Drinkin' Wine Spo-Dee-O-Dee
20. Ernie Maresca - Shout Shout (Knock Yourself Out)

CD02
01. Eddie Hodges - I`m Gonna Knock On Your Door
02. The Add Libs - The Boy From New York City
03. Jay and The Americans - Cara Mia
04. Dave 'baby' Cortes - The Happy Organ
05. Bobby Day - Little Bitty Pretty One
06. Jimmie Rodgers - Honeycomb
07. The Four Seasons - Big Girls Don`t Cry
08. Gene Pitney - Backstage (I`m Lonely)
09. Del Shannon - Runaway
10. Freddy Cannon - Palisades Park
11. Arthur Lyman Group - Yellow Bird
12. Fats Domino - Red Sails In The Sunset
13. Archie Bleyer - Hernando`s Hideaway
14. Shangri Las - I Can Never Go Home Anymore
15. Buddy Knox - Party Doll
16. Link Wray - Rumble
17. Jerry Lee Lewis - Breathless
18. Dion - The Belmonts - A Teenager In Love
19. Jan and Dean - The Little Old Lady From Pasadena
20. Jimmy Clanton - Venus In Blue Jeans

CD03
01. Jackie Wilson - Reet Petite
02. The Four Seasons - Walk Like A Man
03. Gary U.S. Bonds - School Is Out
04. Bill Justis - Raunchy
05. Jerry Lee Lewis - High School Confidential
06. Betty Everett - It`s In His Kiss (The Shoop Shoop Song)
07. Patsy Cline - Walkin After Midnight
08. Johnny Tillotson - It Keeps Right On A Hurtin
09. The Penguins - Earth Angel
10. Frankie Avalon - De De Dinah
11. The Virtues - Guitar Boogie Shuffle
12. Dion - Runaround Sue
13. Bobby Day - Over And Over
14. Louis Prima i Keely Smith - That Old Black Magic
15. Ray Stevens - Jeremiah Peabody`s Poly Unsaturated Quick Dissolving Fast Acting Pleasant Tasting Green And Purple Pills
16. Carl Mann - Pretend
17. The Shirelles - Will You Love Me Tomorrow
18. Marv Johnson - You Got What It Takes
19. Skip i Flip - It Was I
20. Bobby Vee - Take Good Care Of My Baby

CD04
01. Frankie Ford - Sea Cruise
02. Thomas Wayne - Tragedy
03. The Paris Sisters - I Love How You Love Me
04. The Bobby Fuller Four - I Fought The Law
05. The El Dorados - At My Front Door
06. Marcie Blane - Bobby's Girl
07. Fats Domino - Ain't That A Shame
08. Freddy Cannon - Way Down Yonder In New Orleans
09. Gene Pitney - A Town Without Pity
10. Johnny Burnette - You're Sixteen You're Beautiful And You're Mine
11. Gary Lewis And The Playboys - Count Me In
12. The Crests - Sixteen Candles
13. The Everly Brothers - All I Have To Do Is Dream
14. Gary U.S. Bonds - Quarter To Love
15. Jerry Lee Lewis - What'd I Say
16. Lovin' Spoonful - Do You Believe In Magic
17. The Turtles - Happy Together
18. The Four Seasons - Candy Girl
19. Dion & The Belmonts - I Wonder Why
20. Ricky Valance - Tell Laura I Love Her

CD05
01. Johnny & The Hurricanes - Red River Rock
02. Gary Lewis & The Playboys - This Diamond Ring
03. The Beach Boys - Help Me Rhonda
04. Bee Bumble & The Stingers - Nut Rocker
05. Les Paul & Mary Ford - Hummingbird
06. Gene Pitney - It Hurts To Be In Love
07. The Four Seasons - Dawn (Go Away)
08. Aaron Neville - Tell It Like It Is
09. Preston Epps - Bongo Rock
10. Ritchie Valens - Donna
11. Vikki Carr - It Must Be Him
12. Chris Montez - Let's Dance
13. Del Shannon - Hats Off To Larry
14. The Champs - Tequila
15. Sonny James - Young Love
16. Ace Cannon - Tuff (Cattywampus)
17. Tennessee Ernie Ford - Sixteen Tons
18. The Everly Brothers - Bye Bye Love
19. The Isley Brothers - Twist And Shout
20. Dion & The Belmonts - Where Or When

CD06
01. The Chiffons - One Fine Day
02. Curtis Lee - Pretty Little Angel Eyes
03. Louis Prima - Oh Marie
04. Wanda Jackson - Let's Have A Party
05. Freddy Cannon - Tallahassee Lassie
06. The Four Knights - Oh Baby Mine
07. Jackie Wilson - (Your Love Keeps Lifting Me) Higher And Higher
08. The Clovers - Love Potion No. 9
09. The Everly Brothers - Let It Be Me
10. The Lettermen - When I Fall In Love
11. Huey Piano Smith - Don't You Just Know It
12. The Champs - El Rancho Rock
13. Del Shannon - Keep Searching (We'll Follow The Sun)
14. Joe Jones - You Talk Too Much
15. Julie London - Cry Me A River
16. Jerry Lee Lewis - Great Balls Of Fire
17. Gene Pitney - If I Didn't Have A Dime
18. Gary U.S. Bonds - New Orleans
19. The Four Seasons - Rag Doll
20. Johnny Tillotson - Talk Back Trembling Lips

CD07
01. Carl Perkins - Blue Suede Shoes
02. The Four Seasons - Let's Hang On
03. The Everly Brothers - Claudette
04. Jerry Lee Lewis - Whole Lotta Shakin' Goin' On
05. Johnny Otis - Willie And The Hand Jive
06. The Everly Brothers - Bird Dog
07. Del Shannon - Little Town Flirt
08. Tommy Sands - Teenage Crush
09. Gene Pitney - Mecca
10. Johnny Tillotson - Send Me The Pillow That You Dream On
11. The Chordettes - Lollipop
12. Ferlin Husky - Gone
13. The Shirelles - Soldier Boy
14. The Champs - Too Much Tequila
15. Jackie Wilson - Lonely Teardrops
16. Frankie Avalon - Ginger Bread
17. Sandy Nelson - Let There Be Drums
18. The Dixie Cups - Iko Iko
19. The Turtles - Elenore
20. The Chiffons - Sweet Talking Guy

CD08
01. Shangri-Las - Leader Of The Pack
02. Eddie Cochran - C'mon Everybody
03. Gene Pitney - I'm Gonna Be Strong
04. Peggy Lee - Fever
05. The Chordettes - Born To Be With You
06. The Everly Brothers - Devoted To You
07. Skip & Flip - Cherry Pie
08. The Kingston Trio - Tom Dooley
09. Timi Yuro - Hurt
10. Little Caesar & The Romans - Those Oldies But Goodies
11. Joey Dee And The Starlighters - Peppermint Twist Pt.1
12. Billy Lee Riley - Red Hot
13. Frankie Avalon - Venus
14. Ritchie Valens - La Bamba
15. Lovin' Spoonful - Summer In The City
16. Wonder Who - Don't Think Twice
17. The Jive Five - My True Story
18. King Curtis - Take The Last Train Home
19. Bobby Day - Rockin' Robin
20. Ray Stevens - Bridget The Midget

CD09
01. The Archies - Sugar Sugar
02. Dale & Grace - I'm Leaving It (All Up To You)
03. Carl Mann - Mona Lisa
04. Tennessee Ernie Ford - The Ballad Of Davy Crockett
05. The Dixie Cups - Chapel Of Love
06. Fabian - Tiger
07. The Newbeats - Bread & Butter
08. Tommy James & The Shondells - Hanky Panky
09. Linda Scott - I've Told Every Little Star
10. Jerry Lee Lewis - My Girl Josephine
11. Johnny Cash - I Walk The Line
12. Frankie Avalon - Bobby Sox To Stockings
13. Jerry Butler - For Your Precious Love
14. Fats Domino - There Goes My Heart Again
15. Gene Pitney - Princess In Rags
16. Lovin' Spoonfull - Nashville Cats
17. The Crests - Trouble In Paradise
18. Fabian - Hound Dog Man
19. The Everly Brothers - Problems
20. Four Seasons - Working My Way Back To You

CD10
01. Dion - The Wanderer
02. The Four Seasons - Ronnie
03. The Esquires - Get On Up
04. B.J. Thomas - Hooked On A Feeling
05. Eddie Cochran - Summertime Blues
06. Johnny Cash - Guess Things Happen That Way
07. The Chordettes - Eddie My Love
08. Charlie Rich - Lonely Weekends
09. The Chiffons - He's So Fine
10. The Kingsmen - Money
11. The Everly Brothers - Till I Kissed You
12. Jody Reynolds - Endless Sleep
13. The Dreamlovers - When We Get Married
14. Sue Thompson - Norman
15. The Vogues - Five O'Clock World
16. Gene Pitney - 24 Hours From Tulsa
17. Frankie Lymon & The Teenagers - Why Do Fools Fall In Love
18. Carl Perkins - Boppin' The Blues
19. The Shirelles - Dedicated To The One I Love
20. Frankie Avalon - Just Ask Your Heart

Sound Quality: 7/8

Exact Audio Copy V0.99 prebeta 5 from 4. May 2009

EAC extraction logfile from 17. February 2010, 22:41

VA / Chart Breaker (Greatest Hits Of The 50's & 60's) CD01

Used drive : Optiarc DVD RW AD-7173A Adapter: 1 ID: 1

Read mode : Secure
Utilize accurate stream : Yes
Defeat audio cache : Yes
Make use of C2 pointers : No

Read offset correction : 48
Overread into Lead-In and Lead-Out : No
Fill up missing offset samples with silence : Yes
Delete leading and trailing silent blocks : No
Null samples used in CRC calculations : Yes
Used interface : Native Win32 interface for Win NT & 2000

Used output format : Internal WAV Routines
Sample format : 44.100 Hz; 16 Bit; Stereo


TOC of the extracted CD

Track | Start | Length | Start sector | End sector
––––––––––––––––––––––––––––-
1 | 0:00.00 | 2:22.15 | 0 | 10664
2 | 2:22.15 | 2:36.41 | 10665 | 22405
3 | 4:58.56 | 2:31.06 | 22406 | 33736
4 | 7:29.62 | 2:22.52 | 33737 | 44438
5 | 9:52.39 | 2:10.44 | 44439 | 54232
6 | 12:03.08 | 2:25.25 | 54233 | 65132
7 | 14:28.33 | 2:26.58 | 65133 | 76140
8 | 16:55.16 | 2:27.01 | 76141 | 87166
9 | 19:22.17 | 2:17.40 | 87167 | 97481
10 | 21:39.57 | 3:07.49 | 97482 | 111555
11 | 24:47.31 | 2:14.35 | 111556 | 121640
12 | 27:01.66 | 2:02.12 | 121641 | 130802
13 | 29:04.03 | 2:23.33 | 130803 | 141560
14 | 31:27.36 | 2:37.67 | 141561 | 153402
15 | 34:05.28 | 2:45.58 | 153403 | 165835
16 | 36:51.11 | 2:32.17 | 165836 | 177252
17 | 39:23.28 | 2:52.19 | 177253 | 190171
18 | 42:15.47 | 2:33.36 | 190172 | 201682
19 | 44:49.08 | 2:34.42 | 201683 | 213274
20 | 47:23.50 | 2:12.56 | 213275 | 223230


Range status and errors

Selected range

Filename F:\AVAXHOME\VA - Chart Breaker (Greatest Hits Of The 50's & 60's)(1997)\VA - Chart Breaker (Greatest Hits Of The 50's & 60's) CD01.wav

Peak level 96.6 %
Range quality 100.0 %
Copy CRC 5DDC1C0A
Copy OK

No errors occurred


AccurateRip summary

Track 1 accurately ripped (confidence 9) [EA47AF1F]
Track 2 accurately ripped (confidence 9) [D4C7E48C]
Track 3 accurately ripped (confidence 9) [3776C765]
Track 4 accurately ripped (confidence 9) [A5F4E5C4]
Track 5 accurately ripped (confidence 9) [0632721F]
Track 6 accurately ripped (confidence 9) [A66B6202]
Track 7 accurately ripped (confidence 9) [01D488EA]
Track 8 accurately ripped (confidence 9) [AF33700C]
Track 9 accurately ripped (confidence 9) [19EBA7B8]
Track 10 accurately ripped (confidence 8) [C47D1343]
Track 11 accurately ripped (confidence 9) [AA3208D7]
Track 12 accurately ripped (confidence 9) [D3A13B76]
Track 13 accurately ripped (confidence 9) [96AAE426]
Track 14 accurately ripped (confidence 9) [6DEC6049]
Track 15 accurately ripped (confidence 8) [812B4910]
Track 16 accurately ripped (confidence 9) [FCEEDD3A]
Track 17 accurately ripped (confidence 9) [07AF8219]
Track 18 accurately ripped (confidence 9) [5A9F9C79]
Track 19 accurately ripped (confidence 9) [D4F1AA00]
Track 20 accurately ripped (confidence 9) [41C2EF78]

All tracks accurately ripped

End of status report

–––––––––––––––––––––––––––
Exact Audio Copy V0.99 prebeta 5 from 4. May 2009

EAC extraction logfile from 17. February 2010, 22:58

VA / Chart Breaker (Greatest Hits Of The 50's & 60's) CD02

Used drive : Optiarc DVD RW AD-7173A Adapter: 1 ID: 1

Read mode : Secure
Utilize accurate stream : Yes
Defeat audio cache : Yes
Make use of C2 pointers : No

Read offset correction : 48
Overread into Lead-In and Lead-Out : No
Fill up missing offset samples with silence : Yes
Delete leading and trailing silent blocks : No
Null samples used in CRC calculations : Yes
Used interface : Native Win32 interface for Win NT & 2000

Used output format : Internal WAV Routines
Sample format : 44.100 Hz; 16 Bit; Stereo


TOC of the extracted CD

Track | Start | Length | Start sector | End sector
––––––––––––––––––––––––––––-
1 | 0:00.00 | 2:04.67 | 0 | 9366
2 | 2:04.67 | 2:59.06 | 9367 | 22797
3 | 5:03.73 | 2:33.44 | 22798 | 34316
4 | 7:37.42 | 1:58.49 | 34317 | 43215
5 | 9:36.16 | 2:27.15 | 43216 | 54255
6 | 12:03.31 | 2:16.73 | 54256 | 64528
7 | 14:20.29 | 2:25.21 | 64529 | 75424
8 | 16:45.50 | 2:36.45 | 75425 | 87169
9 | 19:22.20 | 2:19.59 | 87170 | 97653
10 | 21:42.04 | 1:51.65 | 97654 | 106043
11 | 23:33.69 | 2:41.72 | 106044 | 118190
12 | 26:15.66 | 2:38.70 | 118191 | 130110
13 | 28:54.61 | 2:34.42 | 130111 | 141702
14 | 31:29.28 | 3:13.11 | 141703 | 156188
15 | 34:42.39 | 2:12.53 | 156189 | 166141
16 | 36:55.17 | 2:18.61 | 166142 | 176552
17 | 39:14.03 | 2:43.15 | 176553 | 188792
18 | 41:57.18 | 2:36.46 | 188793 | 200538
19 | 44:33.64 | 2:42.56 | 200539 | 212744
20 | 47:16.45 | 2:19.23 | 212745 | 223192


Range status and errors

Selected range

Filename F:\AVAXHOME\VA - Chart Breaker (Greatest Hits Of The 50's & 60's)(1997)\VA - Chart Breaker (Greatest Hits Of The 50's & 60's) CD02.wav

Peak level 91.2 %
Range quality 99.9 %
Copy CRC 709E6256
Copy OK

No errors occurred


AccurateRip summary

Track 1 accurately ripped (confidence 14) [1776F279]
Track 2 accurately ripped (confidence 14) [DA9B9B79]
Track 3 accurately ripped (confidence 14) [C024062B]
Track 4 accurately ripped (confidence 14) [A15FABC4]
Track 5 accurately ripped (confidence 14) [8D731EA1]
Track 6 accurately ripped (confidence 14) [0E069A4F]
Track 7 accurately ripped (confidence 14) [69E1BA88]
Track 8 accurately ripped (confidence 14) [BA8C954B]
Track 9 accurately ripped (confidence 14) [B9F7E6E2]
Track 10 accurately ripped (confidence 14) [010BE2B8]
Track 11 accurately ripped (confidence 14) [864A763B]
Track 12 accurately ripped (confidence 14) [3E610862]
Track 13 accurately ripped (confidence 14) [9DAC4609]
Track 14 accurately ripped (confidence 14) [EFB4A4CE]
Track 15 accurately ripped (confidence 14) [C2178EE1]
Track 16 accurately ripped (confidence 14) [7ACFBBBB]
Track 17 accurately ripped (confidence 14) [ACE7630F]
Track 18 accurately ripped (confidence 14) [D327189E]
Track 19 accurately ripped (confidence 14) [BC5B6700]
Track 20 accurately ripped (confidence 14) [A09F9287]

All tracks accurately ripped

End of status report

–––––––––––––––––––––––––––
Exact Audio Copy V0.99 prebeta 5 from 4. May 2009

EAC extraction logfile from 17. February 2010, 23:12

VA / Chart Breaker (Greatest Hits Of The 50's & 60's) CD03

Used drive : Optiarc DVD RW AD-7173A Adapter: 1 ID: 1

Read mode : Secure
Utilize accurate stream : Yes
Defeat audio cache : Yes
Make use of C2 pointers : No

Read offset correction : 48
Overread into Lead-In and Lead-Out : No
Fill up missing offset samples with silence : Yes
Delete leading and trailing silent blocks : No
Null samples used in CRC calculations : Yes
Used interface : Native Win32 interface for Win NT & 2000

Used output format : Internal WAV Routines
Sample format : 44.100 Hz; 16 Bit; Stereo


TOC of the extracted CD

Track | Start | Length | Start sector | End sector
––––––––––––––––––––––––––––-
1 | 0:00.00 | 2:43.65 | 0 | 12289
2 | 2:43.65 | 2:16.47 | 12290 | 22536
3 | 5:00.37 | 2:29.08 | 22537 | 33719
4 | 7:29.45 | 2:19.11 | 33720 | 44155
5 | 9:48.56 | 2:29.37 | 44156 | 55367
6 | 12:18.18 | 2:10.67 | 55368 | 65184
7 | 14:29.10 | 2:34.74 | 65185 | 76808
8 | 17:04.09 | 2:48.71 | 76809 | 89479
9 | 19:53.05 | 2:57.43 | 89480 | 102797
10 | 22:50.48 | 2:14.26 | 102798 | 112873
11 | 25:04.74 | 2:33.30 | 112874 | 124378
12 | 27:38.29 | 2:36.02 | 124379 | 136080
13 | 30:14.31 | 2:20.04 | 136081 | 146584
14 | 32:34.35 | 2:57.03 | 146585 | 159862
15 | 35:31.38 | 2:24.05 | 159863 | 170667
16 | 37:55.43 | 2:38.44 | 170668 | 182561
17 | 40:34.12 | 2:42.47 | 182562 | 194758
18 | 43:16.59 | 2:39.53 | 194759 | 206736
19 | 45:56.37 | 2:17.28 | 206737 | 217039
20 | 48:13.65 | 2:26.64 | 217040 | 228053


Range status and errors

Selected range

Filename F:\AVAXHOME\VA - Chart Breaker (Greatest Hits Of The 50's & 60's)(1997)\VA - Chart Breaker (Greatest Hits Of The 50's & 60's) CD03.wav

Peak level 96.6 %
Range quality 99.9 %
Copy CRC 3B01BD2B
Copy OK

No errors occurred


AccurateRip summary

Track 1 accurately ripped (confidence 12) [F3DAFF66]
Track 2 accurately ripped (confidence 12) [813C19F7]
Track 3 accurately ripped (confidence 12) [4B343688]
Track 4 accurately ripped (confidence 12) [A2EDEBF4]
Track 5 accurately ripped (confidence 12) [FD7BE211]
Track 6 accurately ripped (confidence 12) [3365D649]
Track 7 accurately ripped (confidence 12) [D6AB945E]
Track 8 accurately ripped (confidence 13) [2D580435]
Track 9 accurately ripped (confidence 13) [8A56D287]
Track 10 accurately ripped (confidence 13) [2F5BF185]
Track 11 accurately ripped (confidence 13) [623E8962]
Track 12 accurately ripped (confidence 13) [7A103617]
Track 13 accurately ripped (confidence 13) [2CE2F28B]
Track 14 accurately ripped (confidence 13) [DA6D3F28]
Track 15 accurately ripped (confidence 13) [3270649E]
Track 16 accurately ripped (confidence 13) [4FFD838E]
Track 17 accurately ripped (confidence 13) [BAD1EEBB]
Track 18 accurately ripped (confidence 13) [D829AEC2]
Track 19 accurately ripped (confidence 13) [4F4B7B63]
Track 20 accurately ripped (confidence 13) [6007270C]

All tracks accurately ripped

End of status report
–––––––––––––––––––––––––––
Exact Audio Copy V0.99 prebeta 5 from 4. May 2009

EAC extraction logfile from 17. February 2010, 23:25

VA / Chart Breaker (Greatest Hits Of The 50's & 60's) CD04

Used drive : Optiarc DVD RW AD-7173A Adapter: 1 ID: 1

Read mode : Secure
Utilize accurate stream : Yes
Defeat audio cache : Yes
Make use of C2 pointers : No

Read offset correction : 48
Overread into Lead-In and Lead-Out : No
Fill up missing offset samples with silence : Yes
Delete leading and trailing silent blocks : No
Null samples used in CRC calculations : Yes
Used interface : Native Win32 interface for Win NT & 2000

Used output format : Internal WAV Routines
Sample format : 44.100 Hz; 16 Bit; Stereo


TOC of the extracted CD

Track | Start | Length | Start sector | End sector
––––––––––––––––––––––––––––-
1 | 0:00.00 | 2:42.52 | 0 | 12201
2 | 2:42.52 | 2:11.06 | 12202 | 22032
3 | 4:53.58 | 1:44.61 | 22033 | 29893
4 | 6:38.44 | 2:15.22 | 29894 | 40040
5 | 8:53.66 | 2:36.00 | 40041 | 51740
6 | 11:29.66 | 2:17.05 | 51741 | 62020
7 | 13:46.71 | 2:27.02 | 62021 | 73047
8 | 16:13.73 | 1:58.73 | 73048 | 81970
9 | 18:12.71 | 2:53.60 | 81971 | 95005
10 | 21:06.56 | 1:57.42 | 95006 | 103822
11 | 23:04.23 | 2:19.12 | 103823 | 114259
12 | 25:23.35 | 2:47.20 | 114260 | 126804
13 | 28:10.55 | 2:19.71 | 126805 | 137300
14 | 30:30.51 | 2:34.35 | 137301 | 148885
15 | 33:05.11 | 2:26.25 | 148886 | 159860
16 | 35:31.36 | 2:03.15 | 159861 | 169100
17 | 37:34.51 | 2:54.70 | 169101 | 182220
18 | 40:29.46 | 2:37.60 | 182221 | 194055
19 | 43:07.31 | 2:21.01 | 194056 | 204631
20 | 45:28.32 | 2:38.56 | 204632 | 216537


Range status and errors

Selected range

Filename F:\AVAXHOME\VA - Chart Breaker (Greatest Hits Of The 50's & 60's)(1997)\VA - Chart Breaker (Greatest Hits Of The 50's & 60's) CD04.wav

Peak level 91.2 %
Range quality 99.9 %
Copy CRC 0C24CA38
Copy OK

No errors occurred


AccurateRip summary

Track 1 accurately ripped (confidence 14) [0E11377A]
Track 2 accurately ripped (confidence 14) [D9AB2692]
Track 3 accurately ripped (confidence 14) [4AB91A43]
Track 4 accurately ripped (confidence 14) [C608045A]
Track 5 accurately ripped (confidence 14) [B7108D78]
Track 6 accurately ripped (confidence 14) [AEAF4BD3]
Track 7 accurately ripped (confidence 14) [215130B2]
Track 8 accurately ripped (confidence 14) [19661F44]
Track 9 accurately ripped (confidence 14) [FAEA96DA]
Track 10 accurately ripped (confidence 14) [9A5594C1]
Track 11 accurately ripped (confidence 14) [D109C2D1]
Track 12 accurately ripped (confidence 14) [DE9A8A1E]
Track 13 accurately ripped (confidence 14) [FE5028AF]
Track 14 accurately ripped (confidence 14) [DF6FD18B]
Track 15 accurately ripped (confidence 14) [97707A54]
Track 16 accurately ripped (confidence 14) [0DCCB58F]
Track 17 accurately ripped (confidence 14) [269810A7]
Track 18 accurately ripped (confidence 14) [27708B36]
Track 19 accurately ripped (confidence 14) [73509E6D]
Track 20 accurately ripped (confidence 14) [53BF6A3B]

All tracks accurately ripped

End of status report

–––––––––––––––––––––––––––
Exact Audio Copy V0.99 prebeta 5 from 4. May 2009

EAC extraction logfile from 17. February 2010, 23:38

VA / Chart Breaker (Greatest Hits Of The 50's & 60's) CD05

Used drive : Optiarc DVD RW AD-7173A Adapter: 1 ID: 1

Read mode : Secure
Utilize accurate stream : Yes
Defeat audio cache : Yes
Make use of C2 pointers : No

Read offset correction : 48
Overread into Lead-In and Lead-Out : No
Fill up missing offset samples with silence : Yes
Delete leading and trailing silent blocks : No
Null samples used in CRC calculations : Yes
Used interface : Native Win32 interface for Win NT & 2000

Used output format : Internal WAV Routines
Sample format : 44.100 Hz; 16 Bit; Stereo


TOC of the extracted CD

Track | Start | Length | Start sector | End sector
––––––––––––––––––––––––––––-
1 | 0:00.00 | 2:09.19 | 0 | 9693
2 | 2:09.19 | 2:09.68 | 9694 | 19436
3 | 4:19.12 | 2:46.48 | 19437 | 31934
4 | 7:05.60 | 2:00.55 | 31935 | 40989
5 | 9:06.40 | 2:39.31 | 40990 | 52945
6 | 11:45.71 | 2:34.09 | 52946 | 64504
7 | 14:20.05 | 2:47.08 | 64505 | 77037
8 | 17:07.13 | 2:39.58 | 77038 | 89020
9 | 19:46.71 | 2:09.45 | 89021 | 98740
10 | 21:56.41 | 2:23.20 | 98741 | 109485
11 | 24:19.61 | 2:48.44 | 109486 | 122129
12 | 27:08.30 | 2:27.47 | 122130 | 133201
13 | 29:36.02 | 1:59.28 | 133202 | 142154
14 | 31:35.30 | 2:11.38 | 142155 | 152017
15 | 33:46.68 | 2:31.31 | 152018 | 163373
16 | 36:18.24 | 2:44.19 | 163374 | 175692
17 | 39:02.43 | 2:37.11 | 175693 | 187478
18 | 41:39.54 | 2:23.21 | 187479 | 198224
19 | 44:03.00 | 2:29.60 | 198225 | 209459
20 | 46:32.60 | 2:36.65 | 209460 | 221224


Range status and errors

Selected range

Filename F:\AVAXHOME\VA - Chart Breaker (Greatest Hits Of The 50's & 60's)(1997)\VA - Chart Breaker (Greatest Hits Of The 50's & 60's) CD05.wav

Peak level 96.6 %
Range quality 100.0 %
Copy CRC 41EB3ADC
Copy OK

No errors occurred


AccurateRip summary

Track 1 accurately ripped (confidence 13) [DD8F88F1]
Track 2 accurately ripped (confidence 13) [1AB8D9BA]
Track 3 accurately ripped (confidence 13) [9E7A177D]
Track 4 accurately ripped (confidence 13) [85F3D0D4]
Track 5 accurately ripped (confidence 13) [BF9FFA50]
Track 6 accurately ripped (confidence 13) [C4B6011E]
Track 7 accurately ripped (confidence 13) [287396EC]
Track 8 accurately ripped (confidence 13) [D56CBFF8]
Track 9 accurately ripped (confidence 13) [C68A30C8]
Track 10 accurately ripped (confidence 13) [D81A1C03]
Track 11 accurately ripped (confidence 13) [14423029]
Track 12 accurately ripped (confidence 13) [CF0B6855]
Track 13 accurately ripped (confidence 13) [928353B0]
Track 14 accurately ripped (confidence 13) [573A8D6D]
Track 15 accurately ripped (confidence 13) [3740FA57]
Track 16 accurately ripped (confidence 13) [A78115DE]
Track 17 accurately ripped (confidence 13) [46CAFEB7]
Track 18 accurately ripped (confidence 13) [7116A8F8]
Track 19 accurately ripped (confidence 13) [38D00466]
Track 20 accurately ripped (confidence 13) [073CE4A1]

All tracks accurately ripped

End of status report

–––––––––––––––––––––––––––
Exact Audio Copy V0.99 prebeta 5 from 4. May 2009

EAC extraction logfile from 17. February 2010, 23:49

VA / Chart Breaker (Greatest Hits Of The 50's & 60's) CD06

Used drive : Optiarc DVD RW AD-7173A Adapter: 1 ID: 1

Read mode : Secure
Utilize accurate stream : Yes
Defeat audio cache : Yes
Make use of C2 pointers : No

Read offset correction : 48
Overread into Lead-In and Lead-Out : No
Fill up missing offset samples with silence : Yes
Delete leading and trailing silent blocks : No
Null samples used in CRC calculations : Yes
Used interface : Native Win32 interface for Win NT & 2000

Used output format : Internal WAV Routines
Sample format : 44.100 Hz; 16 Bit; Stereo


TOC of the extracted CD

Track | Start | Length | Start sector | End sector
––––––––––––––––––––––––––––-
1 | 0:00.00 | 2:10.01 | 0 | 9750
2 | 2:10.01 | 2:44.71 | 9751 | 22121
3 | 4:54.72 | 2:28.15 | 22122 | 33236
4 | 7:23.12 | 2:06.26 | 33237 | 42712
5 | 9:29.38 | 2:33.61 | 42713 | 54248
6 | 12:03.24 | 2:03.25 | 54249 | 63498
7 | 14:06.49 | 2:59.42 | 63499 | 76965
8 | 17:06.16 | 1:50.61 | 76966 | 85276
9 | 18:57.02 | 2:36.70 | 85277 | 97046
10 | 21:33.72 | 2:28.39 | 97047 | 108185
11 | 24:02.36 | 2:29.61 | 108186 | 119421
12 | 26:32.22 | 2:18.30 | 119422 | 129801
13 | 28:50.52 | 2:11.06 | 129802 | 139632
14 | 31:01.58 | 2:35.67 | 139633 | 151324
15 | 33:37.50 | 2:58.11 | 151325 | 164685
16 | 36:35.61 | 1:51.40 | 164686 | 173050
17 | 38:27.26 | 2:29.26 | 173051 | 184251
18 | 40:56.52 | 2:51.34 | 184252 | 197110
19 | 43:48.11 | 3:01.52 | 197111 | 210737
20 | 46:49.63 | 2:35.64 | 210738 | 222426


Range status and errors

Selected range

Filename F:\AVAXHOME\VA - Chart Breaker (Greatest Hits Of The 50's & 60's)(1997)\VA - Chart Breaker (Greatest Hits Of The 50's & 60's) CD06.wav

Peak level 92.0 %
Range quality 100.0 %
Copy CRC 3CC59E25
Copy OK

No errors occurred


AccurateRip summary

Track 1 accurately ripped (confidence 14) [0FD78B5F]
Track 2 accurately ripped (confidence 14) [1C4A117E]
Track 3 accurately ripped (confidence 14) [09860E1B]
Track 4 accurately ripped (confidence 14) [267A87C1]
Track 5 accurately ripped (confidence 14) [32843DB0]
Track 6 accurately ripped (confidence 14) [C44E167F]
Track 7 accurately ripped (confidence 14) [4B6F07A3]
Track 8 accurately ripped (confidence 14) [33583BBE]
Track 9 accurately ripped (confidence 14) [E37757FA]
Track 10 accurately ripped (confidence 14) [795D140C]
Track 11 accurately ripped (confidence 14) [1C4BFAFD]
Track 12 accurately ripped (confidence 14) [161D668D]
Track 13 accurately ripped (confidence 13) [CAC9F1BF]
Track 14 accurately ripped (confidence 13) [1A1AFCE7]
Track 15 accurately ripped (confidence 14) [7E748A7B]
Track 16 accurately ripped (confidence 14) [C0AEBACE]
Track 17 accurately ripped (confidence 14) [518C98ED]
Track 18 accurately ripped (confidence 14) [C453766C]
Track 19 accurately ripped (confidence 14) [34E6854B]
Track 20 accurately ripped (confidence 14) [0FFF4B6D]

All tracks accurately ripped

End of status report

–––––––––––––––––––––––––––
Exact Audio Copy V0.99 prebeta 5 from 4. May 2009

EAC extraction logfile from 18. February 2010, 0:22

VA / Chart Breaker (Greatest Hits Of The 50's & 60's) CD07

Used drive : Optiarc DVD RW AD-7173A Adapter: 1 ID: 1

Read mode : Secure
Utilize accurate stream : Yes
Defeat audio cache : Yes
Make use of C2 pointers : No

Read offset correction : 48
Overread into Lead-In and Lead-Out : No
Fill up missing offset samples with silence : Yes
Delete leading and trailing silent blocks : No
Null samples used in CRC calculations : Yes
Used interface : Native Win32 interface for Win NT & 2000

Used output format : Internal WAV Routines
Sample format : 44.100 Hz; 16 Bit; Stereo


TOC of the extracted CD

Track | Start | Length | Start sector | End sector
––––––––––––––––––––––––––––-
1 | 0:00.00 | 2:15.03 | 0 | 10127
2 | 2:15.03 | 3:17.36 | 10128 | 24938
3 | 5:32.39 | 2:13.17 | 24939 | 34930
4 | 7:45.56 | 2:53.15 | 34931 | 47920
5 | 10:38.71 | 2:34.73 | 47921 | 59543
6 | 13:13.69 | 2:15.30 | 59544 | 69698
7 | 15:29.24 | 2:45.09 | 69699 | 82082
8 | 18:14.33 | 2:21.73 | 82083 | 92730
9 | 20:36.31 | 2:20.47 | 92731 | 103277
10 | 22:57.03 | 2:53.21 | 103278 | 116273
11 | 25:50.24 | 2:09.32 | 116274 | 125980
12 | 27:59.56 | 2:23.45 | 125981 | 136750
13 | 30:23.26 | 2:41.40 | 136751 | 148865
14 | 33:04.66 | 2:12.61 | 148866 | 158826
15 | 35:17.52 | 2:37.00 | 158827 | 170601
16 | 37:54.52 | 2:04.54 | 170602 | 179955
17 | 39:59.31 | 2:18.47 | 179956 | 190352
18 | 42:18.03 | 2:02.74 | 190353 | 199576
19 | 44:21.02 | 2:29.20 | 199577 | 210771
20 | 46:50.22 | 2:24.66 | 210772 | 221637


Range status and errors

Selected range

Filename F:\AVAXHOME\VA - Chart Breaker (Greatest Hits Of The 50's & 60's)(1997)\VA - Chart Breaker (Greatest Hits Of The 50's & 60's) CD07.wav

Peak level 91.2 %
Range quality 99.9 %
Copy CRC C09C5CC1
Copy OK

No errors occurred


AccurateRip summary

Track 1 accurately ripped (confidence 13) [AD35D9F9]
Track 2 accurately ripped (confidence 13) [1A4ACC2C]
Track 3 accurately ripped (confidence 13) [BA74B078]
Track 4 accurately ripped (confidence 13) [46A2F381]
Track 5 accurately ripped (confidence 13) [3E2981A0]
Track 6 accurately ripped (confidence 13) [5AEF5161]
Track 7 accurately ripped (confidence 13) [C3D67651]
Track 8 accurately ripped (confidence 13) [5641DA50]
Track 9 accurately ripped (confidence 13) [60EF76B1]
Track 10 accurately ripped (confidence 13) [F82C50C9]
Track 11 accurately ripped (confidence 13) [448AFBE8]
Track 12 accurately ripped (confidence 13) [6882E3DD]
Track 13 accurately ripped (confidence 14) [AF050640]
Track 14 accurately ripped (confidence 14) [E53F3F9E]
Track 15 accurately ripped (confidence 14) [F87C8338]
Track 16 accurately ripped (confidence 14) [C2063140]
Track 17 accurately ripped (confidence 14) [25AC0373]
Track 18 accurately ripped (confidence 14) [4C08F31E]
Track 19 accurately ripped (confidence 14) [AD2110BD]
Track 20 accurately ripped (confidence 14) [48E92C3C]

All tracks accurately ripped

End of status report

–––––––––––––––––––––––––––
Exact Audio Copy V0.99 prebeta 5 from 4. May 2009

EAC extraction logfile from 18. February 2010, 0:49

VA / Chart Breaker (Greatest Hits Of The 50's & 60's) CD08

Used drive : Optiarc DVD RW AD-7173A Adapter: 1 ID: 1

Read mode : Secure
Utilize accurate stream : Yes
Defeat audio cache : Yes
Make use of C2 pointers : No

Read offset correction : 48
Overread into Lead-In and Lead-Out : No
Fill up missing offset samples with silence : Yes
Delete leading and trailing silent blocks : No
Null samples used in CRC calculations : Yes
Used interface : Native Win32 interface for Win NT & 2000

Used output format : Internal WAV Routines
Sample format : 44.100 Hz; 16 Bit; Stereo


TOC of the extracted CD

Track | Start | Length | Start sector | End sector
––––––––––––––––––––––––––––-
1 | 0:00.00 | 2:48.53 | 0 | 12652
2 | 2:48.53 | 1:56.56 | 12653 | 21408
3 | 4:45.34 | 2:14.53 | 21409 | 31511
4 | 7:00.12 | 3:20.01 | 31512 | 46512
5 | 10:20.13 | 2:48.70 | 46513 | 59182
6 | 13:09.08 | 2:23.67 | 59183 | 69974
7 | 15:33.00 | 2:05.30 | 69975 | 79379
8 | 17:38.30 | 3:04.64 | 79380 | 93243
9 | 20:43.19 | 2:27.58 | 93244 | 104326
10 | 23:11.02 | 3:11.60 | 104327 | 118711
11 | 26:22.62 | 2:00.47 | 118712 | 127758
12 | 28:23.34 | 2:31.55 | 127759 | 139138
13 | 30:55.14 | 2:23.14 | 139139 | 149877
14 | 33:18.28 | 2:03.68 | 149878 | 159170
15 | 35:22.21 | 2:40.40 | 159171 | 171210
16 | 38:02.61 | 2:58.65 | 171211 | 184625
17 | 41:01.51 | 2:35.33 | 184626 | 196283
18 | 43:37.09 | 1:55.34 | 196284 | 204942
19 | 45:32.43 | 2:35.63 | 204943 | 216630
20 | 48:08.31 | 3:37.02 | 216631 | 232907


Range status and errors

Selected range

Filename F:\AVAXHOME\VA - Chart Breaker (Greatest Hits Of The 50's & 60's)(1997)\VA - Chart Breaker (Greatest Hits Of The 50's & 60's) CD08.wav

Peak level 88.9 %
Range quality 99.9 %
Copy CRC AA5E071E
Copy OK

No errors occurred


AccurateRip summary

Track 1 accurately ripped (confidence 13) [B1DDAF82]
Track 2 accurately ripped (confidence 13) [4E9BA727]
Track 3 accurately ripped (confidence 13) [EC4F152B]
Track 4 accurately ripped (confidence 13) [60D05E97]
Track 5 accurately ripped (confidence 14) [74AB5C99]
Track 6 accurately ripped (confidence 14) [C020B1BC]
Track 7 accurately ripped (confidence 14) [912CA7CC]
Track 8 accurately ripped (confidence 14) [FABA3FB9]
Track 9 accurately ripped (confidence 14) [83967685]
Track 10 accurately ripped (confidence 14) [3B7C1103]
Track 11 accurately ripped (confidence 14) [49162BCA]
Track 12 accurately ripped (confidence 14) [F39EC7BA]
Track 13 accurately ripped (confidence 14) [1B5DB22C]
Track 14 accurately ripped (confidence 14) [CF705052]
Track 15 accurately ripped (confidence 14) [A02463BB]
Track 16 accurately ripped (confidence 14) [D74CC15B]
Track 17 accurately ripped (confidence 14) [0E95DA01]
Track 18 accurately ripped (confidence 14) [E6495DC5]
Track 19 accurately ripped (confidence 14) [76660876]
Track 20 accurately ripped (confidence 14) [5F49E84C]

All tracks accurately ripped

End of status report

–––––––––––––––––––––––––––
Exact Audio Copy V0.99 prebeta 5 from 4. May 2009

EAC extraction logfile from 18. February 2010, 1:01

VA / Chart Breaker (Greatest Hits Of The 50's & 60's) CD09

Used drive : Optiarc DVD RW AD-7173A Adapter: 1 ID: 1

Read mode : Secure
Utilize accurate stream : Yes
Defeat audio cache : Yes
Make use of C2 pointers : No

Read offset correction : 48
Overread into Lead-In and Lead-Out : No
Fill up missing offset samples with silence : Yes
Delete leading and trailing silent blocks : No
Null samples used in CRC calculations : Yes
Used interface : Native Win32 interface for Win NT & 2000

Used output format : Internal WAV Routines
Sample format : 44.100 Hz; 16 Bit; Stereo


TOC of the extracted CD

Track | Start | Length | Start sector | End sector
––––––––––––––––––––––––––––-
1 | 0:00.00 | 2:50.56 | 0 | 12805
2 | 2:50.56 | 2:07.45 | 12806 | 22375
3 | 4:58.26 | 2:28.57 | 22376 | 33532
4 | 7:27.08 | 2:53.00 | 33533 | 46507
5 | 10:20.08 | 2:46.08 | 46508 | 58965
6 | 13:06.16 | 2:31.07 | 58966 | 70297
7 | 15:37.23 | 1:57.57 | 70298 | 79129
8 | 17:35.05 | 2:53.42 | 79130 | 92146
9 | 20:28.47 | 2:17.70 | 92147 | 102491
10 | 22:46.42 | 2:23.53 | 102492 | 113269
11 | 25:10.20 | 2:44.39 | 113270 | 125608
12 | 27:54.59 | 2:38.23 | 125609 | 137481
13 | 30:33.07 | 2:41.17 | 137482 | 149573
14 | 33:14.24 | 2:27.15 | 149574 | 160613
15 | 35:41.39 | 2:40.22 | 160614 | 172635
16 | 38:21.61 | 2:36.00 | 172636 | 184335
17 | 40:57.61 | 2:24.57 | 184336 | 195192
18 | 43:22.43 | 2:14.62 | 195193 | 205304
19 | 45:37.30 | 1:57.26 | 205305 | 214105
20 | 47:34.56 | 3:02.61 | 214106 | 227816


Range status and errors

Selected range

Filename F:\AVAXHOME\VA - Chart Breaker (Greatest Hits Of The 50's & 60's)(1997)\VA - Chart Breaker (Greatest Hits Of The 50's & 60's) CD09.wav

Peak level 96.6 %
Range quality 100.0 %
Copy CRC 1356350A
Copy OK

No errors occurred


AccurateRip summary

Track 1 accurately ripped (confidence 14) [F3E11D36]
Track 2 accurately ripped (confidence 14) [41893D54]
Track 3 accurately ripped (confidence 14) [D75B998B]
Track 4 accurately ripped (confidence 14) [D4D2BDBB]
Track 5 accurately ripped (confidence 14) [F76E1F2F]
Track 6 accurately ripped (confidence 14) [77BB06E0]
Track 7 accurately ripped (confidence 14) [12B3895A]
Track 8 accurately ripped (confidence 14) [52E3809C]
Track 9 accurately ripped (confidence 14) [58278486]
Track 10 accurately ripped (confidence 14) [F0D10AF1]
Track 11 accurately ripped (confidence 14) [1AF3F2D2]
Track 12 accurately ripped (confidence 14) [B0410546]
Track 13 accurately ripped (confidence 14) [3E4965D9]
Track 14 accurately ripped (confidence 14) [CBD3F396]
Track 15 accurately ripped (confidence 14) [B9606F18]
Track 16 accurately ripped (confidence 14) [EF867110]
Track 17 accurately ripped (confidence 14) [08C68378]
Track 18 accurately ripped (confidence 14) [65D4732A]
Track 19 accurately ripped (confidence 14) [FCB384EB]
Track 20 accurately ripped (confidence 14) [CD0F2AAE]

All tracks accurately ripped

End of status report

–––––––––––––––––––––––––––
Exact Audio Copy V0.99 prebeta 5 from 4. May 2009

EAC extraction logfile from 18. February 2010, 1:13

VA / Chart Breaker (Greatest Hits Of The 50's & 60's) CD10

Used drive : Optiarc DVD RW AD-7173A Adapter: 1 ID: 1

Read mode : Secure
Utilize accurate stream : Yes
Defeat audio cache : Yes
Make use of C2 pointers : No

Read offset correction : 48
Overread into Lead-In and Lead-Out : No
Fill up missing offset samples with silence : Yes
Delete leading and trailing silent blocks : No
Null samples used in CRC calculations : Yes
Used interface : Native Win32 interface for Win NT & 2000

Used output format : Internal WAV Routines
Sample format : 44.100 Hz; 16 Bit; Stereo


TOC of the extracted CD

Track | Start | Length | Start sector | End sector
––––––––––––––––––––––––––––-
1 | 0:00.00 | 2:44.03 | 0 | 12302
2 | 2:44.03 | 2:58.02 | 12303 | 25654
3 | 5:42.05 | 2:19.08 | 25655 | 36087
4 | 8:01.13 | 2:46.62 | 36088 | 48599
5 | 10:48.00 | 1:57.44 | 48600 | 57418
6 | 12:45.44 | 1:48.49 | 57419 | 65567
7 | 14:34.18 | 2:15.36 | 65568 | 75728
8 | 16:49.54 | 2:06.48 | 75729 | 85226
9 | 18:56.27 | 1:55.18 | 85227 | 93869
10 | 20:51.45 | 2:17.31 | 93870 | 104175
11 | 23:09.01 | 2:25.16 | 104176 | 115066
12 | 25:34.17 | 2:26.61 | 115067 | 126077
13 | 28:01.03 | 2:27.09 | 126078 | 137111
14 | 30:28.12 | 2:17.55 | 137112 | 147441
15 | 32:45.67 | 2:19.27 | 147442 | 157893
16 | 35:05.19 | 2:57.18 | 157894 | 171186
17 | 38:02.37 | 2:18.19 | 171187 | 181555
18 | 40:20.56 | 2:49.00 | 181556 | 194230
19 | 43:09.56 | 2:03.43 | 194231 | 203498
20 | 45:13.24 | 2:26.01 | 203499 | 214449


Range status and errors

Selected range

Filename F:\AVAXHOME\VA - Chart Breaker (Greatest Hits Of The 50's & 60's)(1997)\VA - Chart Breaker (Greatest Hits Of The 50's & 60's) CD10.wav

Peak level 96.6 %
Range quality 100.0 %
Copy CRC AC1C4C11
Copy OK

No errors occurred


AccurateRip summary

Track 1 accurately ripped (confidence 14) [893E0554]
Track 2 accurately ripped (confidence 14) [884EAB7C]
Track 3 accurately ripped (confidence 14) [C2F4CFB5]
Track 4 accurately ripped (confidence 14) [DEDF64BC]
Track 5 accurately ripped (confidence 14) [3F658DEC]
Track 6 accurately ripped (confidence 14) [ABD383A5]
Track 7 accurately ripped (confidence 14) [E23F969D]
Track 8 accurately ripped (confidence 13) [819CE464]
Track 9 accurately ripped (confidence 14) [CA7BEAF7]
Track 10 accurately ripped (confidence 14) [50C334B7]
Track 11 accurately ripped (confidence 14) [A5386F2C]
Track 12 accurately ripped (confidence 14) [0D6516BE]
Track 13 accurately ripped (confidence 14) [489320EC]
Track 14 accurately ripped (confidence 14) [8A7ADEA1]
Track 15 accurately ripped (confidence 14) [E98B0FC1]
Track 16 accurately ripped (confidence 14) [135A33A8]
Track 17 accurately ripped (confidence 14) [EFA581E6]
Track 18 accurately ripped (confidence 14) [4E54E1C2]
Track 19 accurately ripped (confidence 14) [BE66E03B]
Track 20 accurately ripped (confidence 14) [1D69730B]

All tracks accurately ripped

End of status report

RIPPED BY JANWAL46

RS Links:

CD01:


CD02:


CD03:


CD04:


CD05:


CD06:


CD07:


CD08:


CD09:


CD10:




In case you encounter dead links in any of my posts, please send me a private message !!!!


Password: janwal46

Say thanks, but please, no mirrors and/or direct links in your comments !!!!