Subcategories

VA - Close To The Noise Floor (Formative UK Electronica 1975-1984) (2016)

Posted By: delpotro
VA - Close To The Noise Floor (Formative UK Electronica 1975-1984) (2016)

VA - Close To The Noise Floor (Formative UK Electronica 1975-1984) (2016)
EAC Rip | FLAC (tracks+log+.cue) | 04:15:33 | 1,38 Gb
Synthpop, Ambient, Techno | Label: Cherry Red Records

Two years in the making, Close To The Noise Floor is a 4CD, 60-track set exploring the origins of electronica in the UK. Featuring tracks from key figures on the cassette label underground alongside early releases by future stars of the movement, this is part primitive rave, part synthesiser porn and part history lesson.

Enthralled by the mysterious electronics of Pink Floyd, Hawkwind, Gong and German Kosmische artists such as Tangerine Dream, Harmonia and Cluster, and inspired by the DIY ethos of punk, a quiet revolution took place across the UK in the late 1970s and early 1980s. The rise of the microchip and the advent of affordable synthesisers enabled countless artists for whom guitars, drums and bass had become old hat, and in grubby bedsits, unremarkable living rooms and art school halls across the British Isles, UK electronica was born. The underground, fuelled by cassette exchanges, co-operative vinyl compilations and a thriving mail order network, quickly began to stretch the boundaries of sonic experimentation.

Close To The Noise Floor explores every corner of this fascinating and often overlooked chapter in our musical history. For proto synth-pop look no further than 100% Manmade Fibre and Spoon Fazer, whilst British Standard Unit and Five Times Of Dust lay out techno templates which wouldn’t take full form until many years later. Elsewhere, the synthesiser laden ambient music of Zorch and the found sound collages of A Tent sit comfortably alongside early forays by familiar names – Blancmange, The Human League, OMD and Throbbing Gristle – in over four hours of futurist, entirely modern music.

And who better to tell this story than the artists themselves…. Close To The Noise Floor features forty eight pages of artist written sleevenotes, unseen photographs and extracts from Dave Henderson’s legendary 1983 Wild Planet overview of the entire scene.
Tracklist:
Disc 1
1. Five Times Of Dust – Computer Bank
2. The Klingons – R.A.M.
3. Chris And Cosey – Re-Education Through Labour
4. Malcolm Brown – Sedation Strokes
5. Storm Bugs – Little Bob Minor
6. Thomas Leer – Tight As A Drum
7. Blancmange – Holiday Camp
8. Inter City Static – Fractured Smile
9. We Be Echo – Sexuality
10. Bourbonese Qualk – God With Us
11. Nagamatzu – Faith
12. O Yuki Conjugate – Disco Song
13. British Electric Foundation – Optimum Chant
14. Kevin Harrison – All Night Long
15. Voice Of Authority – Stopping And Starting

Disc 2
1. Colin Potter – I Am Your Shadow
2. British Standard Unit – D'Ya Think I'm Sexy?
3. Five Times Of Dust – The Single Off The Album
4. Spöön Fazer – Back To The Beginning
5. Gerry And The Holograms – Gerry And The Holograms
6. The Passage – Drugface
7. John Foxx – A New Kind Of Man
8. 100% Manmade Fibre – Green For Go
9. Those Little Aliens – Sentimental
10. Final Program – Protect And Survive
11. The Human League – Being Boiled
12. Instant Automatons – New Muzak
13. Cultural Amnesia – Materialistic Man
14. Worldbackwards – (Leaving Me) Now
15. Alan Burnham – Music To Save The World By
16. Orchestral Manoeuvres In The Dark – Almost
17. Eyeless In Gaza – Kodak Ghosts Run Amok
18. Schleimer K – Broken Vein
19. Native Europe – The Distance From Köln

Disc 3
1. Zorch – Adrenalin (return Of The Elohim Pt 1)
2. Sea Of Wires – Robot Dance
3. Ron Berry – Sea Of Tranquility
4. MFH – Mistral
5. Adrian Smith – Joe Goes To New York
6. Mark Shreeve – Embryo (Extract)
7. EG Oblique Graph – Triptych
8. Carl Matthews – Encounter
9. Paul Nagle – Ynys Scaith
10. O Yuki Conjugate – Sedation
11. Konstruktivist – Western Vein
12. Attrition – Dead Of Night (Excerpt)

Disc 4
1. Throbbing Gristle – What A Day
2. A Tent – No Way Of Knowing
3. Portion Control – Go For The Throat
4. DC3 – Eco Beat
5. Renaldo And The Loaf – Dying Inside
6. Blah Blah Blah – In The Army
7. Legendary Pink Dots – God Speed
8. Muslimgauze – Muslin Gauze Muslim Prayer
9. Suisse – Live At Longborne
10. Alien Brains – Menial Disorders, Extract B2
11. Storm Bugs – Himeal (And She Blew)
12. Third Door From The Left – In The Room
13. Al Robertson – Dignity Of Labour
14. bcGilbert, gLewis & russell Mills – Mzui (Extract)

Exact Audio Copy V1.0 beta 3 from 29. August 2011

EAC extraction logfile from 29. April 2016, 19:31

Various Artists / Close To The Noise Floor

Used drive : TSSTcorpCDDVDW SH-S203N Adapter: 3 ID: 0

Read mode : Secure
Utilize accurate stream : Yes
Defeat audio cache : Yes
Make use of C2 pointers : No

Read offset correction : 6
Overread into Lead-In and Lead-Out : No
Fill up missing offset samples with silence : Yes
Delete leading and trailing silent blocks : No
Null samples used in CRC calculations : Yes
Used interface : Native Win32 interface for Win NT & 2000
Gap handling : Appended to previous track

Used output format : User Defined Encoder
Selected bitrate : 128 kBit/s
Quality : High
Add ID3 tag : No
Command line compressor : C:\Program Files\Exact Audio Copy\Flac\flac.exe
Additional command line options : -8 -V -T "ARTIST=%artist%" -T "TITLE=%title%" -T "ALBUM=%albumtitle%" -T "DATE=%year%" -T "TRACKNUMBER=%tracknr%" -T "GENRE=%genre%" -T "PERFORMER=%albuminterpret%" -T "COMPOSER=%composer%" %haslyrics%–tag-from-file=LYRICS="%lyricsfile%"%haslyrics% -T "ALBUMARTIST=%albumartist%" -T "DISCNUMBER=%cdnumber%" -T "TOTALDISCS=%totalcds%" -T "TOTALTRACKS=%numtracks%" -T "COMMENT=%comment%" %source% -o %dest%


TOC of the extracted CD

Track | Start | Length | Start sector | End sector
––––––––––––––––––––––––––––-
1 | 0:00.00 | 5:15.72 | 0 | 23696
2 | 5:15.72 | 5:32.36 | 23697 | 48632
3 | 10:48.33 | 7:10.45 | 48633 | 80927
4 | 17:59.03 | 4:07.44 | 80928 | 99496
5 | 22:06.47 | 3:33.63 | 99497 | 115534
6 | 25:40.35 | 4:39.04 | 115535 | 136463
7 | 30:19.39 | 3:09.43 | 136464 | 150681
8 | 33:29.07 | 4:26.41 | 150682 | 170672
9 | 37:55.48 | 2:55.46 | 170673 | 183843
10 | 40:51.19 | 5:53.16 | 183844 | 210334
11 | 46:44.35 | 6:55.36 | 210335 | 241495
12 | 53:39.71 | 4:14.36 | 241496 | 260581
13 | 57:54.32 | 4:11.56 | 260582 | 279462
14 | 62:06.13 | 1:34.42 | 279463 | 286554
15 | 63:40.55 | 5:58.48 | 286555 | 313452


Track 1

Filename D:\My Rips\Various Artists - Close To The Noise Floor [FLAC]\CD1\01 - Five Times Of Dust - Computer Bank.wav

Pre-gap length 0:00:02.00

Peak level 98.8 %
Extraction speed 4.5 X
Track quality 100.0 %
Test CRC 269158F4
Copy CRC 269158F4
Track not present in AccurateRip database
Copy OK

Track 2

Filename D:\My Rips\Various Artists - Close To The Noise Floor [FLAC]\CD1\02 - The Klingons - R.A.M..wav

Pre-gap length 0:00:01.47

Peak level 79.6 %
Extraction speed 5.1 X
Track quality 100.0 %
Test CRC 5DDFA11C
Copy CRC 5DDFA11C
Track not present in AccurateRip database
Copy OK

Track 3

Filename D:\My Rips\Various Artists - Close To The Noise Floor [FLAC]\CD1\03 - Chris & Cosey - Re-Education Through Labour.wav

Pre-gap length 0:00:01.48

Peak level 86.3 %
Extraction speed 5.2 X
Track quality 99.9 %
Test CRC C4155EC3
Copy CRC C4155EC3
Track not present in AccurateRip database
Copy OK

Track 4

Filename D:\My Rips\Various Artists - Close To The Noise Floor [FLAC]\CD1\04 - Malcolm Brown - Sedation Strokes.wav

Pre-gap length 0:00:00.55

Peak level 98.8 %
Extraction speed 6.0 X
Track quality 100.0 %
Test CRC A582505B
Copy CRC A582505B
Track not present in AccurateRip database
Copy OK

Track 5

Filename D:\My Rips\Various Artists - Close To The Noise Floor [FLAC]\CD1\05 - Storm Bugs - Little Bob Minor.wav

Pre-gap length 0:00:01.46

Peak level 88.1 %
Extraction speed 6.1 X
Track quality 100.0 %
Test CRC 208B67F0
Copy CRC 208B67F0
Track not present in AccurateRip database
Copy OK

Track 6

Filename D:\My Rips\Various Artists - Close To The Noise Floor [FLAC]\CD1\06 - Thomas Leer - Tight As A Drum.wav

Pre-gap length 0:00:01.16

Peak level 91.2 %
Extraction speed 6.7 X
Track quality 100.0 %
Test CRC 6D73C921
Copy CRC 6D73C921
Track not present in AccurateRip database
Copy OK

Track 7

Filename D:\My Rips\Various Artists - Close To The Noise Floor [FLAC]\CD1\07 - Blancmange - Holiday Camp.wav

Pre-gap length 0:00:01.21

Peak level 96.6 %
Extraction speed 5.0 X
Track quality 99.9 %
Test CRC CB6C71A3
Copy CRC CB6C71A3
Track not present in AccurateRip database
Copy OK

Track 8

Filename D:\My Rips\Various Artists - Close To The Noise Floor [FLAC]\CD1\08 - Inter City Static - Fractured Smile.wav

Pre-gap length 0:00:01.45

Peak level 93.3 %
Extraction speed 5.8 X
Track quality 99.9 %
Test CRC 873547D5
Copy CRC 873547D5
Track not present in AccurateRip database
Copy OK

Track 9

Filename D:\My Rips\Various Artists - Close To The Noise Floor [FLAC]\CD1\09 - We Be Echo - Sexuality.wav

Pre-gap length 0:00:01.31

Peak level 79.4 %
Extraction speed 5.2 X
Track quality 99.9 %
Test CRC A302E2D1
Copy CRC A302E2D1
Track not present in AccurateRip database
Copy OK

Track 10

Filename D:\My Rips\Various Artists - Close To The Noise Floor [FLAC]\CD1\10 - Bourbonese Qualk - God With Us.wav

Pre-gap length 0:00:01.39

Peak level 89.2 %
Extraction speed 6.7 X
Track quality 99.9 %
Test CRC 5E1421A3
Copy CRC 5E1421A3
Track not present in AccurateRip database
Copy OK

Track 11

Filename D:\My Rips\Various Artists - Close To The Noise Floor [FLAC]\CD1\11 - Nagamatzu - Faith.wav

Pre-gap length 0:00:01.34

Peak level 86.6 %
Extraction speed 8.3 X
Track quality 100.0 %
Test CRC 1BBB2B74
Copy CRC 1BBB2B74
Track not present in AccurateRip database
Copy OK

Track 12

Filename D:\My Rips\Various Artists - Close To The Noise Floor [FLAC]\CD1\12 - O Yuki Conjugate - Disco Song.wav

Pre-gap length 0:00:01.08

Peak level 96.6 %
Extraction speed 8.2 X
Track quality 100.0 %
Test CRC 56608D83
Copy CRC 56608D83
Track not present in AccurateRip database
Copy OK

Track 13

Filename D:\My Rips\Various Artists - Close To The Noise Floor [FLAC]\CD1\13 - British Electric Foundation - Optimum Chant.wav

Pre-gap length 0:00:01.26

Peak level 95.1 %
Extraction speed 8.4 X
Track quality 100.0 %
Test CRC 4001E674
Copy CRC 4001E674
Track not present in AccurateRip database
Copy OK

Track 14

Filename D:\My Rips\Various Artists - Close To The Noise Floor [FLAC]\CD1\14 - Kevin Harrison - All Night Long.wav

Pre-gap length 0:00:00.40

Peak level 86.1 %
Extraction speed 6.9 X
Track quality 100.0 %
Test CRC F12830BB
Copy CRC F12830BB
Track not present in AccurateRip database
Copy OK

Track 15

Filename D:\My Rips\Various Artists - Close To The Noise Floor [FLAC]\CD1\15 - Voice Of Authority - Stopping & Starting.wav

Pre-gap length 0:00:01.30

Peak level 96.6 %
Extraction speed 9.1 X
Track quality 100.0 %
Test CRC C68DA396
Copy CRC C68DA396
Track not present in AccurateRip database
Copy OK


None of the tracks are present in the AccurateRip database

No errors occurred

End of status report

–– CUETools DB Plugin V2.1.3

[CTDB TOCID: XCRzSX.wW72abhLKGGMs0qXqpD8-] disk not present in database, Submit result: XCRzSX.wW72abhLKGGMs0qXqpD8- has been uploaded


==== Log checksum 5D2D5C74422F8995C06D1482FD59A027E259263D07EE7CA73EAE092C0E18AAFD ====

Exact Audio Copy V1.0 beta 3 from 29. August 2011

EAC extraction logfile from 29. April 2016, 20:13

Various Artists / Close To The Noise Floor

Used drive : TSSTcorpCDDVDW SH-S203N Adapter: 3 ID: 0

Read mode : Secure
Utilize accurate stream : Yes
Defeat audio cache : Yes
Make use of C2 pointers : No

Read offset correction : 6
Overread into Lead-In and Lead-Out : No
Fill up missing offset samples with silence : Yes
Delete leading and trailing silent blocks : No
Null samples used in CRC calculations : Yes
Used interface : Native Win32 interface for Win NT & 2000
Gap handling : Appended to previous track

Used output format : User Defined Encoder
Selected bitrate : 128 kBit/s
Quality : High
Add ID3 tag : No
Command line compressor : C:\Program Files\Exact Audio Copy\Flac\flac.exe
Additional command line options : -8 -V -T "ARTIST=%artist%" -T "TITLE=%title%" -T "ALBUM=%albumtitle%" -T "DATE=%year%" -T "TRACKNUMBER=%tracknr%" -T "GENRE=%genre%" -T "PERFORMER=%albuminterpret%" -T "COMPOSER=%composer%" %haslyrics%–tag-from-file=LYRICS="%lyricsfile%"%haslyrics% -T "ALBUMARTIST=%albumartist%" -T "DISCNUMBER=%cdnumber%" -T "TOTALDISCS=%totalcds%" -T "TOTALTRACKS=%numtracks%" -T "COMMENT=%comment%" %source% -o %dest%


TOC of the extracted CD

Track | Start | Length | Start sector | End sector
––––––––––––––––––––––––––––-
1 | 0:00.00 | 2:45.74 | 0 | 12448
2 | 2:45.74 | 2:25.55 | 12449 | 23378
3 | 5:11.54 | 3:27.14 | 23379 | 38917
4 | 8:38.68 | 2:38.61 | 38918 | 50828
5 | 11:17.54 | 4:07.09 | 50829 | 69362
6 | 15:24.63 | 3:48.24 | 69363 | 86486
7 | 19:13.12 | 4:32.30 | 86487 | 106916
8 | 23:45.42 | 3:02.49 | 106917 | 120615
9 | 26:48.16 | 1:59.51 | 120616 | 129591
10 | 28:47.67 | 2:26.60 | 129592 | 140601
11 | 31:14.52 | 3:39.61 | 140602 | 157087
12 | 34:54.38 | 1:50.48 | 157088 | 165385
13 | 36:45.11 | 3:38.36 | 165386 | 181771
14 | 40:23.47 | 2:53.48 | 181772 | 194794
15 | 43:17.20 | 3:49.14 | 194795 | 211983
16 | 47:06.34 | 3:42.45 | 211984 | 228678
17 | 50:49.04 | 2:28.00 | 228679 | 239778
18 | 53:17.04 | 4:22.38 | 239779 | 259466
19 | 57:39.42 | 2:28.57 | 259467 | 270623


Track 1

Filename D:\My Rips\Various Artists - Close To The Noise Floor [FLAC]\CD2\01 - Colin Potter - I Am Your Shadow.wav

Pre-gap length 0:00:02.00

Peak level 96.6 %
Extraction speed 3.0 X
Track quality 99.9 %
Test CRC EC538192
Copy CRC EC538192
Track not present in AccurateRip database
Copy OK

Track 2

Filename D:\My Rips\Various Artists - Close To The Noise Floor [FLAC]\CD2\02 - British Standard Unit - D'Ya Think I'm Sexy.wav

Pre-gap length 0:00:01.19

Peak level 85.1 %
Extraction speed 3.0 X
Track quality 99.9 %
Test CRC 93DD89D9
Copy CRC 93DD89D9
Track not present in AccurateRip database
Copy OK

Track 3

Filename D:\My Rips\Various Artists - Close To The Noise Floor [FLAC]\CD2\03 - Five Times Of Dust - The Single Of The Album.wav

Pre-gap length 0:00:01.13

Peak level 96.6 %
Extraction speed 4.7 X
Track quality 100.0 %
Test CRC 324242D1
Copy CRC 324242D1
Track not present in AccurateRip database
Copy OK

Track 4

Filename D:\My Rips\Various Artists - Close To The Noise Floor [FLAC]\CD2\04 - Spoon Fazer - Back To The Beginning.wav

Pre-gap length 0:00:01.40

Peak level 84.1 %
Extraction speed 4.8 X
Track quality 100.0 %
Test CRC 014F6514
Copy CRC 014F6514
Track not present in AccurateRip database
Copy OK

Track 5

Filename D:\My Rips\Various Artists - Close To The Noise Floor [FLAC]\CD2\05 - Gerry & The Holograms - Gerry & The Holograms.wav

Pre-gap length 0:00:00.74

Peak level 96.6 %
Extraction speed 5.5 X
Track quality 100.0 %
Test CRC B41E50BD
Copy CRC B41E50BD
Track not present in AccurateRip database
Copy OK

Track 6

Filename D:\My Rips\Various Artists - Close To The Noise Floor [FLAC]\CD2\06 - The Passage - Drugface.wav

Pre-gap length 0:00:01.35

Peak level 82.2 %
Extraction speed 5.8 X
Track quality 100.0 %
Test CRC 865918ED
Copy CRC 865918ED
Track not present in AccurateRip database
Copy OK

Track 7

Filename D:\My Rips\Various Artists - Close To The Noise Floor [FLAC]\CD2\07 - John Foxx - A New Kind Of Man.wav

Pre-gap length 0:00:01.40

Peak level 83.1 %
Extraction speed 6.3 X
Track quality 100.0 %
Test CRC 63531EF2
Copy CRC 63531EF2
Track not present in AccurateRip database
Copy OK

Track 8

Filename D:\My Rips\Various Artists - Close To The Noise Floor [FLAC]\CD2\08 - 100% Manmade Fibre - Green For Go.wav

Pre-gap length 0:00:00.33

Peak level 89.1 %
Extraction speed 6.2 X
Track quality 100.0 %
Test CRC 6FE38EA7
Copy CRC 6FE38EA7
Track not present in AccurateRip database
Copy OK

Track 9

Filename D:\My Rips\Various Artists - Close To The Noise Floor [FLAC]\CD2\09 - Those Little Aliens - Sentimental.wav

Pre-gap length 0:00:01.57

Peak level 63.0 %
Extraction speed 5.9 X
Track quality 100.0 %
Test CRC 661AA1D1
Copy CRC 661AA1D1
Track not present in AccurateRip database
Copy OK

Track 10

Filename D:\My Rips\Various Artists - Close To The Noise Floor [FLAC]\CD2\10 - Final Program - Protect & Survive.wav

Pre-gap length 0:00:01.35

Peak level 80.7 %
Extraction speed 6.2 X
Track quality 100.0 %
Test CRC 733D3493
Copy CRC 733D3493
Track not present in AccurateRip database
Copy OK

Track 11

Filename D:\My Rips\Various Artists - Close To The Noise Floor [FLAC]\CD2\11 - The Human League - Being Boiled.wav

Pre-gap length 0:00:01.21

Peak level 96.6 %
Extraction speed 6.9 X
Track quality 100.0 %
Test CRC 8F793064
Copy CRC 8F793064
Track not present in AccurateRip database
Copy OK

Track 12

Filename D:\My Rips\Various Artists - Close To The Noise Floor [FLAC]\CD2\12 - Instant Automatons - New Muzak.wav

Pre-gap length 0:00:01.30

Peak level 94.4 %
Extraction speed 6.2 X
Track quality 100.0 %
Test CRC F40A6DFA
Copy CRC F40A6DFA
Track not present in AccurateRip database
Copy OK

Track 13

Filename D:\My Rips\Various Artists - Close To The Noise Floor [FLAC]\CD2\13 - Cultural Amnesia - Materialistic Man.wav

Pre-gap length 0:00:01.45

Peak level 57.4 %
Extraction speed 5.7 X
Track quality 99.9 %
Test CRC 7882FB99
Copy CRC 7882FB99
Track not present in AccurateRip database
Copy OK

Track 14

Filename D:\My Rips\Various Artists - Close To The Noise Floor [FLAC]\CD2\14 - Worldbackwards - (Leaving Me) Now.wav

Pre-gap length 0:00:01.23

Peak level 96.6 %
Extraction speed 5.4 X
Track quality 99.9 %
Test CRC 35C17F71
Copy CRC 35C17F71
Track not present in AccurateRip database
Copy OK

Track 15

Filename D:\My Rips\Various Artists - Close To The Noise Floor [FLAC]\CD2\15 - Alan Burnham - Music To Save The World By.wav

Pre-gap length 0:00:04.01

Peak level 96.6 %
Extraction speed 7.8 X
Track quality 100.0 %
Test CRC 3A48125F
Copy CRC 3A48125F
Track not present in AccurateRip database
Copy OK

Track 16

Filename D:\My Rips\Various Artists - Close To The Noise Floor [FLAC]\CD2\16 - Orchestral Manoeuvres In The Dark - Almost.wav

Pre-gap length 0:00:00.55

Peak level 76.6 %
Extraction speed 7.9 X
Track quality 100.0 %
Test CRC FE924C6E
Copy CRC FE924C6E
Track not present in AccurateRip database
Copy OK

Track 17

Filename D:\My Rips\Various Artists - Close To The Noise Floor [FLAC]\CD2\17 - Eyeless In Gaza - Kodak Ghosts Run Amok.wav

Pre-gap length 0:00:01.08

Peak level 89.4 %
Extraction speed 7.4 X
Track quality 100.0 %
Test CRC 7A8CCBD6
Copy CRC 7A8CCBD6
Track not present in AccurateRip database
Copy OK

Track 18

Filename D:\My Rips\Various Artists - Close To The Noise Floor [FLAC]\CD2\18 - Scheleimer K - Broken Vein.wav

Pre-gap length 0:00:02.35

Peak level 96.6 %
Extraction speed 8.5 X
Track quality 100.0 %
Test CRC 2FF18283
Copy CRC 2FF18283
Track not present in AccurateRip database
Copy OK

Track 19

Filename D:\My Rips\Various Artists - Close To The Noise Floor [FLAC]\CD2\19 - Native Europe - The Distance From Koln.wav

Pre-gap length 0:00:00.30

Peak level 73.1 %
Extraction speed 5.6 X
Track quality 99.9 %
Test CRC 09173DBB
Copy CRC 09173DBB
Track not present in AccurateRip database
Copy OK


None of the tracks are present in the AccurateRip database

No errors occurred

End of status report

–– CUETools DB Plugin V2.1.3

[CTDB TOCID: o1gNwX6NV0.8ycrCb.TMF6.WW_s-] disk not present in database, Submit result: o1gNwX6NV0.8ycrCb.TMF6.WW_s- has been uploaded


==== Log checksum 6DB112073AAF3DCFF868B468F85C638700C096C063D399AAC25241FCBB3D0835 ====

Exact Audio Copy V1.0 beta 3 from 29. August 2011

EAC extraction logfile from 29. April 2016, 20:47

Various Artists / Close To The Noise Floor

Used drive : TSSTcorpCDDVDW SH-S203N Adapter: 3 ID: 0

Read mode : Secure
Utilize accurate stream : Yes
Defeat audio cache : Yes
Make use of C2 pointers : No

Read offset correction : 6
Overread into Lead-In and Lead-Out : No
Fill up missing offset samples with silence : Yes
Delete leading and trailing silent blocks : No
Null samples used in CRC calculations : Yes
Used interface : Native Win32 interface for Win NT & 2000
Gap handling : Appended to previous track

Used output format : User Defined Encoder
Selected bitrate : 128 kBit/s
Quality : High
Add ID3 tag : No
Command line compressor : C:\Program Files\Exact Audio Copy\Flac\flac.exe
Additional command line options : -8 -V -T "ARTIST=%artist%" -T "TITLE=%title%" -T "ALBUM=%albumtitle%" -T "DATE=%year%" -T "TRACKNUMBER=%tracknr%" -T "GENRE=%genre%" -T "PERFORMER=%albuminterpret%" -T "COMPOSER=%composer%" %haslyrics%–tag-from-file=LYRICS="%lyricsfile%"%haslyrics% -T "ALBUMARTIST=%albumartist%" -T "DISCNUMBER=%cdnumber%" -T "TOTALDISCS=%totalcds%" -T "TOTALTRACKS=%numtracks%" -T "COMMENT=%comment%" %source% -o %dest%


TOC of the extracted CD

Track | Start | Length | Start sector | End sector
––––––––––––––––––––––––––––-
1 | 0:00.00 | 5:12.24 | 0 | 23423
2 | 5:12.24 | 2:33.06 | 23424 | 34904
3 | 7:45.30 | 5:57.07 | 34905 | 61686
4 | 13:42.37 | 2:26.38 | 61687 | 72674
5 | 16:09.00 | 6:52.35 | 72675 | 103609
6 | 23:01.35 | 6:13.58 | 103610 | 131642
7 | 29:15.18 | 6:36.51 | 131643 | 161393
8 | 35:51.69 | 6:43.08 | 161394 | 191626
9 | 42:35.02 | 4:18.30 | 191627 | 211006
10 | 46:53.32 | 3:36.32 | 211007 | 227238
11 | 50:29.64 | 3:47.00 | 227239 | 244263
12 | 54:16.64 | 6:01.09 | 244264 | 271347


Track 1

Filename D:\My Rips\Various Artists - Close To The Noise Floor [FLAC]\CD3\01 - Zorch - Adrenalin (Return Of The Elohim Pt. 1).wav

Pre-gap length 0:00:02.00

Peak level 55.6 %
Extraction speed 2.2 X
Track quality 99.9 %
Test CRC CB214064
Copy CRC CB214064
Track not present in AccurateRip database
Copy OK

Track 2

Filename D:\My Rips\Various Artists - Close To The Noise Floor [FLAC]\CD3\02 - Sea Of Wires - Robot Dance.wav

Pre-gap length 0:00:01.69

Peak level 75.5 %
Extraction speed 2.6 X
Track quality 99.9 %
Test CRC 2DE0E2EE
Copy CRC 2DE0E2EE
Track not present in AccurateRip database
Copy OK

Track 3

Filename D:\My Rips\Various Artists - Close To The Noise Floor [FLAC]\CD3\03 - Ron Berry - Sea Of Tranquility.wav

Pre-gap length 0:00:00.68

Peak level 95.9 %
Extraction speed 4.3 X
Track quality 100.0 %
Test CRC C9AFEF7D
Copy CRC C9AFEF7D
Track not present in AccurateRip database
Copy OK

Track 4

Filename D:\My Rips\Various Artists - Close To The Noise Floor [FLAC]\CD3\04 - MFH - Mistral.wav

Pre-gap length 0:00:01.47

Peak level 90.6 %
Extraction speed 4.1 X
Track quality 100.0 %
Test CRC E8552052
Copy CRC E8552052
Track not present in AccurateRip database
Copy OK

Track 5

Filename D:\My Rips\Various Artists - Close To The Noise Floor [FLAC]\CD3\05 - Adrian Smith - Joe Goes To New York.wav

Pre-gap length 0:00:01.32

Peak level 61.4 %
Extraction speed 5.1 X
Track quality 100.0 %
Test CRC 9C535335
Copy CRC 9C535335
Track not present in AccurateRip database
Copy OK

Track 6

Filename D:\My Rips\Various Artists - Close To The Noise Floor [FLAC]\CD3\06 - Mark Shreeve - Embryo (Extract).wav

Pre-gap length 0:00:01.37

Peak level 96.6 %
Extraction speed 5.5 X
Track quality 100.0 %
Test CRC 0A0E3F6C
Copy CRC 0A0E3F6C
Track not present in AccurateRip database
Copy OK

Track 7

Filename D:\My Rips\Various Artists - Close To The Noise Floor [FLAC]\CD3\07 - EG Oblique Graph - Triptych.wav

Pre-gap length 0:00:00.56

Peak level 86.1 %
Extraction speed 5.9 X
Track quality 100.0 %
Test CRC 2085DA6F
Copy CRC 2085DA6F
Track not present in AccurateRip database
Copy OK

Track 8

Filename D:\My Rips\Various Artists - Close To The Noise Floor [FLAC]\CD3\08 - Carl Matthews - Encounter.wav

Pre-gap length 0:00:01.42

Peak level 79.8 %
Extraction speed 6.3 X
Track quality 100.0 %
Test CRC 5C7D5886
Copy CRC 5C7D5886
Track not present in AccurateRip database
Copy OK

Track 9

Filename D:\My Rips\Various Artists - Close To The Noise Floor [FLAC]\CD3\09 - Paul Nagle - Ynys Scaith.wav

Pre-gap length 0:00:01.32

Peak level 76.7 %
Extraction speed 6.3 X
Track quality 100.0 %
Test CRC 213AA8D8
Copy CRC 213AA8D8
Track not present in AccurateRip database
Copy OK

Track 10

Filename D:\My Rips\Various Artists - Close To The Noise Floor [FLAC]\CD3\10 - O Yuki Conjugate - Sedation.wav

Pre-gap length 0:00:01.32

Peak level 87.1 %
Extraction speed 5.0 X
Track quality 99.9 %
Test CRC 39D9D0B3
Copy CRC 39D9D0B3
Track not present in AccurateRip database
Copy OK

Track 11

Filename D:\My Rips\Various Artists - Close To The Noise Floor [FLAC]\CD3\11 - Konstruktivist - Western Vein.wav

Pre-gap length 0:00:01.05

Peak level 84.6 %
Extraction speed 6.5 X
Track quality 100.0 %
Test CRC B6FD02CC
Copy CRC B6FD02CC
Track not present in AccurateRip database
Copy OK

Track 12

Filename D:\My Rips\Various Artists - Close To The Noise Floor [FLAC]\CD3\12 - Attrition - Dead Of Night (Excerpt).wav

Pre-gap length 0:00:01.45

Peak level 61.6 %
Extraction speed 7.1 X
Track quality 100.0 %
Test CRC 88AEB636
Copy CRC 88AEB636
Track not present in AccurateRip database
Copy OK


None of the tracks are present in the AccurateRip database

No errors occurred

End of status report

–– CUETools DB Plugin V2.1.3

[CTDB TOCID: v1M7FcNrkkM7RRqZLrTtkXA8A9o-] disk not present in database, Submit result: v1M7FcNrkkM7RRqZLrTtkXA8A9o- has been uploaded


==== Log checksum 9F8B4E08AAC0C5BD98B0DD919DC0F99F0E1BC077F7FA01FE77B6888B0FC71E31 ====

Exact Audio Copy V1.0 beta 3 from 29. August 2011

EAC extraction logfile from 29. April 2016, 21:28

Various Artists / Close To The Noise Floor

Used drive : TSSTcorpCDDVDW SH-S203N Adapter: 3 ID: 0

Read mode : Secure
Utilize accurate stream : Yes
Defeat audio cache : Yes
Make use of C2 pointers : No

Read offset correction : 6
Overread into Lead-In and Lead-Out : No
Fill up missing offset samples with silence : Yes
Delete leading and trailing silent blocks : No
Null samples used in CRC calculations : Yes
Used interface : Native Win32 interface for Win NT & 2000
Gap handling : Appended to previous track

Used output format : User Defined Encoder
Selected bitrate : 128 kBit/s
Quality : High
Add ID3 tag : No
Command line compressor : C:\Program Files\Exact Audio Copy\Flac\flac.exe
Additional command line options : -8 -V -T "ARTIST=%artist%" -T "TITLE=%title%" -T "ALBUM=%albumtitle%" -T "DATE=%year%" -T "TRACKNUMBER=%tracknr%" -T "GENRE=%genre%" -T "PERFORMER=%albuminterpret%" -T "COMPOSER=%composer%" %haslyrics%–tag-from-file=LYRICS="%lyricsfile%"%haslyrics% -T "ALBUMARTIST=%albumartist%" -T "DISCNUMBER=%cdnumber%" -T "TOTALDISCS=%totalcds%" -T "TOTALTRACKS=%numtracks%" -T "COMMENT=%comment%" %source% -o %dest%


TOC of the extracted CD

Track | Start | Length | Start sector | End sector
––––––––––––––––––––––––––––-
1 | 0:00.00 | 4:38.08 | 0 | 20857
2 | 4:38.08 | 3:29.37 | 20858 | 36569
3 | 8:07.45 | 2:11.59 | 36570 | 46453
4 | 10:19.29 | 6:48.16 | 46454 | 77069
5 | 17:07.45 | 5:13.09 | 77070 | 100553
6 | 22:20.54 | 4:42.18 | 100554 | 121721
7 | 27:02.72 | 4:02.56 | 121722 | 139927
8 | 31:05.53 | 6:16.48 | 139928 | 168175
9 | 37:22.26 | 5:39.33 | 168176 | 193633
10 | 43:01.59 | 3:35.18 | 193634 | 209776
11 | 46:37.02 | 4:52.10 | 209777 | 231686
12 | 51:29.12 | 2:59.62 | 231687 | 245173
13 | 54:28.74 | 5:25.35 | 245174 | 269583
14 | 59:54.34 | 5:33.63 | 269584 | 294621


Track 1

Filename D:\My Rips\Various Artists - Close To The Noise Floor [FLAC]\CD4\01 - Throbbing Gristle - What A Day.wav

Pre-gap length 0:00:02.00

Peak level 96.6 %
Extraction speed 4.3 X
Track quality 100.0 %
Test CRC 122D06A2
Copy CRC 122D06A2
Track not present in AccurateRip database
Copy OK

Track 2

Filename D:\My Rips\Various Artists - Close To The Noise Floor [FLAC]\CD4\02 - A Tent - No Way Of Knowing.wav

Pre-gap length 0:00:01.51

Peak level 92.2 %
Extraction speed 3.6 X
Track quality 99.9 %
Test CRC E99186A2
Copy CRC E99186A2
Track not present in AccurateRip database
Copy OK

Track 3

Filename D:\My Rips\Various Artists - Close To The Noise Floor [FLAC]\CD4\03 - Portion Control - Go For The Throat.wav

Pre-gap length 0:00:01.53

Peak level 46.7 %
Extraction speed 3.2 X
Track quality 99.9 %
Test CRC E45E272E
Copy CRC E45E272E
Track not present in AccurateRip database
Copy OK

Track 4

Filename D:\My Rips\Various Artists - Close To The Noise Floor [FLAC]\CD4\04 - DC3 - Eco Beat.wav

Pre-gap length 0:00:01.48

Peak level 59.7 %
Extraction speed 5.7 X
Track quality 100.0 %
Test CRC B81E9331
Copy CRC B81E9331
Track not present in AccurateRip database
Copy OK

Track 5

Filename D:\My Rips\Various Artists - Close To The Noise Floor [FLAC]\CD4\05 - Renaldo & The Loaf - Dying Inside.wav

Pre-gap length 0:00:01.35

Peak level 91.9 %
Extraction speed 6.1 X
Track quality 100.0 %
Test CRC 4F37836C
Copy CRC 4F37836C
Track not present in AccurateRip database
Copy OK

Track 6

Filename D:\My Rips\Various Artists - Close To The Noise Floor [FLAC]\CD4\06 - Blah Blah Blah - In The Army.wav

Pre-gap length 0:00:00.61

Peak level 96.6 %
Extraction speed 6.4 X
Track quality 100.0 %
Test CRC 80991E43
Copy CRC 80991E43
Track not present in AccurateRip database
Copy OK

Track 7

Filename D:\My Rips\Various Artists - Close To The Noise Floor [FLAC]\CD4\07 - Legendary Pink Dots - God Speed.wav

Pre-gap length 0:00:01.45

Peak level 91.3 %
Extraction speed 6.6 X
Track quality 100.0 %
Test CRC 0F03FB0D
Copy CRC 0F03FB0D
Track not present in AccurateRip database
Copy OK

Track 8

Filename D:\My Rips\Various Artists - Close To The Noise Floor [FLAC]\CD4\08 - Muslimgauze - Muslin Gauze Muslim Prayer.wav

Pre-gap length 0:00:01.34

Peak level 96.7 %
Extraction speed 7.2 X
Track quality 100.0 %
Test CRC 7AEE6F11
Copy CRC 7AEE6F11
Track not present in AccurateRip database
Copy OK

Track 9

Filename D:\My Rips\Various Artists - Close To The Noise Floor [FLAC]\CD4\09 - Suisse - Live At Longborne.wav

Pre-gap length 0:00:02.62

Peak level 96.6 %
Extraction speed 7.5 X
Track quality 100.0 %
Test CRC 871EDEBD
Copy CRC 871EDEBD
Track not present in AccurateRip database
Copy OK

Track 10

Filename D:\My Rips\Various Artists - Close To The Noise Floor [FLAC]\CD4\10 - Alien Brains - Menial Disorders, Extract B2.wav

Pre-gap length 0:00:00.58

Peak level 94.4 %
Extraction speed 7.4 X
Track quality 100.0 %
Test CRC C501D7F6
Copy CRC C501D7F6
Track not present in AccurateRip database
Copy OK

Track 11

Filename D:\My Rips\Various Artists - Close To The Noise Floor [FLAC]\CD4\11 - Storm Bugs - Himeal (And She Blew).wav

Pre-gap length 0:00:01.58

Peak level 73.9 %
Extraction speed 6.6 X
Track quality 99.9 %
Test CRC 5D12ADD0
Copy CRC 5D12ADD0
Track not present in AccurateRip database
Copy OK

Track 12

Filename D:\My Rips\Various Artists - Close To The Noise Floor [FLAC]\CD4\12 - Third Door From The Left - In The Room.wav

Pre-gap length 0:00:00.64

Peak level 68.5 %
Extraction speed 7.5 X
Track quality 100.0 %
Test CRC 1EDF2735
Copy CRC 1EDF2735
Track not present in AccurateRip database
Copy OK

Track 13

Filename D:\My Rips\Various Artists - Close To The Noise Floor [FLAC]\CD4\13 - Al Robertson - Dignity Of Labour.wav

Pre-gap length 0:00:01.49

Peak level 71.2 %
Extraction speed 8.5 X
Track quality 100.0 %
Test CRC 62A3E854
Copy CRC 62A3E854
Track not present in AccurateRip database
Copy OK

Track 14

Filename D:\My Rips\Various Artists - Close To The Noise Floor [FLAC]\CD4\14 - bcGilbert, gLewis, russell Mills - Mzui (Extract).wav

Pre-gap length 0:00:01.33

Peak level 69.5 %
Extraction speed 8.7 X
Track quality 100.0 %
Test CRC 744D95B1
Copy CRC 744D95B1
Track not present in AccurateRip database
Copy OK


None of the tracks are present in the AccurateRip database

No errors occurred

End of status report

–– CUETools DB Plugin V2.1.3

[CTDB TOCID: qCf.WBr3Qg4N42OLN1WT9_DpYss-] disk not present in database, Submit result: qCf.WBr3Qg4N42OLN1WT9_DpYss- has been uploaded


==== Log checksum 0BC2A792AC76759124C8E6F1129DDB7CF3FA9F00889D3C403DDF6981889BA02C ====

Thanks to the Original ripper Unknown [16059] !