Subcategories

VA - Cool Europa: European Progressive Jazz in Germany 1959-63 (2017)

Posted By: delpotro
VA - Cool Europa: European Progressive Jazz in Germany 1959-63 (2017)

VA - Cool Europa: European Progressive Jazz in Germany 1959-63 (2017)
XLD Rip | FLAC (tracks+log+.cue) | 01:09:19 | 383 Mb
Jazz, Cool Jazz, Modal, Hard Bop | Label: Sonorama Records

Unique compilation and 100th release in the catalogue of Sonorama Records - file under: cool, modern, hard bop, modal! Fourteen previously unknown tracks recorded 1959-63 in West-Germany by some of the best European jazz artists of the time, featuring Barney Wilen, Francy Boland, Rolf Kühn, Joki Freund, Attila Zoller, Fats Sadi, Roland Kovac, Rolf Ericson, Michael Naura and countless others. All tunes picked from collectors' archives, carefully mastered for 2LP-Gatefold and Longplay Digipack-CD with new sleeve notes and artist photos by Susanne Schapowalow and Hans Harzheim. Great moments from the most prosperous period in the development of European progressive jazz.

This music celebrates the 100th release of Sonorama, an independent record label from Berlin. Its founder Ekkehart Fleischhammer started in June 2004 with a 7-inch single that features an unreleased track by Swiss piano player Elsie Bianchi. A new cottage industry was born, bringing hidden treasures of modern jazz to international music lovers. Today the focus of Sonorama Records is on unavailable European jazz and American musicians playing in Europe.

Once again, Sonorama Records has unearthed some excellent unpublished tracks here that will satisfy the serious connoisseur. Fleischhammer explained in an interview for the website "All About Jazz" what Sonorama is looking for: "It must always touch me in a spiritual sense, and be of historical importance regarding the repertoire of the artist. Even better if it can close a gap in certain fields of music that people, or especially the record industry forgot about." These rediscovered recordings are perfect to celebrate the 100th release of Sonorama.
Tracklist:
1. Francy Boland Ensemble – Blues for Koebes (04:48)
2. Fats Sadi Quintet – Gigi's Pad (02:54)
3. Rolf Ericson Quintet – Straight No Chaser (05:13)
4. Hermann Mutschler Trio – Inspiration in 6/8 (04:13)
5. Barney Wilen Quartet – Tempus Fugit (05:05)
6. Attila Zoller Trio – You Stepped out of a Dream (04:23)
7. Götz Wendland Quintet – Marihuana (07:29)
8. Jack Sels Ensemble – Ginger (03:01)
9. Helmut Brandt Combo – Warm Up (Live) (06:30)
10. Karlhanns Berger Quartet – Prof. Wotasnozzle (03:36)
11. Rolf Kühn Sextet – Bag's Groove (04:44)
12. Roland Kovac Trio – Psychophysis (04:36)
13. Michael Naura Quintet – Futurity (04:36)
14. Joki Freund Sextet – Olé Coltrane (08:10)

X Lossless Decoder version 20170729 (150.3)

XLD extraction logfile from 2017-11-03 18:42:42 +0100

Various Artists / Cool Europa - European Progressive Jazz In Germany 1959-63

Used drive : MATSHITA BD-MLT UJ272 (revision 1.01)
Media type : Pressed CD

Ripper mode : XLD Secure Ripper
Disable audio cache : OK for the drive with a cache less than 1375KiB
Make use of C2 pointers : NO
Read offset correction : 103
Max retry count : 20
Gap status : Analyzed, Appended (except HTOA)

TOC of the extracted CD
Track | Start | Length | Start sector | End sector
––––––––––––––––––––––––––––-
1 | 00:00:00 | 04:48:00 | 0 | 21599
2 | 04:48:00 | 02:54:00 | 21600 | 34649
3 | 07:42:00 | 05:13:37 | 34650 | 58161
4 | 12:55:37 | 04:13:00 | 58162 | 77136
5 | 17:08:37 | 05:05:37 | 77137 | 100048
6 | 22:13:74 | 04:23:00 | 100049 | 119773
7 | 26:36:74 | 07:29:00 | 119774 | 153448
8 | 34:05:74 | 03:01:00 | 153449 | 167023
9 | 37:06:74 | 06:30:00 | 167024 | 196273
10 | 43:36:74 | 03:36:18 | 196274 | 212491
11 | 47:13:17 | 04:44:00 | 212492 | 233791
12 | 51:57:17 | 04:36:00 | 233792 | 254491
13 | 56:33:17 | 04:36:56 | 254492 | 275247
14 | 61:09:73 | 08:10:00 | 275248 | 311997

AccurateRip Summary (DiscID: 0021d0cd-016c6b02-c8103f0e)
Track 01 : OK (v2, confidence 1/1)
Track 02 : OK (v2, confidence 1/1)
Track 03 : OK (v2, confidence 1/1)
Track 04 : OK (v2, confidence 1/1)
Track 05 : OK (v2, confidence 1/1)
Track 06 : OK (v2, confidence 1/1)
Track 07 : OK (v2, confidence 1/1)
Track 08 : OK (v2, confidence 1/1)
Track 09 : OK (v2, confidence 1/1)
Track 10 : OK (v2, confidence 1/1)
Track 11 : OK (v2, confidence 1/1)
Track 12 : OK (v2, confidence 1/1)
Track 13 : OK (v2, confidence 1/1)
Track 14 : OK (v2, confidence 1/1)
->All tracks accurately ripped.

All Tracks
Album gain : -8.25 dB
Peak : 1.000000
Statistics
Read error : 0
Jitter error (maybe fixed) : 0
Retry sector count : 0
Damaged sector count : 0

Track 01
Filename : /Volumes/osec/XLDs/Various Artists - Cool Europa - European Progressive Jazz In Germany 1959-63 (2017) {Sonorama C-100} [CD FLAC]/01 - Francy Boland Ensemble - Blues for Koebes.flac
/Volumes/osec/XLDs/Various Artists - Cool Europa - European Progressive Jazz In Germany 1959-63 (2017) {Sonorama C-100} [CD V0]/01 - Francy Boland Ensemble - Blues for Koebes.mp3
/Volumes/osec/XLDs/Various Artists - Cool Europa - European Progressive Jazz In Germany 1959-63 (2017) {Sonorama C-100} [CD 320]/01 - Francy Boland Ensemble - Blues for Koebes.mp3
Pre-gap length : 00:02:00

Track gain : -7.87 dB
Peak : 1.000000
CRC32 hash (test run) : 33719F5C
CRC32 hash : 33719F5C
CRC32 hash (skip zero) : 8D577568
AccurateRip v1 signature : A3CCA4EE
AccurateRip v2 signature : A5AC7A87
->Accurately ripped (v2, confidence 1/1)
Statistics
Read error : 0
Jitter error (maybe fixed) : 0
Retry sector count : 0
Damaged sector count : 0

Track 02
Filename : /Volumes/osec/XLDs/Various Artists - Cool Europa - European Progressive Jazz In Germany 1959-63 (2017) {Sonorama C-100} [CD FLAC]/02 - Fats Sadi Quintet - Gigi's Pad.flac
/Volumes/osec/XLDs/Various Artists - Cool Europa - European Progressive Jazz In Germany 1959-63 (2017) {Sonorama C-100} [CD V0]/02 - Fats Sadi Quintet - Gigi's Pad.mp3
/Volumes/osec/XLDs/Various Artists - Cool Europa - European Progressive Jazz In Germany 1959-63 (2017) {Sonorama C-100} [CD 320]/02 - Fats Sadi Quintet - Gigi's Pad.mp3
Pre-gap length : 00:02:00

Track gain : -8.34 dB
Peak : 1.000000
CRC32 hash (test run) : CE6D0797
CRC32 hash : CE6D0797
CRC32 hash (skip zero) : EC5DCAF7
AccurateRip v1 signature : F55B7263
AccurateRip v2 signature : 2C8D5287
->Accurately ripped (v2, confidence 1/1)
Statistics
Read error : 0
Jitter error (maybe fixed) : 0
Retry sector count : 0
Damaged sector count : 0

Track 03
Filename : /Volumes/osec/XLDs/Various Artists - Cool Europa - European Progressive Jazz In Germany 1959-63 (2017) {Sonorama C-100} [CD FLAC]/03 - Rolf Ericson Quintet - Straight no Chaser.flac
/Volumes/osec/XLDs/Various Artists - Cool Europa - European Progressive Jazz In Germany 1959-63 (2017) {Sonorama C-100} [CD V0]/03 - Rolf Ericson Quintet - Straight no Chaser.mp3
/Volumes/osec/XLDs/Various Artists - Cool Europa - European Progressive Jazz In Germany 1959-63 (2017) {Sonorama C-100} [CD 320]/03 - Rolf Ericson Quintet - Straight no Chaser.mp3
Pre-gap length : 00:02:00

Track gain : -7.44 dB
Peak : 1.000000
CRC32 hash (test run) : 367B007A
CRC32 hash : 367B007A
CRC32 hash (skip zero) : FA8F6603
AccurateRip v1 signature : 7A1D404A
AccurateRip v2 signature : 3DEC88F5
->Accurately ripped (v2, confidence 1/1)
Statistics
Read error : 0
Jitter error (maybe fixed) : 0
Retry sector count : 0
Damaged sector count : 0

Track 04
Filename : /Volumes/osec/XLDs/Various Artists - Cool Europa - European Progressive Jazz In Germany 1959-63 (2017) {Sonorama C-100} [CD FLAC]/04 - Hermann Mutschler Trio - Inspiration in 6/8.flac
/Volumes/osec/XLDs/Various Artists - Cool Europa - European Progressive Jazz In Germany 1959-63 (2017) {Sonorama C-100} [CD V0]/04 - Hermann Mutschler Trio - Inspiration in 6/8.mp3
/Volumes/osec/XLDs/Various Artists - Cool Europa - European Progressive Jazz In Germany 1959-63 (2017) {Sonorama C-100} [CD 320]/04 - Hermann Mutschler Trio - Inspiration in 6/8.mp3
Pre-gap length : 00:02:00

Track gain : -8.51 dB
Peak : 1.000000
CRC32 hash (test run) : 6692EA03
CRC32 hash : 6692EA03
CRC32 hash (skip zero) : 35B2A8EE
AccurateRip v1 signature : E683B100
AccurateRip v2 signature : 5A9A41F2
->Accurately ripped (v2, confidence 1/1)
Statistics
Read error : 0
Jitter error (maybe fixed) : 0
Retry sector count : 0
Damaged sector count : 0

Track 05
Filename : /Volumes/osec/XLDs/Various Artists - Cool Europa - European Progressive Jazz In Germany 1959-63 (2017) {Sonorama C-100} [CD FLAC]/05 - Barney Wilen Quartet - Tempus Fugit.flac
/Volumes/osec/XLDs/Various Artists - Cool Europa - European Progressive Jazz In Germany 1959-63 (2017) {Sonorama C-100} [CD V0]/05 - Barney Wilen Quartet - Tempus Fugit.mp3
/Volumes/osec/XLDs/Various Artists - Cool Europa - European Progressive Jazz In Germany 1959-63 (2017) {Sonorama C-100} [CD 320]/05 - Barney Wilen Quartet - Tempus Fugit.mp3
Pre-gap length : 00:02:00

Track gain : -8.80 dB
Peak : 1.000000
CRC32 hash (test run) : EF8F6A5E
CRC32 hash : EF8F6A5E
CRC32 hash (skip zero) : 749DD3B7
AccurateRip v1 signature : B7BD8ADF
AccurateRip v2 signature : 2B42F37D
->Accurately ripped (v2, confidence 1/1)
Statistics
Read error : 0
Jitter error (maybe fixed) : 0
Retry sector count : 0
Damaged sector count : 0

Track 06
Filename : /Volumes/osec/XLDs/Various Artists - Cool Europa - European Progressive Jazz In Germany 1959-63 (2017) {Sonorama C-100} [CD FLAC]/06 - Attila Zoller Trio - You Stepped Out of a Dream.flac
/Volumes/osec/XLDs/Various Artists - Cool Europa - European Progressive Jazz In Germany 1959-63 (2017) {Sonorama C-100} [CD V0]/06 - Attila Zoller Trio - You Stepped Out of a Dream.mp3
/Volumes/osec/XLDs/Various Artists - Cool Europa - European Progressive Jazz In Germany 1959-63 (2017) {Sonorama C-100} [CD 320]/06 - Attila Zoller Trio - You Stepped Out of a Dream.mp3
Pre-gap length : 00:02:00

Track gain : -8.47 dB
Peak : 1.000000
CRC32 hash (test run) : A1412D3C
CRC32 hash : A1412D3C
CRC32 hash (skip zero) : F2EBC23E
AccurateRip v1 signature : E7DB3CE3
AccurateRip v2 signature : 30BE24CF
->Accurately ripped (v2, confidence 1/1)
Statistics
Read error : 0
Jitter error (maybe fixed) : 0
Retry sector count : 0
Damaged sector count : 0

Track 07
Filename : /Volumes/osec/XLDs/Various Artists - Cool Europa - European Progressive Jazz In Germany 1959-63 (2017) {Sonorama C-100} [CD FLAC]/07 - Götz Wendland Quintet - Marihuana.flac
/Volumes/osec/XLDs/Various Artists - Cool Europa - European Progressive Jazz In Germany 1959-63 (2017) {Sonorama C-100} [CD V0]/07 - Götz Wendland Quintet - Marihuana.mp3
/Volumes/osec/XLDs/Various Artists - Cool Europa - European Progressive Jazz In Germany 1959-63 (2017) {Sonorama C-100} [CD 320]/07 - Götz Wendland Quintet - Marihuana.mp3
Pre-gap length : 00:02:00

Track gain : -8.31 dB
Peak : 1.000000
CRC32 hash (test run) : 5FF8E1AE
CRC32 hash : 5FF8E1AE
CRC32 hash (skip zero) : 789C0C6D
AccurateRip v1 signature : EB31BFE0
AccurateRip v2 signature : 69F43010
->Accurately ripped (v2, confidence 1/1)
Statistics
Read error : 0
Jitter error (maybe fixed) : 0
Retry sector count : 0
Damaged sector count : 0

Track 08
Filename : /Volumes/osec/XLDs/Various Artists - Cool Europa - European Progressive Jazz In Germany 1959-63 (2017) {Sonorama C-100} [CD FLAC]/08 - Jack Sels Ensemble - Ginger.flac
/Volumes/osec/XLDs/Various Artists - Cool Europa - European Progressive Jazz In Germany 1959-63 (2017) {Sonorama C-100} [CD V0]/08 - Jack Sels Ensemble - Ginger.mp3
/Volumes/osec/XLDs/Various Artists - Cool Europa - European Progressive Jazz In Germany 1959-63 (2017) {Sonorama C-100} [CD 320]/08 - Jack Sels Ensemble - Ginger.mp3
Pre-gap length : 00:02:00

Track gain : -8.87 dB
Peak : 1.000000
CRC32 hash (test run) : E8159F10
CRC32 hash : E8159F10
CRC32 hash (skip zero) : 56CD2691
AccurateRip v1 signature : 50034B48
AccurateRip v2 signature : 11A4B893
->Accurately ripped (v2, confidence 1/1)
Statistics
Read error : 0
Jitter error (maybe fixed) : 0
Retry sector count : 0
Damaged sector count : 0

Track 09
Filename : /Volumes/osec/XLDs/Various Artists - Cool Europa - European Progressive Jazz In Germany 1959-63 (2017) {Sonorama C-100} [CD FLAC]/09 - Helmut Brandt Combo - Warm Up.flac
/Volumes/osec/XLDs/Various Artists - Cool Europa - European Progressive Jazz In Germany 1959-63 (2017) {Sonorama C-100} [CD V0]/09 - Helmut Brandt Combo - Warm Up.mp3
/Volumes/osec/XLDs/Various Artists - Cool Europa - European Progressive Jazz In Germany 1959-63 (2017) {Sonorama C-100} [CD 320]/09 - Helmut Brandt Combo - Warm Up.mp3
Pre-gap length : 00:02:00

Track gain : -8.92 dB
Peak : 1.000000
CRC32 hash (test run) : B8A22BA5
CRC32 hash : B8A22BA5
CRC32 hash (skip zero) : FEDC77C4
AccurateRip v1 signature : 6B1A61A0
AccurateRip v2 signature : 3CE7CF4F
->Accurately ripped (v2, confidence 1/1)
Statistics
Read error : 0
Jitter error (maybe fixed) : 0
Retry sector count : 0
Damaged sector count : 0

Track 10
Filename : /Volumes/osec/XLDs/Various Artists - Cool Europa - European Progressive Jazz In Germany 1959-63 (2017) {Sonorama C-100} [CD FLAC]/10 - Karlhanns Berger Quartet - Prof. Wotasnozzle.flac
/Volumes/osec/XLDs/Various Artists - Cool Europa - European Progressive Jazz In Germany 1959-63 (2017) {Sonorama C-100} [CD V0]/10 - Karlhanns Berger Quartet - Prof. Wotasnozzle.mp3
/Volumes/osec/XLDs/Various Artists - Cool Europa - European Progressive Jazz In Germany 1959-63 (2017) {Sonorama C-100} [CD 320]/10 - Karlhanns Berger Quartet - Prof. Wotasnozzle.mp3
Pre-gap length : 00:02:00

Track gain : -7.47 dB
Peak : 1.000000
CRC32 hash (test run) : 0989677B
CRC32 hash : 0989677B
CRC32 hash (skip zero) : 031201ED
AccurateRip v1 signature : DBCD4644
AccurateRip v2 signature : B4F38D23
->Accurately ripped (v2, confidence 1/1)
Statistics
Read error : 0
Jitter error (maybe fixed) : 0
Retry sector count : 0
Damaged sector count : 0

Track 11
Filename : /Volumes/osec/XLDs/Various Artists - Cool Europa - European Progressive Jazz In Germany 1959-63 (2017) {Sonorama C-100} [CD FLAC]/11 - Rolf Kühn Sextet - Bag's Groove.flac
/Volumes/osec/XLDs/Various Artists - Cool Europa - European Progressive Jazz In Germany 1959-63 (2017) {Sonorama C-100} [CD V0]/11 - Rolf Kühn Sextet - Bag's Groove.mp3
/Volumes/osec/XLDs/Various Artists - Cool Europa - European Progressive Jazz In Germany 1959-63 (2017) {Sonorama C-100} [CD 320]/11 - Rolf Kühn Sextet - Bag's Groove.mp3
Pre-gap length : 00:02:00

Track gain : -7.35 dB
Peak : 1.000000
CRC32 hash (test run) : D4AF3DB2
CRC32 hash : D4AF3DB2
CRC32 hash (skip zero) : B9DC1535
AccurateRip v1 signature : 2D8F15EB
AccurateRip v2 signature : C4AABB3B
->Accurately ripped (v2, confidence 1/1)
Statistics
Read error : 0
Jitter error (maybe fixed) : 0
Retry sector count : 0
Damaged sector count : 0

Track 12
Filename : /Volumes/osec/XLDs/Various Artists - Cool Europa - European Progressive Jazz In Germany 1959-63 (2017) {Sonorama C-100} [CD FLAC]/12 - Roland Kovac Trio - Psychophysis.flac
/Volumes/osec/XLDs/Various Artists - Cool Europa - European Progressive Jazz In Germany 1959-63 (2017) {Sonorama C-100} [CD V0]/12 - Roland Kovac Trio - Psychophysis.mp3
/Volumes/osec/XLDs/Various Artists - Cool Europa - European Progressive Jazz In Germany 1959-63 (2017) {Sonorama C-100} [CD 320]/12 - Roland Kovac Trio - Psychophysis.mp3
Pre-gap length : 00:02:00

Track gain : -5.97 dB
Peak : 1.000000
CRC32 hash (test run) : E6F1C122
CRC32 hash : E6F1C122
CRC32 hash (skip zero) : 660CEA95
AccurateRip v1 signature : 130BDAD2
AccurateRip v2 signature : 1C31ADC7
->Accurately ripped (v2, confidence 1/1)
Statistics
Read error : 0
Jitter error (maybe fixed) : 0
Retry sector count : 0
Damaged sector count : 0

Track 13
Filename : /Volumes/osec/XLDs/Various Artists - Cool Europa - European Progressive Jazz In Germany 1959-63 (2017) {Sonorama C-100} [CD FLAC]/13 - Michael Naura Quintet - Futurity.flac
/Volumes/osec/XLDs/Various Artists - Cool Europa - European Progressive Jazz In Germany 1959-63 (2017) {Sonorama C-100} [CD V0]/13 - Michael Naura Quintet - Futurity.mp3
/Volumes/osec/XLDs/Various Artists - Cool Europa - European Progressive Jazz In Germany 1959-63 (2017) {Sonorama C-100} [CD 320]/13 - Michael Naura Quintet - Futurity.mp3
Pre-gap length : 00:02:00

Track gain : -7.96 dB
Peak : 1.000000
CRC32 hash (test run) : 0AFFBDDC
CRC32 hash : 0AFFBDDC
CRC32 hash (skip zero) : C096EE41
AccurateRip v1 signature : 70122505
AccurateRip v2 signature : 35A2F3DC
->Accurately ripped (v2, confidence 1/1)
Statistics
Read error : 0
Jitter error (maybe fixed) : 0
Retry sector count : 0
Damaged sector count : 0

Track 14
Filename : /Volumes/osec/XLDs/Various Artists - Cool Europa - European Progressive Jazz In Germany 1959-63 (2017) {Sonorama C-100} [CD FLAC]/14 - Joki Freund Sextet - Olé Coltrane.flac
/Volumes/osec/XLDs/Various Artists - Cool Europa - European Progressive Jazz In Germany 1959-63 (2017) {Sonorama C-100} [CD V0]/14 - Joki Freund Sextet - Olé Coltrane.mp3
/Volumes/osec/XLDs/Various Artists - Cool Europa - European Progressive Jazz In Germany 1959-63 (2017) {Sonorama C-100} [CD 320]/14 - Joki Freund Sextet - Olé Coltrane.mp3
Pre-gap length : 00:02:00

Track gain : -8.59 dB
Peak : 1.000000
CRC32 hash (test run) : 104CAC0A
CRC32 hash : 104CAC0A
CRC32 hash (skip zero) : 27CBD621
AccurateRip v1 signature : EB41D256
AccurateRip v2 signature : 861788EF
->Accurately ripped (v2, confidence 1/1)
Statistics
Read error : 0
Jitter error (maybe fixed) : 0
Retry sector count : 0
Damaged sector count : 0

No errors occurred

End of status report

––-BEGIN XLD SIGNATURE––-
GrR8hvXl_mPUlzSoaSRR0F1N5Vb3sbpGr9F6nE8CblOHugJZwcSG233ag4fh0xh7cIm6s.vG0WdlEFgCdk4cW_Y4N5PYqAVowj0y3cy
––-END XLD SIGNATURE––-

Thanks to the Original ripper improbab !