Subcategories

Various Artists - Flamenco: Patrimonio de la Humanidad (2011) [4CD BoxSet] {EMI Music Spain}

Posted By: ruskaval
Various Artists - Flamenco: Patrimonio de la Humanidad (2011) [4CD BoxSet] {EMI Music Spain}

Various Artists - Flamenco: Patrimonio de la Humanidad (2011) [4CD BoxSet] {EMI Music Spain}
EAC rip (secure mode) | FLAC (tracks)+CUE+LOG -> 1.73 Gb | MP3 @320 -> 675 Mb
Full Artwork @ 300 dpi (png) -> 56 Mb | 5% repair rar
© 2011 EMI Music Spain | 0 87048 2 5
Latin / World Music / Flamenco / Guitar

The CD-book ‘Flamenco: Patrimonio de la Humanidad’ journeys through the history of jondo music. In November 2010, UNESCO decided to include flamenco on the Representative List of the Intangible Cultural World Heritage, which is the greatest international distinction for any cultural expression. There have been somewhat more than 200 years of history, according to the documented information which is currently held, in which flamenco has continually grown thanks to the creativity of mighty, brilliant, courageous artists who have gone beyond the limits of diverse kinds (territorial, social, political) in order to offer a type of music too beautiful to be ignored.
Various Artists - Flamenco: Patrimonio de la Humanidad (2011) [4CD BoxSet] {EMI Music Spain}

‘Flamenco: Patrimonio de la Humanidad’ (‘Flamenco: World Heritage’) is a book-album with four CDs (69 songs) which will be released on July 12th, 2011. It is hard to gather on a single album a lineup of flamenco artists of such distinction, range and stylistic and generational diversity. The best demonstration of the album’s enormous quality and representativeness is the list of the artists (singers, guitarists and musicians) who appear on it: Enrique Morente, Paco de Lucía, Camarón, Manolo Sanlúcar, José Mercé, Miguel Poveda, Carmen Linares, Mayte Martín, Cañizares, Remedios Amaya, Estrella Morente, Diego el Cigala, Tomatito, Manolo Caracol, Arcángel, Juan Habichuela, Chano Lobato, Chano Domínguez, Sordera, Fernanda y Bernarda de Utrera, Chocolate, Porrina de Badajoz, La Paquera de Jerez, Pericón de Cádiz, Diego Carrasco, Esperanza Fernández, Rancapino, El Lebrijano, Sandra Carrasco, Ketama, Lole y Manuel, Pata Negra, Tomasito, Alba Molina, Dorantes, Antonio Rey, Juan Villar, Serranito, Juanito Valderrama, Rafael Farina, Sabicas etc…
Various Artists - Flamenco: Patrimonio de la Humanidad (2011) [4CD BoxSet] {EMI Music Spain}


More INFO

Personnel: Alba Molina, Antonio Mairena, Antonio Rey, Arcángel, Bernarda de Utrera, Camarón, Cañizares, Carmen Linares, Chano Domínguez, Chano Lobato, Chocolate, Diego Carrasco, Diego el Cigala, Dorantes, Enrique Morente, Esperanza Fernández, Estrella Morente, Fernanda de Utrera, José Mercé, Juan Habichuela, Juan Valderrama, Juan Villar, Ketama, Lebrijano, Lole y Manuel, Manolo Caracol, Manolo Sanlúcar, Mayte Martín, Miguel Poveda, Paco de Lucía, Paquera de Jerez, Pata Negra, Pericón de Cádiz, Porrina de Badajoz, Rafael Farina, Rancapino, Remedios Amaya, Sabicas, Sandra Carrasco, Serranito, Sordera, Tomasito y Tomatito.

tracklist:
CD 1

01. Enrique Morente. Reloj molesto
02. Paco de Lucía. La Barrosa
03. Estrella Morente. En lo alto del Cerro
04. Camarón. Viejo mundo
05. Manolo Sanlúcar. De muleta
06. José Mercé. Bajo un jazmín de verano
07. Mayte Martín. Ten cuidao
08. Juan Manuel Cañizares. Fragua, yunque y martillo
09. Remedios Amaya. Tratante de varas largas
10. Miguel Poveda. La bien pagá
11. Carmen Linares. Tan afortuná yo soy
12. Dorantes. Nana de los luceros
13. Diego el Cigala. Fandangos de la corrala
14. Tomatito. Dedicado a Camarón
15. Arcángel. Desde la tierra
16. Juan Habichuela. Carcelero, carcelero
17. Estrella Morente. Moguer

CD 2
01. Enrique Morente. Chiquilín de Bachín
02. Remedios Amaya. Dos toreros
03. Paco de Lucía. Palenque
04. Camarón. Dicen de mí
05. Estrella Morente. Ne me quitte pas
06. José Mercé. Aire
07. Arcángel. Dame limones
08. Chano Lobato. Volver
09. Miguel Poveda. Cuesta abajo
10. Chano Domínguez. Mantrería
11. Diego Carrasco. Qué tal, Dolly
12. Esperanza Fernández. Son de negros en Cuba
12. Rancapino. Bésame mucho
14. Lebrijano. Rezo
15. Sandra Carrasco. Le pregunté yo a los cielos
16. Enrique Morente. Generalife

CD 3
01. Tomatito. Rosas del amor
02. Ketama. Kalikeño
03. Remedios Amaya. Turu, turai
04. Diego el Cigala. Undebel
05. Lole y Manuel. Romero verde
06. Pata Negra. Mama
07. Tomasito. Ante todo… el silencio
08. Chano Domínguez. El Puerto
09. José Mercé. Mammy Blue
10. Alba Molina. No puedo quitar mis ojos de ti
11. Mayte Martín. Inténtalo encontrar
12. Dorantes. Orobroy
13. Antonio Rey. Entré en tu balcón
14. Lole y Manuel. Recuerdo escolar
15. Enrique Morente. El lenguaje de las flores
16. Paco de Lucía. Zyryab

CD 4
01. José Mercé. Los campanilleros
02. Mayte Martín. Serenoke
03. Estrella Morente. Los cuatro muleros
04. Enrique Morente. Taranto veneno
05. Juanito Villar. Por amargarme la vida
06. Víctor Monge “Serranito”. Llegando al puerto
07. Chano Lobato. Tangos de Carnaval
08. Manuel Soto “Sordera”. Azúcar Arcande
09. Bernarda de Utrera. La Semilla del encanto
10. Fernanda de Utrera. Mi mal no tiene cura
11. Manolo Caracol. El reniego
12. Chocolate. Está nevando
13. Porrina de Badajoz. Soy la ciencia en el saber
14. La Paquera de Jerez. Maldigo tus ojos verdes
15. Pericón de Cádiz. Levántate Filomena
16. Juanito Valderrama. Mi mulata
17. Rafael Farina. Jugamos al mismo juego
18. Antonio Mairena. No te obligo, gitana
19. Manolo Caracol. Mis dudas no eran na
20. Sabicas. Punta y tacón

Exact Audio Copy V1.0 beta 3 from 29. August 2011

EAC extraction logfile from 24. November 2011, 22:08

Various Artists / Flamenco (cd1)

Used drive : Optiarc DVD RW AD-7200A Adapter: 2 ID: 0

Read mode : Secure
Utilize accurate stream : Yes
Defeat audio cache : Yes
Make use of C2 pointers : No

Read offset correction : 48
Overread into Lead-In and Lead-Out : No
Fill up missing offset samples with silence : Yes
Delete leading and trailing silent blocks : No
Null samples used in CRC calculations : Yes
Used interface : Installed external ASPI interface
Gap handling : Appended to previous track

Used output format : User Defined Encoder
Selected bitrate : 896 kBit/s
Quality : High
Add ID3 tag : No
Command line compressor : C:\Program Files (x86)\Exact Audio Copy\Flac\flac.exe
Additional command line options : -8 -V -T "ARTIST=%artist%" -T "TITLE=%title%" -T "ALBUM=%albumtitle%" -T "DATE=%year%" -T "TRACKNUMBER=%tracknr%" -T "TOTALTRACKS=%numtracks%" -T "GENRE=%genre%" -T "ALBUMARTIST=%albumartist%" -T "ALBUM ARTIST=%albumartist%" -T "COMMENT=EAC Secure Mode, Test & Copy, AccurateRip, FLAC -8" %source%


TOC of the extracted CD

Track | Start | Length | Start sector | End sector
––––––––––––––––––––––––––––-
1 | 0:00.00 | 8:15.31 | 0 | 37155
2 | 8:15.31 | 4:34.62 | 37156 | 57767
3 | 12:50.18 | 3:22.31 | 57768 | 72948
4 | 16:12.49 | 2:44.05 | 72949 | 85253
5 | 18:56.54 | 5:15.09 | 85254 | 108887
6 | 24:11.63 | 4:35.16 | 108888 | 129528
7 | 28:47.04 | 2:31.43 | 129529 | 140896
8 | 31:18.47 | 4:16.70 | 140897 | 160166
9 | 35:35.42 | 5:00.33 | 160167 | 182699
10 | 40:36.00 | 3:28.59 | 182700 | 198358
11 | 44:04.59 | 5:22.27 | 198359 | 222535
12 | 49:27.11 | 4:27.68 | 222536 | 242628
13 | 53:55.04 | 2:52.34 | 242629 | 255562
14 | 56:47.38 | 3:50.08 | 255563 | 272820
15 | 60:37.46 | 5:08.06 | 272821 | 295926
16 | 65:45.52 | 3:46.15 | 295927 | 312891
17 | 69:31.67 | 3:42.15 | 312892 | 329556


Track 1

Filename D:\Rips\01 - Enrique Morente - Reloj molesto.wav

Pre-gap length 0:00:02.00

Peak level 97.8 %
Extraction speed 2.8 X
Track quality 100.0 %
Test CRC ABAD71FA
Copy CRC ABAD71FA
Track not present in AccurateRip database
Copy OK

Track 2

Filename D:\Rips\02 - Paco de Lucia - La barrosa (Alegrias).wav

Pre-gap length 0:00:00.13

Peak level 98.1 %
Extraction speed 3.0 X
Track quality 100.0 %
Test CRC 9B151C5E
Copy CRC 9B151C5E
Track not present in AccurateRip database
Copy OK

Track 3

Filename D:\Rips\03 - Estrella Morente - En lo alto del cerro (Tangos).wav

Pre-gap length 0:00:00.08

Peak level 98.8 %
Extraction speed 3.0 X
Track quality 100.0 %
Test CRC E9C559FE
Copy CRC E9C559FE
Track not present in AccurateRip database
Copy OK

Track 4

Filename D:\Rips\04 - Camaron - Viejo mundo (Bulerias).wav

Pre-gap length 0:00:00.36

Peak level 98.0 %
Extraction speed 3.1 X
Track quality 100.0 %
Test CRC 4A557BF4
Copy CRC 4A557BF4
Track not present in AccurateRip database
Copy OK

Track 5

Filename D:\Rips\05 - Manolo Sanlucar - De muleta.wav

Pre-gap length 0:00:00.13

Peak level 97.9 %
Extraction speed 3.6 X
Track quality 100.0 %
Test CRC 2F807690
Copy CRC 2F807690
Track not present in AccurateRip database
Copy OK

Track 6

Filename D:\Rips\06 - Jose Merce - Bajo un jazmin de verano (Malaguena).wav

Pre-gap length 0:00:00.13

Peak level 99.9 %
Extraction speed 3.3 X
Track quality 99.9 %
Test CRC 4657C84B
Copy CRC 4657C84B
Track not present in AccurateRip database
Copy OK

Track 7

Filename D:\Rips\07 - Mayte Martin - Ten cuidao (Buleria).wav

Pre-gap length 0:00:00.36

Peak level 98.8 %
Extraction speed 3.6 X
Track quality 100.0 %
Test CRC B9CCBE20
Copy CRC B9CCBE20
Track not present in AccurateRip database
Copy OK

Track 8

Filename D:\Rips\08 - Juan Manuel Canizares - Fragua, yunque y martillo (Rondena).wav

Pre-gap length 0:00:00.12

Peak level 97.7 %
Extraction speed 3.6 X
Track quality 99.9 %
Test CRC 6715B584
Copy CRC 6715B584
Track not present in AccurateRip database
Copy OK

Track 9

Filename D:\Rips\09 - Remedios Amaya - Tratante de vara larga (Jaleos Extremenos).wav

Pre-gap length 0:00:00.12

Peak level 97.7 %
Extraction speed 3.8 X
Track quality 99.9 %
Test CRC 65102B1C
Copy CRC 65102B1C
Track not present in AccurateRip database
Copy OK

Track 10

Filename D:\Rips\10 - Miguel Poveda - La bien paga.wav

Pre-gap length 0:00:00.12

Peak level 98.0 %
Extraction speed 3.6 X
Track quality 99.9 %
Test CRC 7827B875
Copy CRC 7827B875
Track not present in AccurateRip database
Copy OK

Track 11

Filename D:\Rips\11 - Carmen Linares - Tan afortuna yo soy (Soleares de la Serneta).wav

Pre-gap length 0:00:00.12

Peak level 97.7 %
Extraction speed 4.2 X
Track quality 99.9 %
Test CRC 98C5645D
Copy CRC 98C5645D
Track not present in AccurateRip database
Copy OK

Track 12

Filename D:\Rips\12 - Dorantes - Nana de los luceros.wav

Pre-gap length 0:00:00.12

Peak level 97.7 %
Extraction speed 4.1 X
Track quality 99.9 %
Test CRC ACEC7489
Copy CRC ACEC7489
Track not present in AccurateRip database
Copy OK

Track 13

Filename D:\Rips\13 - Dieguito el Cigala - Fandangos de la Corrala.wav

Pre-gap length 0:00:00.12

Peak level 97.7 %
Extraction speed 4.5 X
Track quality 100.0 %
Test CRC F013205E
Copy CRC F013205E
Track not present in AccurateRip database
Copy OK

Track 14

Filename D:\Rips\14 - Tomatito - Dedicado a Camaron.wav

Pre-gap length 0:00:00.12

Peak level 82.6 %
Extraction speed 4.8 X
Track quality 100.0 %
Test CRC 6A417E40
Copy CRC 6A417E40
Track not present in AccurateRip database
Copy OK

Track 15

Filename D:\Rips\15 - Arcangel - Desde la tierrra (Siguiriyas).wav

Pre-gap length 0:00:00.12

Peak level 97.7 %
Extraction speed 4.6 X
Track quality 99.9 %
Test CRC ABC1D98C
Copy CRC ABC1D98C
Track not present in AccurateRip database
Copy OK

Track 16

Filename D:\Rips\16 - Juan Habichuela - Carcelero, carcelero (Romance).wav

Pre-gap length 0:00:00.12

Peak level 96.6 %
Extraction speed 5.0 X
Track quality 100.0 %
Test CRC 86EFB4BA
Copy CRC 86EFB4BA
Track not present in AccurateRip database
Copy OK

Track 17

Filename D:\Rips\17 - Estrella Morente - Moguer (Bulerias).wav

Pre-gap length 0:00:00.12

Peak level 98.0 %
Extraction speed 5.2 X
Track quality 100.0 %
Test CRC 1B8E899C
Copy CRC 1B8E899C
Track not present in AccurateRip database
Copy OK


None of the tracks are present in the AccurateRip database

No errors occurred

End of status report

==== Log checksum D8205E90DCC6110EA9DA5D95ADD842C186F30F4E5B9705DF3B87FE8A9FAF0E17 ====

Exact Audio Copy V1.0 beta 3 from 29. August 2011

EAC extraction logfile from 24. November 2011, 23:15

Various Artists / Flamenco (cd2)

Used drive : Optiarc DVD RW AD-7200A Adapter: 2 ID: 0

Read mode : Secure
Utilize accurate stream : Yes
Defeat audio cache : Yes
Make use of C2 pointers : No

Read offset correction : 48
Overread into Lead-In and Lead-Out : No
Fill up missing offset samples with silence : Yes
Delete leading and trailing silent blocks : No
Null samples used in CRC calculations : Yes
Used interface : Installed external ASPI interface
Gap handling : Appended to previous track

Used output format : User Defined Encoder
Selected bitrate : 896 kBit/s
Quality : High
Add ID3 tag : No
Command line compressor : C:\Program Files (x86)\Exact Audio Copy\Flac\flac.exe
Additional command line options : -8 -V -T "ARTIST=%artist%" -T "TITLE=%title%" -T "ALBUM=%albumtitle%" -T "DATE=%year%" -T "TRACKNUMBER=%tracknr%" -T "TOTALTRACKS=%numtracks%" -T "GENRE=%genre%" -T "ALBUMARTIST=%albumartist%" -T "ALBUM ARTIST=%albumartist%" -T "COMMENT=EAC Secure Mode, Test & Copy, AccurateRip, FLAC -8" %source%


TOC of the extracted CD

Track | Start | Length | Start sector | End sector
––––––––––––––––––––––––––––-
1 | 0:00.00 | 4:13.16 | 0 | 18990
2 | 4:13.16 | 4:17.23 | 18991 | 38288
3 | 8:30.39 | 4:50.65 | 38289 | 60103
4 | 13:21.29 | 4:32.34 | 60104 | 80537
5 | 17:53.63 | 4:57.31 | 80538 | 102843
6 | 22:51.19 | 4:02.25 | 102844 | 121018
7 | 26:53.44 | 4:29.20 | 121019 | 141213
8 | 31:22.64 | 3:49.12 | 141214 | 158400
9 | 35:12.01 | 3:43.71 | 158401 | 175196
10 | 38:55.72 | 5:01.70 | 175197 | 197841
11 | 43:57.67 | 3:17.08 | 197842 | 212624
12 | 47:15.00 | 3:49.36 | 212625 | 229835
13 | 51:04.36 | 4:32.25 | 229836 | 250260
14 | 55:36.61 | 6:20.39 | 250261 | 278799
15 | 61:57.25 | 6:24.66 | 278800 | 307665
16 | 68:22.16 | 6:12.50 | 307666 | 335615


Track 1

Filename D:\Rips\01 - Enrique Morente - Chiquilin de bachin.wav

Pre-gap length 0:00:02.00

Peak level 96.4 %
Extraction speed 2.5 X
Track quality 100.0 %
Test CRC F75A4EDE
Copy CRC F75A4EDE
Track not present in AccurateRip database
Copy OK

Track 2

Filename D:\Rips\02 - Remedios Amaya - Dos toreros (Tanguillos).wav

Pre-gap length 0:00:00.13

Peak level 98.1 %
Extraction speed 2.5 X
Track quality 99.9 %
Test CRC 907823A9
Copy CRC 907823A9
Track not present in AccurateRip database
Copy OK

Track 3

Filename D:\Rips\03 - Paco de Lucia - Palenque.wav

Pre-gap length 0:00:00.13

Peak level 97.7 %
Extraction speed 0.8 X
Track quality 99.6 %
Test CRC B509AB47
Copy CRC B509AB47
Track not present in AccurateRip database
Copy OK

Track 4

Filename D:\Rips\04 - Camaron - Dicen de mi (Buleria por Seguiriya).wav

Pre-gap length 0:00:00.13

Peak level 98.0 %
Extraction speed 3.3 X
Track quality 100.0 %
Test CRC 9235C0D0
Copy CRC 9235C0D0
Track not present in AccurateRip database
Copy OK

Track 5

Filename D:\Rips\05 - Estrella Morente - Ne me quitte pas.wav

Pre-gap length 0:00:00.13

Peak level 97.7 %
Extraction speed 3.5 X
Track quality 100.0 %
Test CRC B9A1B2B8
Copy CRC B9A1B2B8
Track not present in AccurateRip database
Copy OK

Track 6

Filename D:\Rips\06 - Jose Merce - Aire (Buleria).wav

Pre-gap length 0:00:00.13

Peak level 88.7 %
Extraction speed 3.2 X
Track quality 99.9 %
Test CRC 80098F9E
Copy CRC 80098F9E
Track not present in AccurateRip database
Copy OK

Track 7

Filename D:\Rips\07 - Arcangel - Dame limones (Tangos).wav

Pre-gap length 0:00:00.13

Peak level 98.0 %
Extraction speed 3.4 X
Track quality 99.9 %
Test CRC 69B70661
Copy CRC 69B70661
Track not present in AccurateRip database
Copy OK

Track 8

Filename D:\Rips\08 - Chano Lobato - Volver.wav

Pre-gap length 0:00:00.13

Peak level 98.8 %
Extraction speed 4.0 X
Track quality 100.0 %
Test CRC 9DB8736B
Copy CRC 9DB8736B
Track not present in AccurateRip database
Copy OK

Track 9

Filename D:\Rips\09 - Miguel Poveda - Cuesta abajo.wav

Pre-gap length 0:00:00.13

Peak level 97.9 %
Extraction speed 4.0 X
Track quality 100.0 %
Test CRC 19E62A85
Copy CRC 19E62A85
Track not present in AccurateRip database
Copy OK

Track 10

Filename D:\Rips\10 - Chano Dominguez - Mantreria.wav

Pre-gap length 0:00:00.13

Peak level 96.6 %
Extraction speed 4.4 X
Track quality 100.0 %
Test CRC F99B1234
Copy CRC F99B1234
Track not present in AccurateRip database
Copy OK

Track 11

Filename D:\Rips\11 - Diego Carrasco - Que tal Dolly.wav

Pre-gap length 0:00:00.13

Peak level 97.9 %
Extraction speed 4.2 X
Track quality 100.0 %
Test CRC 743F17C2
Copy CRC 743F17C2
Track not present in AccurateRip database
Copy OK

Track 12

Filename D:\Rips\12 - Esperanza Fernandez - Son de negros en Cuba.wav

Pre-gap length 0:00:00.13

Peak level 98.8 %
Extraction speed 4.5 X
Track quality 100.0 %
Test CRC 48496FCC
Copy CRC 48496FCC
Track not present in AccurateRip database
Copy OK

Track 13

Filename D:\Rips\13 - Rancapino - Besame mucho.wav

Pre-gap length 0:00:00.13

Peak level 65.2 %
Extraction speed 4.8 X
Track quality 100.0 %
Test CRC 94A554C0
Copy CRC 94A554C0
Track not present in AccurateRip database
Copy OK

Track 14

Filename D:\Rips\14 - El Lebrijano - Rezo.wav

Pre-gap length 0:00:00.13

Peak level 97.7 %
Extraction speed 5.1 X
Track quality 100.0 %
Test CRC CFF59F1B
Copy CRC CFF59F1B
Track not present in AccurateRip database
Copy OK

Track 15

Filename D:\Rips\15 - Sandra Carrasco - Le pregunte yo a los cielos.wav

Pre-gap length 0:00:00.13

Peak level 84.1 %
Extraction speed 5.3 X
Track quality 100.0 %
Test CRC 733C2EFD
Copy CRC 733C2EFD
Track not present in AccurateRip database
Copy OK

Track 16

Filename D:\Rips\16 - Enrique Morente - Generalife.wav

Pre-gap length 0:00:00.13

Peak level 89.0 %
Extraction speed 5.5 X
Track quality 100.0 %
Test CRC 07D8DFE9
Copy CRC 07D8DFE9
Track not present in AccurateRip database
Copy OK


None of the tracks are present in the AccurateRip database

No errors occurred

End of status report

==== Log checksum E8EA6DCEBB85F2BEAC2D7ABCA97D0B99964A9D41C43F074E3E6C254DF76DE8D3 ====

Exact Audio Copy V1.0 beta 3 from 29. August 2011

EAC extraction logfile from 25. November 2011, 1:01

Various Artists / Flamenco (cd3)

Used drive : Optiarc DVD RW AD-7200A Adapter: 2 ID: 0

Read mode : Secure
Utilize accurate stream : Yes
Defeat audio cache : Yes
Make use of C2 pointers : No

Read offset correction : 48
Overread into Lead-In and Lead-Out : No
Fill up missing offset samples with silence : Yes
Delete leading and trailing silent blocks : No
Null samples used in CRC calculations : Yes
Used interface : Installed external ASPI interface
Gap handling : Appended to previous track

Used output format : User Defined Encoder
Selected bitrate : 896 kBit/s
Quality : High
Add ID3 tag : No
Command line compressor : C:\Program Files (x86)\Exact Audio Copy\Flac\flac.exe
Additional command line options : -8 -V -T "ARTIST=%artist%" -T "TITLE=%title%" -T "ALBUM=%albumtitle%" -T "DATE=%year%" -T "TRACKNUMBER=%tracknr%" -T "TOTALTRACKS=%numtracks%" -T "GENRE=%genre%" -T "ALBUMARTIST=%albumartist%" -T "ALBUM ARTIST=%albumartist%" -T "COMMENT=EAC Secure Mode, Test & Copy, AccurateRip, FLAC -8" %source%


TOC of the extracted CD

Track | Start | Length | Start sector | End sector
––––––––––––––––––––––––––––-
1 | 0:00.00 | 3:58.34 | 0 | 17883
2 | 3:58.34 | 4:30.74 | 17884 | 38207
3 | 8:29.33 | 4:27.19 | 38208 | 58251
4 | 12:56.52 | 3:34.21 | 58252 | 74322
5 | 16:30.73 | 2:38.74 | 74323 | 86246
6 | 19:09.72 | 3:01.20 | 86247 | 99841
7 | 22:11.17 | 3:45.30 | 99842 | 116746
8 | 25:56.47 | 6:43.09 | 116747 | 146980
9 | 32:39.56 | 2:56.08 | 146981 | 160188
10 | 35:35.64 | 3:06.23 | 160189 | 174161
11 | 38:42.12 | 3:27.12 | 174162 | 189698
12 | 42:09.24 | 4:49.36 | 189699 | 211409
13 | 46:58.60 | 4:37.33 | 211410 | 232217
14 | 51:36.18 | 2:17.74 | 232218 | 242566
15 | 53:54.17 | 4:25.43 | 242567 | 262484
16 | 58:19.60 | 6:14.61 | 262485 | 290595


Track 1

Filename D:\Rips\01 - Tomatito - Rosas del amor (Rumba).wav

Pre-gap length 0:00:02.00

Peak level 98.0 %
Extraction speed 2.1 X
Track quality 99.9 %
Test CRC E64E9E2E
Copy CRC E64E9E2E
Track not present in AccurateRip database
Copy OK

Track 2

Filename D:\Rips\02 - Ketama - Kalikeno (Rumba).wav

Pre-gap length 0:00:00.11

Peak level 98.0 %
Extraction speed 2.1 X
Track quality 99.9 %
Test CRC BCA1E504
Copy CRC BCA1E504
Track not present in AccurateRip database
Copy OK

Track 3

Filename D:\Rips\03 - Remedios Amaya - Turu, turai (Tangos).wav

Pre-gap length 0:00:00.11

Peak level 92.2 %
Extraction speed 2.6 X
Track quality 99.9 %
Test CRC 7223EA82
Copy CRC 7223EA82
Track not present in AccurateRip database
Copy OK

Track 4

Filename D:\Rips\04 - Dieguito el Cigala - Undebel.wav

Pre-gap length 0:00:00.10

Peak level 98.8 %
Extraction speed 3.1 X
Track quality 100.0 %
Test CRC 25CF0A93
Copy CRC 25CF0A93
Track not present in AccurateRip database
Copy OK

Track 5

Filename D:\Rips\05 - Lole y Manuel - Romero verde.wav

Pre-gap length 0:00:00.10

Peak level 96.5 %
Extraction speed 3.0 X
Track quality 100.0 %
Test CRC 4A625C56
Copy CRC 4A625C56
Track not present in AccurateRip database
Copy OK

Track 6

Filename D:\Rips\06 - Pata Negra - Mama.wav

Peak level 88.6 %
Extraction speed 2.8 X
Track quality 99.9 %
Test CRC 396250B2
Copy CRC 396250B2
Track not present in AccurateRip database
Copy OK

Track 7

Filename D:\Rips\07 - Tomasito - Ante todo…el silencio.wav

Pre-gap length 0:00:00.10

Peak level 98.3 %
Extraction speed 3.1 X
Track quality 99.9 %
Test CRC 46BDD573
Copy CRC 46BDD573
Track not present in AccurateRip database
Copy OK

Track 8

Filename D:\Rips\08 - Chano Dominguez - El puerto.wav

Pre-gap length 0:00:00.10

Peak level 97.7 %
Extraction speed 2.2 X
Track quality 99.8 %
Test CRC 860B8801
Copy CRC 860B8801
Track not present in AccurateRip database
Copy OK

Track 9

Filename D:\Rips\09 - Jose Merce - Mammy blue.wav

Pre-gap length 0:00:00.10

Peak level 80.5 %
Extraction speed 3.8 X
Track quality 100.0 %
Test CRC C1FDB3B7
Copy CRC C1FDB3B7
Track not present in AccurateRip database
Copy OK

Track 10

Filename D:\Rips\10 - Alba Molina - No puedo quitar mis ojos de ti.wav

Pre-gap length 0:00:00.10

Peak level 97.7 %
Extraction speed 3.9 X
Track quality 100.0 %
Test CRC 5FEEAC71
Copy CRC 5FEEAC71
Track not present in AccurateRip database
Copy OK

Track 11

Filename D:\Rips\11 - Mayte Martin - Intentalo encontrar (Buleria).wav

Pre-gap length 0:00:00.10

Peak level 97.7 %
Extraction speed 3.6 X
Track quality 99.9 %
Test CRC 8DD44DC3
Copy CRC 8DD44DC3
Track not present in AccurateRip database
Copy OK

Track 12

Filename D:\Rips\12 - Dorantes - Orobroy.wav

Pre-gap length 0:00:00.10

Peak level 82.4 %
Extraction speed 4.0 X
Track quality 99.9 %
Test CRC 4071E4EE
Copy CRC 4071E4EE
Track not present in AccurateRip database
Copy OK

Track 13

Filename D:\Rips\13 - Antonio Rey - Entre en tu balcon.wav

Pre-gap length 0:00:00.10

Peak level 91.1 %
Extraction speed 4.6 X
Track quality 100.0 %
Test CRC 7D39B115
Copy CRC 7D39B115
Track not present in AccurateRip database
Copy OK

Track 14

Filename D:\Rips\14 - Lole y Manuel - Recuerdo escolar.wav

Pre-gap length 0:00:00.10

Peak level 97.7 %
Extraction speed 4.1 X
Track quality 100.0 %
Test CRC B04AE236
Copy CRC B04AE236
Track not present in AccurateRip database
Copy OK

Track 15

Filename D:\Rips\15 - Enrique Morente - El lenguaje de las flores.wav

Pre-gap length 0:00:00.10

Peak level 89.7 %
Extraction speed 4.3 X
Track quality 99.9 %
Test CRC 2592A515
Copy CRC 2592A515
Track not present in AccurateRip database
Copy OK

Track 16

Filename D:\Rips\16 - Paco de Lucia - Zyriab.wav

Pre-gap length 0:00:00.10

Peak level 88.9 %
Extraction speed 4.7 X
Track quality 99.9 %
Test CRC 9DF7B2AF
Copy CRC 9DF7B2AF
Track not present in AccurateRip database
Copy OK


None of the tracks are present in the AccurateRip database

No errors occurred

End of status report

==== Log checksum 5DE75D780274269E16F13AA09E7819E26B0E9492718D7FC224ECE6673EB62E73 ====

Exact Audio Copy V1.0 beta 3 from 29. August 2011

EAC extraction logfile from 25. November 2011, 10:58

Various Artists / Flamenco (cd4)

Used drive : Optiarc DVD RW AD-7200A Adapter: 2 ID: 0

Read mode : Secure
Utilize accurate stream : Yes
Defeat audio cache : Yes
Make use of C2 pointers : No

Read offset correction : 48
Overread into Lead-In and Lead-Out : No
Fill up missing offset samples with silence : Yes
Delete leading and trailing silent blocks : No
Null samples used in CRC calculations : Yes
Used interface : Installed external ASPI interface
Gap handling : Appended to previous track

Used output format : User Defined Encoder
Selected bitrate : 896 kBit/s
Quality : High
Add ID3 tag : No
Command line compressor : C:\Program Files (x86)\Exact Audio Copy\Flac\flac.exe
Additional command line options : -8 -V -T "ARTIST=%artist%" -T "TITLE=%title%" -T "ALBUM=%albumtitle%" -T "DATE=%year%" -T "TRACKNUMBER=%tracknr%" -T "TOTALTRACKS=%numtracks%" -T "GENRE=%genre%" -T "ALBUMARTIST=%albumartist%" -T "ALBUM ARTIST=%albumartist%" -T "COMMENT=EAC Secure Mode, Test & Copy, AccurateRip, FLAC -8" %source%


TOC of the extracted CD

Track | Start | Length | Start sector | End sector
––––––––––––––––––––––––––––-
1 | 0:00.00 | 4:23.59 | 0 | 19783
2 | 4:23.59 | 4:25.38 | 19784 | 39696
3 | 8:49.22 | 3:19.33 | 39697 | 54654
4 | 12:08.55 | 3:12.07 | 54655 | 69061
5 | 15:20.62 | 3:45.04 | 69062 | 85940
6 | 19:05.66 | 3:50.64 | 85941 | 103254
7 | 22:56.55 | 2:48.13 | 103255 | 115867
8 | 25:44.68 | 2:28.41 | 115868 | 127008
9 | 28:13.34 | 4:41.21 | 127009 | 148104
10 | 32:54.55 | 3:29.24 | 148105 | 163803
11 | 36:24.04 | 5:02.35 | 163804 | 186488
12 | 41:26.39 | 4:11.69 | 186489 | 205382
13 | 45:38.33 | 4:28.46 | 205383 | 225528
14 | 50:07.04 | 4:22.73 | 225529 | 245251
15 | 54:30.02 | 2:10.58 | 245252 | 255059
16 | 56:40.60 | 3:10.10 | 255060 | 269319
17 | 59:50.70 | 2:32.01 | 269320 | 280720
18 | 62:22.71 | 2:34.18 | 280721 | 292288
19 | 64:57.14 | 2:02.37 | 292289 | 301475
20 | 66:59.51 | 3:34.00 | 301476 | 317525


Track 1

Filename D:\Rips\01 - Jose Merce - Los campanilleros.wav

Pre-gap length 0:00:02.00

Peak level 89.1 %
Extraction speed 2.2 X
Track quality 99.9 %
Test CRC D8C6C7D0
Copy CRC D8C6C7D0
Track not present in AccurateRip database
Copy OK

Track 2

Filename D:\Rips\02 - Mayte Martin - Serenoke (Malaguena y Fandangos Abandolaos).wav

Pre-gap length 0:00:00.06

Peak level 98.3 %
Extraction speed 2.8 X
Track quality 100.0 %
Test CRC 402578D3
Copy CRC 402578D3
Track not present in AccurateRip database
Copy OK

Track 3

Filename D:\Rips\03 - Esrtella Morente - Los cuatro muleros.wav

Pre-gap length 0:00:00.06

Peak level 98.6 %
Extraction speed 2.9 X
Track quality 100.0 %
Test CRC D966FBEB
Copy CRC D966FBEB
Track not present in AccurateRip database
Copy OK

Track 4

Filename D:\Rips\04 - Enrique Morente - Taranto veneno.wav

Pre-gap length 0:00:00.06

Peak level 99.8 %
Extraction speed 3.0 X
Track quality 100.0 %
Test CRC 5415AAC0
Copy CRC 5415AAC0
Track not present in AccurateRip database
Copy OK

Track 5

Filename D:\Rips\05 - Juanito Villar - Por amargarme la vida (Tientos).wav

Pre-gap length 0:00:00.06

Peak level 91.8 %
Extraction speed 2.5 X
Track quality 99.9 %
Test CRC 6C583ECE
Copy CRC 6C583ECE
Track not present in AccurateRip database
Copy OK

Track 6

Filename D:\Rips\06 - Victor Monge Serranito - Llegando al puerto (Alegrias).wav

Pre-gap length 0:00:00.06

Peak level 99.9 %
Extraction speed 3.5 X
Track quality 100.0 %
Test CRC 9514F835
Copy CRC 9514F835
Track not present in AccurateRip database
Copy OK

Track 7

Filename D:\Rips\07 - Chano Lobato - Tangos de carnaval.wav

Pre-gap length 0:00:00.06

Peak level 91.1 %
Extraction speed 1.7 X
Track quality 99.8 %
Test CRC ADA4E814
Copy CRC ADA4E814
Track not present in AccurateRip database
Copy OK

Track 8

Filename D:\Rips\08 - Manuel Soto Sordera - Azucar arcande (Mirabras).wav

Pre-gap length 0:00:00.06

Peak level 97.2 %
Extraction speed 3.4 X
Track quality 100.0 %
Test CRC EBB49D30
Copy CRC EBB49D30
Track not present in AccurateRip database
Copy OK

Track 9

Filename D:\Rips\09 - Bernanda de Utrera - La semilla del encanto (Buleria por Solea).wav

Pre-gap length 0:00:00.06

Peak level 97.7 %
Extraction speed 3.9 X
Track quality 100.0 %
Test CRC 48E035F0
Copy CRC 48E035F0
Track not present in AccurateRip database
Copy OK

Track 10

Filename D:\Rips\10 - Fernanda de Utrera - Mi mal no tiene cura (Soleares).wav

Pre-gap length 0:00:00.06

Peak level 97.7 %
Extraction speed 3.9 X
Track quality 100.0 %
Test CRC F27E80DF
Copy CRC F27E80DF
Track not present in AccurateRip database
Copy OK

Track 11

Filename D:\Rips\11 - Manolo Caracol - El reniego (Sigiriya).wav

Pre-gap length 0:00:00.06

Peak level 94.2 %
Extraction speed 3.1 X
Track quality 99.9 %
Test CRC 78722B9F
Copy CRC 78722B9F
Track not present in AccurateRip database
Copy OK

Track 12

Filename D:\Rips\12 - El Chocolate - Esta nevando (Serranas).wav

Pre-gap length 0:00:00.06

Peak level 96.4 %
Extraction speed 4.4 X
Track quality 100.0 %
Test CRC F9B202F1
Copy CRC F9B202F1
Track not present in AccurateRip database
Copy OK

Track 13

Filename D:\Rips\13 - Porrina de Badajoz - Soy la ciencia en el saber (La Cana).wav

Pre-gap length 0:00:00.06

Peak level 96.5 %
Extraction speed 4.5 X
Track quality 100.0 %
Test CRC 074C422E
Copy CRC 074C422E
Track not present in AccurateRip database
Copy OK

Track 14

Filename D:\Rips\14 - La Paquera de Jerez - Maldigo tus ojos verdes (Tientos).wav

Pre-gap length 0:00:00.06

Peak level 98.3 %
Extraction speed 4.7 X
Track quality 100.0 %
Test CRC 60AE4259
Copy CRC 60AE4259
Track not present in AccurateRip database
Copy OK

Track 15

Filename D:\Rips\15 - Pericon de Cadiz - Levantate Filomena (Bulerias de Cadiz).wav

Pre-gap length 0:00:00.06

Peak level 70.2 %
Extraction speed 3.5 X
Track quality 99.9 %
Test CRC 71077C0F
Copy CRC 71077C0F
Track not present in AccurateRip database
Copy OK

Track 16

Filename D:\Rips\16 - Juanito Valderrama - Mi mulata (Guajira).wav

Peak level 81.3 %
Extraction speed 4.6 X
Track quality 100.0 %
Test CRC ACDCF46C
Copy CRC ACDCF46C
Track not present in AccurateRip database
Copy OK

Track 17

Filename D:\Rips\17 - Rafael Farina - Jugamos al mismo juego (Fandangos).wav

Pre-gap length 0:00:00.16

Peak level 84.4 %
Extraction speed 4.5 X
Track quality 100.0 %
Test CRC 4231C658
Copy CRC 4231C658
Track not present in AccurateRip database
Copy OK

Track 18

Filename D:\Rips\18 - Antonio Mairena - No te obligo gitana (Tona grande y chica).wav

Pre-gap length 0:00:00.05

Peak level 86.5 %
Extraction speed 4.6 X
Track quality 100.0 %
Test CRC AAFCD417
Copy CRC AAFCD417
Track not present in AccurateRip database
Copy OK

Track 19

Filename D:\Rips\19 - Manolo Caracol - Mis dudas no eran na (Martinete).wav

Pre-gap length 0:00:00.05

Peak level 97.9 %
Extraction speed 3.6 X
Track quality 99.9 %
Test CRC 4C238339
Copy CRC 4C238339
Track not present in AccurateRip database
Copy OK

Track 20

Filename D:\Rips\20 - Sabicas - Punta y tacon (Farruca).wav

Pre-gap length 0:00:00.06

Peak level 86.1 %
Extraction speed 5.1 X
Track quality 100.0 %
Test CRC 4D230B26
Copy CRC 4D230B26
Track not present in AccurateRip database
Copy OK


None of the tracks are present in the AccurateRip database

No errors occurred

End of status report

==== Log checksum 0694FE5F18630DD0105F75AD211D6E19350A4086D57E68B5274C18C88ED09134 ====


Various Artists - Flamenco: Patrimonio de la Humanidad (2011) [4CD BoxSet] {EMI Music Spain}

Various Artists - Flamenco: Patrimonio de la Humanidad (2011) [4CD BoxSet] {EMI Music Spain}


All thanks goes to the original releaser!