Subcategories

VA - I'm a Freak, Baby: A Journey Through the British Heavy Psych and Hard Rock Underground Scene 1968-72 (2016)

Posted By: delpotro
VA - I'm a Freak, Baby: A Journey Through the British Heavy Psych and Hard Rock Underground Scene 1968-72 (2016)

VA - I'm a Freak, Baby: A Journey Through the British Heavy Psych and Hard Rock Underground Scene 1968-72 (2016)
XLD Rip | FLAC (tracks+log+.cue) - 1,33 Gb | Digital booklet - 159 Mb | 03:53:21
Psychedelic Rock, Hard Rock | Label: Grapefruit Records, Cherry Red Records

Although vintage British psychedelia is viewed by many these days as an Alice In Wonderland-style enchanted garden full of beatific flower children innocently gathering flowers or chasing butterflies, there was always a more visceral element to the scene. Pointedly free of such fripperies as scarlet tunic-wearing gnomes, phenomenal cats and talismanic bicycles, the power trio format that was popularised by the likes of Cream and the Jimi Hendrix Experience spawned a host of imitators. As the Sixties drew to a close and pop evolved slowly but inexorably into rock, psychedelia gave way to a sound that was harder, leaner, heavier, louder.

Across three discs and four hours of music, I’m A Freak, Baby: A Journey Through The British Heavy Psych And Hard Rock Underground Scene 1968-72 investigates that largely under-documented period, incorporating everything from some of the biggest names in the burgeoning hard rock/proto-metal firmament (Deep Purple, Uriah Heep) all the way down to a significant number of provincial semi-pro bands who gigged extensively but were unable to land a recording contract during their lifetime.

Features some of British rock’s pioneering acts (The Yardbirds, The Move), a handful of bands who travelled far beyond their blues boom roots (Fleetwood Mac, Chicken Shack, The Groundhogs), the infamous Ladbroke Grove scene (The Deviants, The Pink Fairies, Hawkwind, The Edgar Broughton Band), a smattering of inspired, where-the-hell-did-that-come-from one-shots like The Velvet Frogs and the mighty Egor, and a clutch of previously-unreleased recordings (The Kult, Hellmet, The Phoenix) that have even eluded the specialist reissue companies and bootleggers…

Comes with a lavishly illustrated and annotated 36-page booklet, I’m A Freak, Baby is the most comprehensive and wide-ranging anthology to appear thus far of an underground scene that, in addition to being responsible for some magnificent music, also acted as a signpost to the subsequent emergence of British punk and heavy metal.
Tracklist:
Disc 1
1. Stray – All In Your Mind
2. The Open Mind – Cast A Spell
3. The Mooche – Hot Smoke And Sassafras
4. Crushed Butler – My Son's Alive
5. Chicken Shack – Going Down
6. Cycle – Father Of Time
7. The Deviants – I'm Coming Home
8. The Pink Fairies – Do It
9. Factory – Time Machine
10. The Groundhogs – Cherry Red
11. Wicked Lady – I'm A Freak
12. Charge – Rock My Soul
13. Hawkwind Zoo – Sweet Mistress Of Pain
14. Stonehouse – Nightmare
15. The Iron Maiden – Falling
16. Barnabus – Apocalypse

Disc 2
1. Writing On The Wall – Bogeyman
2. Deep Purple – Fireball
3. Jerusalem – Primitive Man
4. Edgar Broughton Band – Love In The Rain
5. Hellmet – Trust
6. Second Hand – Rhubarb!
7. Little Free Rock – Dream
8. Iron Claw – Skullcrusher
9. Dark – Zero Time
10. The Velvet Frogs – Jehovah
11. The Move – Brontosaurus
12. Stack Waddy – Bring It To Jerome
13. Samuel Prody – Mr. Make Believe
14. Bare Sole – Flash
15. The Phoenix – Street Walking Woman
16. Skid Row – Go, I'm Never Gonna Let You

Disc 3
1. The Gun – Race With The Devil
2. Blonde On Blonde – Heart Without A Home
3. Third World War – Ascension Day
4. Egor – Street
5. Sam Gopal – Escalator
6. Uriah Heep – Gypsy
7. The Mickey Finn – Garden Of My Mind
8. The Yardbirds – Think About It
9. Morning After – Trying To Find My Way Back Home
10. Velvett Fogg – Yellow Cave Woman
11. Andromeda – Too Old
12. Fleetwood Mac – The Green Manalishi (With The Two Prong Crown)
13. Sweet Slag – Twisted Trip Woman
14. The Kult – Occult
15. The Taste – Born On The Wrong Side Of Time
16. Fusion Farm – Hollis Brown

X Lossless Decoder version 20151214 (149.1)

XLD extraction logfile from 2016-08-12 18:07:21 -0400

Various Artists / I'm A Freak, Baby…

Used drive : HL-DT-ST DVDRW GS31N (revision TA17)
Media type : Pressed CD

Ripper mode : XLD Secure Ripper
Disable audio cache : OK for the drive with a cache less than 1375KiB
Make use of C2 pointers : NO
Read offset correction : 667
Max retry count : 100
Gap status : Analyzed, Appended (except HTOA)

TOC of the extracted CD
Track | Start | Length | Start sector | End sector
––––––––––––––––––––––––––––-
1 | 00:00:00 | 09:21:59 | 0 | 42133
2 | 09:21:59 | 02:09:53 | 42134 | 51861
3 | 11:31:37 | 03:12:44 | 51862 | 66305
4 | 14:44:06 | 04:01:10 | 66306 | 84390
5 | 18:45:16 | 03:33:70 | 84391 | 100435
6 | 22:19:11 | 04:11:62 | 100436 | 119322
7 | 26:30:73 | 05:56:23 | 119323 | 146045
8 | 32:27:21 | 03:03:05 | 146046 | 159775
9 | 35:30:26 | 05:48:06 | 159776 | 185881
10 | 41:18:32 | 05:45:39 | 185882 | 211795
11 | 47:03:71 | 04:57:53 | 211796 | 234123
12 | 52:01:49 | 03:44:26 | 234124 | 250949
13 | 55:46:00 | 05:25:73 | 250950 | 275397
14 | 61:11:73 | 04:40:74 | 275398 | 296471
15 | 65:52:72 | 06:02:21 | 296472 | 323642
16 | 71:55:18 | 06:29:39 | 323643 | 352856

AccurateRip Summary
Disc not found in AccurateRip DB.

All Tracks
Album gain : -7.60 dB
Peak : 0.966064
Statistics
Read error : 0
Jitter error (maybe fixed) : 0
Retry sector count : 0
Damaged sector count : 0

Track 01
Filename : /Users/camron/Desktop/I'm A Freak, Baby… (2016) [FLAC]/Disc 1/I'm A Freak, Baby… - Stray (1970) [FLAC]/01 All In Your Mind.flac
Pre-gap length : 00:02:00

Track gain : -5.98 dB
Peak : 0.966064
CRC32 hash (test run) : F3D55C8A
CRC32 hash : F3D55C8A
CRC32 hash (skip zero) : DBBA1997
AccurateRip v1 signature : 7E0D85C6
AccurateRip v2 signature : B3265B5E
->Track not present in AccurateRip database.
Statistics
Read error : 0
Jitter error (maybe fixed) : 0
Retry sector count : 0
Damaged sector count : 0

Track 02
Filename : /Users/camron/Desktop/I'm A Freak, Baby… (2016) [FLAC]/Disc 1/I'm A Freak, Baby… - The Open Mind (1969) [FLAC]/02 Cast A Spell.flac
Pre-gap length : 00:01:00

Track gain : -7.56 dB
Peak : 0.966034
CRC32 hash (test run) : 8FA30D10
CRC32 hash : 8FA30D10
CRC32 hash (skip zero) : 9C38DE5D
AccurateRip v1 signature : 2AD9F727
AccurateRip v2 signature : 5B35F8DA
->Track not present in AccurateRip database.
Statistics
Read error : 0
Jitter error (maybe fixed) : 0
Retry sector count : 0
Damaged sector count : 0

Track 03
Filename : /Users/camron/Desktop/I'm A Freak, Baby… (2016) [FLAC]/Disc 1/I'm A Freak, Baby… - The Mooche (1969) [FLAC]/03 Hot Smoke And Sassafras.flac
Pre-gap length : 00:01:00

Track gain : -6.35 dB
Peak : 0.966064
CRC32 hash (test run) : 508A6AC1
CRC32 hash : 508A6AC1
CRC32 hash (skip zero) : 222EA01F
AccurateRip v1 signature : 45DA2087
AccurateRip v2 signature : 6A932711
->Track not present in AccurateRip database.
Statistics
Read error : 0
Jitter error (maybe fixed) : 0
Retry sector count : 0
Damaged sector count : 0

Track 04
Filename : /Users/camron/Desktop/I'm A Freak, Baby… (2016) [FLAC]/Disc 1/I'm A Freak, Baby… - Crushed Butler (1970) [FLAC]/04 My Son's Alive.flac
Pre-gap length : 00:01:00

Track gain : -5.95 dB
Peak : 0.966064
CRC32 hash (test run) : 566A86AB
CRC32 hash : 566A86AB
CRC32 hash (skip zero) : 650868DD
AccurateRip v1 signature : 2B3109B6
AccurateRip v2 signature : BA890567
->Track not present in AccurateRip database.
Statistics
Read error : 0
Jitter error (maybe fixed) : 0
Retry sector count : 0
Damaged sector count : 0

Track 05
Filename : /Users/camron/Desktop/I'm A Freak, Baby… (2016) [FLAC]/Disc 1/I'm A Freak, Baby… - Chicken Shack (1972) [FLAC]/05 Going Down.flac
Pre-gap length : 00:01:00

Track gain : -4.36 dB
Peak : 0.966034
CRC32 hash (test run) : 3AC169E7
CRC32 hash : 3AC169E7
CRC32 hash (skip zero) : 26EF2255
AccurateRip v1 signature : C0FFAEAF
AccurateRip v2 signature : 75A9A40E
->Track not present in AccurateRip database.
Statistics
Read error : 0
Jitter error (maybe fixed) : 0
Retry sector count : 0
Damaged sector count : 0

Track 06
Filename : /Users/camron/Desktop/I'm A Freak, Baby… (2016) [FLAC]/Disc 1/I'm A Freak, Baby… - Cycle (1971) [FLAC]/06 Father Of Time.flac
Pre-gap length : 00:01:00

Track gain : -7.58 dB
Peak : 0.966064
CRC32 hash (test run) : A3D1794D
CRC32 hash : A3D1794D
CRC32 hash (skip zero) : CA86B49C
AccurateRip v1 signature : 9C48C72A
AccurateRip v2 signature : 1C5A65EA
->Track not present in AccurateRip database.
Statistics
Read error : 0
Jitter error (maybe fixed) : 0
Retry sector count : 0
Damaged sector count : 0

Track 07
Filename : /Users/camron/Desktop/I'm A Freak, Baby… (2016) [FLAC]/Disc 1/I'm A Freak, Baby… - The Deviants (1968) [FLAC]/07 I'm Coming Home.flac
Pre-gap length : 00:01:00

Track gain : -8.11 dB
Peak : 0.966064
CRC32 hash (test run) : 06DA616E
CRC32 hash : 06DA616E
CRC32 hash (skip zero) : 725F5F28
AccurateRip v1 signature : 3D37CE5F
AccurateRip v2 signature : 59B93E7D
->Track not present in AccurateRip database.
Statistics
Read error : 0
Jitter error (maybe fixed) : 0
Retry sector count : 0
Damaged sector count : 0

Track 08
Filename : /Users/camron/Desktop/I'm A Freak, Baby… (2016) [FLAC]/Disc 1/I'm A Freak, Baby… - The Pink Fairies (1971) [FLAC]/08 Do It.flac
Pre-gap length : 00:01:00

Track gain : -7.30 dB
Peak : 0.966064
CRC32 hash (test run) : 2E4673AC
CRC32 hash : 2E4673AC
CRC32 hash (skip zero) : 07E6210D
AccurateRip v1 signature : 07C1EA7A
AccurateRip v2 signature : 43B14CFC
->Track not present in AccurateRip database.
Statistics
Read error : 0
Jitter error (maybe fixed) : 0
Retry sector count : 0
Damaged sector count : 0

Track 09
Filename : /Users/camron/Desktop/I'm A Freak, Baby… (2016) [FLAC]/Disc 1/I'm A Freak, Baby… - Factory (1971) [FLAC]/09 Time Machine.flac
Pre-gap length : 00:01:00

Track gain : -8.28 dB
Peak : 0.966064
CRC32 hash (test run) : FFD6C37C
CRC32 hash : FFD6C37C
CRC32 hash (skip zero) : F689966B
AccurateRip v1 signature : 3A046A79
AccurateRip v2 signature : 5DBA40A5
->Track not present in AccurateRip database.
Statistics
Read error : 0
Jitter error (maybe fixed) : 0
Retry sector count : 0
Damaged sector count : 0

Track 10
Filename : /Users/camron/Desktop/I'm A Freak, Baby… (2016) [FLAC]/Disc 1/I'm A Freak, Baby… - The Groundhogs (1971) [FLAC]/10 Cherry Red.flac
Pre-gap length : 00:01:00

Track gain : -8.83 dB
Peak : 0.966064
CRC32 hash (test run) : 4BDE20BB
CRC32 hash : 4BDE20BB
CRC32 hash (skip zero) : 6B47C55F
AccurateRip v1 signature : 7A7B7D53
AccurateRip v2 signature : EB948772
->Track not present in AccurateRip database.
Statistics
Read error : 0
Jitter error (maybe fixed) : 0
Retry sector count : 0
Damaged sector count : 0

Track 11
Filename : /Users/camron/Desktop/I'm A Freak, Baby… (2016) [FLAC]/Disc 1/I'm A Freak, Baby… - Wicked Lady (1972) [FLAC]/11 I'm A Freak.flac
Pre-gap length : 00:01:00

Track gain : -6.19 dB
Peak : 0.966064
CRC32 hash (test run) : 80BAD6B9
CRC32 hash : 80BAD6B9
CRC32 hash (skip zero) : CC765B80
AccurateRip v1 signature : 4E76239B
AccurateRip v2 signature : 1C18F22D
->Track not present in AccurateRip database.
Statistics
Read error : 0
Jitter error (maybe fixed) : 0
Retry sector count : 0
Damaged sector count : 0

Track 12
Filename : /Users/camron/Desktop/I'm A Freak, Baby… (2016) [FLAC]/Disc 1/I'm A Freak, Baby… - Charge (1973) [FLAC]/12 Rock My Soul.flac
Pre-gap length : 00:01:00

Track gain : -8.14 dB
Peak : 0.966064
CRC32 hash (test run) : 15FDC935
CRC32 hash : 15FDC935
CRC32 hash (skip zero) : 0CD0A4B6
AccurateRip v1 signature : F76EEA39
AccurateRip v2 signature : EDD1DB4A
->Track not present in AccurateRip database.
Statistics
Read error : 0
Jitter error (maybe fixed) : 0
Retry sector count : 0
Damaged sector count : 0

Track 13
Filename : /Users/camron/Desktop/I'm A Freak, Baby… (2016) [FLAC]/Disc 1/I'm A Freak, Baby… - Hawkwind Zoo (1969) [FLAC]/13 Sweet Mistress Of Pain.flac
Pre-gap length : 00:01:00

Track gain : -6.11 dB
Peak : 0.966064
CRC32 hash (test run) : 43A479DC
CRC32 hash : 43A479DC
CRC32 hash (skip zero) : F6CD2C34
AccurateRip v1 signature : 9DFC0642
AccurateRip v2 signature : 7D58DE87
->Track not present in AccurateRip database.
Statistics
Read error : 0
Jitter error (maybe fixed) : 0
Retry sector count : 0
Damaged sector count : 0

Track 14
Filename : /Users/camron/Desktop/I'm A Freak, Baby… (2016) [FLAC]/Disc 1/I'm A Freak, Baby… - Stonehouse (1971) [FLAC]/14 Nightmare.flac
Pre-gap length : 00:01:00

Track gain : -8.32 dB
Peak : 0.966064
CRC32 hash (test run) : BE150A75
CRC32 hash : BE150A75
CRC32 hash (skip zero) : 2B6B92BA
AccurateRip v1 signature : E543DDD9
AccurateRip v2 signature : DC47F6FA
->Track not present in AccurateRip database.
Statistics
Read error : 0
Jitter error (maybe fixed) : 0
Retry sector count : 0
Damaged sector count : 0

Track 15
Filename : /Users/camron/Desktop/I'm A Freak, Baby… (2016) [FLAC]/Disc 1/I'm A Freak, Baby… - The Iron Maiden (1970) [FLAC]/15 Falling.flac
Pre-gap length : 00:01:00

Track gain : -6.14 dB
Peak : 0.966064
CRC32 hash (test run) : C66A58A1
CRC32 hash : C66A58A1
CRC32 hash (skip zero) : BDC994F9
AccurateRip v1 signature : 3CCA67B2
AccurateRip v2 signature : 52BD405A
->Track not present in AccurateRip database.
Statistics
Read error : 0
Jitter error (maybe fixed) : 0
Retry sector count : 0
Damaged sector count : 0

Track 16
Filename : /Users/camron/Desktop/I'm A Freak, Baby… (2016) [FLAC]/Disc 1/I'm A Freak, Baby… - Barnabus (1971) [FLAC]/16 Apocalypse.flac
Pre-gap length : 00:01:00

Track gain : -7.87 dB
Peak : 0.966064
CRC32 hash (test run) : BE3CF30E
CRC32 hash : BE3CF30E
CRC32 hash (skip zero) : A720A0AC
AccurateRip v1 signature : 9E852126
AccurateRip v2 signature : 8823EBC4
->Track not present in AccurateRip database.
Statistics
Read error : 0
Jitter error (maybe fixed) : 0
Retry sector count : 0
Damaged sector count : 0

No errors occurred

End of status report

––-BEGIN XLD SIGNATURE––-
WyuPhDkF1zFcj8tRFt.KYgOvu89sjUpNdS0e3GIizwCs6WQib59lMPnRCWuP7kUKREHWU6HzCunTkJz3eqyzskrOJ2if8ajRozoa8Ye
––-END XLD SIGNATURE––-

X Lossless Decoder version 20151214 (149.1)

XLD extraction logfile from 2016-08-12 17:36:46 -0400

Various Artists / I'm A Freak, Baby…

Used drive : HL-DT-ST DVDRW GS31N (revision TA17)
Media type : Pressed CD

Ripper mode : XLD Secure Ripper
Disable audio cache : OK for the drive with a cache less than 1375KiB
Make use of C2 pointers : NO
Read offset correction : 667
Max retry count : 100
Gap status : Analyzed, Appended (except HTOA)

TOC of the extracted CD
Track | Start | Length | Start sector | End sector
––––––––––––––––––––––––––––-
1 | 00:00:00 | 03:42:37 | 0 | 16686
2 | 03:42:37 | 03:20:69 | 16687 | 31755
3 | 07:03:31 | 05:54:09 | 31756 | 58314
4 | 12:57:40 | 03:42:56 | 58315 | 75020
5 | 16:40:21 | 06:29:52 | 75021 | 104247
6 | 23:09:73 | 03:44:26 | 104248 | 121073
7 | 26:54:24 | 03:46:56 | 121074 | 138079
8 | 30:41:05 | 06:03:04 | 138080 | 165308
9 | 36:44:09 | 06:45:38 | 165309 | 195721
10 | 43:29:47 | 06:59:66 | 195722 | 227212
11 | 50:29:38 | 04:24:43 | 227213 | 247055
12 | 54:54:06 | 05:16:74 | 247056 | 270829
13 | 60:11:05 | 03:16:67 | 270830 | 285596
14 | 63:27:72 | 04:25:38 | 285597 | 305509
15 | 67:53:35 | 03:14:09 | 305510 | 320068
16 | 71:07:44 | 08:51:25 | 320069 | 359918

AccurateRip Summary
Disc not found in AccurateRip DB.

All Tracks
Album gain : -7.48 dB
Peak : 0.966064
Statistics
Read error : 0
Jitter error (maybe fixed) : 0
Retry sector count : 0
Damaged sector count : 0

Track 01
Filename : /Users/camron/Desktop/I'm A Freak, Baby… (2016) [FLAC]/Disc 2/I'm A Freak, Baby… - Writing On The Wall (1969) [FLAC]/01 Bogeyman.flac
Pre-gap length : 00:02:00

Track gain : -6.33 dB
Peak : 0.966034
CRC32 hash (test run) : 51DBBA7D
CRC32 hash : 51DBBA7D
CRC32 hash (skip zero) : 6581C120
AccurateRip v1 signature : 5C4B3DD5
AccurateRip v2 signature : 437354B0
->Track not present in AccurateRip database.
Statistics
Read error : 0
Jitter error (maybe fixed) : 0
Retry sector count : 0
Damaged sector count : 0

Track 02
Filename : /Users/camron/Desktop/I'm A Freak, Baby… (2016) [FLAC]/Disc 2/I'm A Freak, Baby… - Deep Purple (1971) [FLAC]/02 Fireball.flac

Track gain : -6.80 dB
Peak : 0.944061
CRC32 hash (test run) : 06FF21A4
CRC32 hash : 06FF21A4
CRC32 hash (skip zero) : 40C5DA57
AccurateRip v1 signature : 167B33D2
AccurateRip v2 signature : 59E1D423
->Track not present in AccurateRip database.
Statistics
Read error : 0
Jitter error (maybe fixed) : 0
Retry sector count : 0
Damaged sector count : 0

Track 03
Filename : /Users/camron/Desktop/I'm A Freak, Baby… (2016) [FLAC]/Disc 2/I'm A Freak, Baby… - Jerusalem (1972) [FLAC]/03 Primitive Man.flac

Track gain : -7.09 dB
Peak : 0.966034
CRC32 hash (test run) : 2F5B5503
CRC32 hash : 2F5B5503
CRC32 hash (skip zero) : 82DB0E41
AccurateRip v1 signature : 518EBF1E
AccurateRip v2 signature : 8C9380A4
->Track not present in AccurateRip database.
Statistics
Read error : 0
Jitter error (maybe fixed) : 0
Retry sector count : 0
Damaged sector count : 0

Track 04
Filename : /Users/camron/Desktop/I'm A Freak, Baby… (2016) [FLAC]/Disc 2/I'm A Freak, Baby… - Edgar Broughton Band (1969) [FLAC]/04 Love In The Rain.flac

Track gain : -7.97 dB
Peak : 0.966064
CRC32 hash (test run) : 597841B7
CRC32 hash : 597841B7
CRC32 hash (skip zero) : 7EEDB10D
AccurateRip v1 signature : 7C7638F5
AccurateRip v2 signature : 16976A23
->Track not present in AccurateRip database.
Statistics
Read error : 0
Jitter error (maybe fixed) : 0
Retry sector count : 0
Damaged sector count : 0

Track 05
Filename : /Users/camron/Desktop/I'm A Freak, Baby… (2016) [FLAC]/Disc 2/I'm A Freak, Baby… - Hellmet (1970) [FLAC]/05 Trust.flac

Track gain : -7.17 dB
Peak : 0.966064
CRC32 hash (test run) : FE723E89
CRC32 hash : FE723E89
CRC32 hash (skip zero) : 981958F9
AccurateRip v1 signature : ACFDC67F
AccurateRip v2 signature : A2C02310
->Track not present in AccurateRip database.
Statistics
Read error : 0
Jitter error (maybe fixed) : 0
Retry sector count : 0
Damaged sector count : 0

Track 06
Filename : /Users/camron/Desktop/I'm A Freak, Baby… (2016) [FLAC]/Disc 2/I'm A Freak, Baby… - Second Hand (1969) [FLAC]/06 Rhubarb!.flac

Track gain : -8.57 dB
Peak : 0.966064
CRC32 hash (test run) : 138F62DE
CRC32 hash : 138F62DE
CRC32 hash (skip zero) : AF7E65D9
AccurateRip v1 signature : 218A4B2E
AccurateRip v2 signature : 1AEADD3D
->Track not present in AccurateRip database.
Statistics
Read error : 0
Jitter error (maybe fixed) : 0
Retry sector count : 0
Damaged sector count : 0

Track 07
Filename : /Users/camron/Desktop/I'm A Freak, Baby… (2016) [FLAC]/Disc 2/I'm A Freak, Baby… - Little Free Rock (1969) [FLAC]/07 Dream.flac

Track gain : -8.17 dB
Peak : 0.873810
CRC32 hash (test run) : D3F30960
CRC32 hash : D3F30960
CRC32 hash (skip zero) : A52D20F4
AccurateRip v1 signature : DDBFA531
AccurateRip v2 signature : 4E8CC7BD
->Track not present in AccurateRip database.
Statistics
Read error : 0
Jitter error (maybe fixed) : 0
Retry sector count : 0
Damaged sector count : 0

Track 08
Filename : /Users/camron/Desktop/I'm A Freak, Baby… (2016) [FLAC]/Disc 2/I'm A Freak, Baby… - Iron Claw (1970) [FLAC]/08 Skullcrusher.flac

Track gain : -6.07 dB
Peak : 0.966064
CRC32 hash (test run) : 0FB293B4
CRC32 hash : 0FB293B4
CRC32 hash (skip zero) : 7D6809C3
AccurateRip v1 signature : 7F598136
AccurateRip v2 signature : CD90D0B7
->Track not present in AccurateRip database.
Statistics
Read error : 0
Jitter error (maybe fixed) : 0
Retry sector count : 0
Damaged sector count : 0

Track 09
Filename : /Users/camron/Desktop/I'm A Freak, Baby… (2016) [FLAC]/Disc 2/I'm A Freak, Baby… - Dark (1972) [FLAC]/09 Zero Time.flac

Track gain : -6.59 dB
Peak : 0.966064
CRC32 hash (test run) : 9BEC43A2
CRC32 hash : 9BEC43A2
CRC32 hash (skip zero) : C3617E7C
AccurateRip v1 signature : A6FB2F0A
AccurateRip v2 signature : 36469CEC
->Track not present in AccurateRip database.
Statistics
Read error : 0
Jitter error (maybe fixed) : 0
Retry sector count : 0
Damaged sector count : 0

Track 10
Filename : /Users/camron/Desktop/I'm A Freak, Baby… (2016) [FLAC]/Disc 2/I'm A Freak, Baby… - The Velvet Frogs (1968) [FLAC]/10 Jehovah.flac

Track gain : -8.09 dB
Peak : 0.966064
CRC32 hash (test run) : 13EE1259
CRC32 hash : 13EE1259
CRC32 hash (skip zero) : 6467E78A
AccurateRip v1 signature : C6AA3A8F
AccurateRip v2 signature : 08F7559F
->Track not present in AccurateRip database.
Statistics
Read error : 0
Jitter error (maybe fixed) : 0
Retry sector count : 0
Damaged sector count : 0

Track 11
Filename : /Users/camron/Desktop/I'm A Freak, Baby… (2016) [FLAC]/Disc 2/I'm A Freak, Baby… - The Move (1970) [FLAC]/11 Brontosaurus.flac

Track gain : -9.07 dB
Peak : 0.792145
CRC32 hash (test run) : 3BA34116
CRC32 hash : 3BA34116
CRC32 hash (skip zero) : 666FA0FB
AccurateRip v1 signature : DD8B125D
AccurateRip v2 signature : E5B65DC2
->Track not present in AccurateRip database.
Statistics
Read error : 0
Jitter error (maybe fixed) : 0
Retry sector count : 0
Damaged sector count : 0

Track 12
Filename : /Users/camron/Desktop/I'm A Freak, Baby… (2016) [FLAC]/Disc 2/I'm A Freak, Baby… - Stack Waddy (1971) [FLAC]/12 Bring It To Jerome.flac

Track gain : -6.24 dB
Peak : 0.966064
CRC32 hash (test run) : F2E1DA54
CRC32 hash : F2E1DA54
CRC32 hash (skip zero) : 0CE204C3
AccurateRip v1 signature : 4D9D1B46
AccurateRip v2 signature : A2154EA9
->Track not present in AccurateRip database.
Statistics
Read error : 0
Jitter error (maybe fixed) : 0
Retry sector count : 0
Damaged sector count : 0

Track 13
Filename : /Users/camron/Desktop/I'm A Freak, Baby… (2016) [FLAC]/Disc 2/I'm A Freak, Baby… - Samuel Prody (1971) [FLAC]/13 Mr Make Believe.flac

Track gain : -6.58 dB
Peak : 0.966064
CRC32 hash (test run) : AC443B80
CRC32 hash : AC443B80
CRC32 hash (skip zero) : 26E9EF02
AccurateRip v1 signature : BA70184B
AccurateRip v2 signature : B4140348
->Track not present in AccurateRip database.
Statistics
Read error : 0
Jitter error (maybe fixed) : 0
Retry sector count : 0
Damaged sector count : 0

Track 14
Filename : /Users/camron/Desktop/I'm A Freak, Baby… (2016) [FLAC]/Disc 2/I'm A Freak, Baby… - Bare Sole (1969) [FLAC]/14 Flash.flac

Track gain : -6.30 dB
Peak : 0.966064
CRC32 hash (test run) : 1A4905A7
CRC32 hash : 1A4905A7
CRC32 hash (skip zero) : 376E4343
AccurateRip v1 signature : 6EE3CAC8
AccurateRip v2 signature : B66B3610
->Track not present in AccurateRip database.
Statistics
Read error : 0
Jitter error (maybe fixed) : 0
Retry sector count : 0
Damaged sector count : 0

Track 15
Filename : /Users/camron/Desktop/I'm A Freak, Baby… (2016) [FLAC]/Disc 2/I'm A Freak, Baby… - The Phoenix (1969) [FLAC]/15 Street Walking Woman.flac

Track gain : -5.99 dB
Peak : 0.966034
CRC32 hash (test run) : AEE92EA4
CRC32 hash : AEE92EA4
CRC32 hash (skip zero) : 270E5D58
AccurateRip v1 signature : 6140934D
AccurateRip v2 signature : CA48057F
->Track not present in AccurateRip database.
Statistics
Read error : 0
Jitter error (maybe fixed) : 0
Retry sector count : 0
Damaged sector count : 0

Track 16
Filename : /Users/camron/Desktop/I'm A Freak, Baby… (2016) [FLAC]/Disc 2/I'm A Freak, Baby… - Skid Row (1971) [FLAC]/16 Go, I'm Never Gonna Let You.flac

Track gain : -6.16 dB
Peak : 0.966064
CRC32 hash (test run) : 672DB278
CRC32 hash : 672DB278
CRC32 hash (skip zero) : 4A1321F7
AccurateRip v1 signature : 33375192
AccurateRip v2 signature : 41450D49
->Track not present in AccurateRip database.
Statistics
Read error : 0
Jitter error (maybe fixed) : 0
Retry sector count : 0
Damaged sector count : 0

No errors occurred

End of status report

––-BEGIN XLD SIGNATURE––-
O8QjHhHEFD7IFheuQTV6WeaLBBB0VWEBzRvwj7wgl5zz8xkMBcbYkek8fq6yDyU3MyIexeFHxrrl7NI7G4tct9OEPMEWuvjDpkHGgjG
––-END XLD SIGNATURE––-

X Lossless Decoder version 20151214 (149.1)

XLD extraction logfile from 2016-08-12 17:03:50 -0400

Various Artists / I'm A Freak, Baby…

Used drive : HL-DT-ST DVDRW GS31N (revision TA17)
Media type : Pressed CD

Ripper mode : XLD Secure Ripper
Disable audio cache : OK for the drive with a cache less than 1375KiB
Make use of C2 pointers : NO
Read offset correction : 667
Max retry count : 100
Gap status : Analyzed, Appended (except HTOA)

TOC of the extracted CD
Track | Start | Length | Start sector | End sector
––––––––––––––––––––––––––––-
1 | 00:00:00 | 03:37:53 | 0 | 16327
2 | 03:37:53 | 05:28:08 | 16328 | 40935
3 | 09:05:61 | 04:49:65 | 40936 | 62675
4 | 13:55:51 | 07:56:43 | 62676 | 98418
5 | 21:52:19 | 02:51:53 | 98419 | 111296
6 | 24:43:72 | 02:56:44 | 111297 | 124540
7 | 27:40:41 | 02:31:01 | 124541 | 135866
8 | 30:11:42 | 03:45:73 | 135867 | 152814
9 | 33:57:40 | 02:54:21 | 152815 | 165885
10 | 36:51:61 | 06:56:74 | 165886 | 197159
11 | 43:48:60 | 05:00:36 | 197160 | 219695
12 | 48:49:21 | 04:36:14 | 219696 | 240409
13 | 53:25:35 | 07:11:38 | 240410 | 272772
14 | 60:36:73 | 03:04:32 | 272773 | 286604
15 | 63:41:30 | 04:00:50 | 286605 | 304654
16 | 67:42:05 | 07:15:56 | 304655 | 337335

AccurateRip Summary
Disc not found in AccurateRip DB.

All Tracks
Album gain : -7.73 dB
Peak : 0.966064
Statistics
Read error : 0
Jitter error (maybe fixed) : 0
Retry sector count : 0
Damaged sector count : 0

Track 01
Filename : /Users/camron/Desktop/I'm A Freak, Baby… (2016) [FLAC]/Disc 3/I'm A Freak, Baby… - The Gun (1968) [FLAC]/01 Race With The Devil.flac
Pre-gap length : 00:02:00

Track gain : -6.18 dB
Peak : 0.966034
CRC32 hash (test run) : F9E35052
CRC32 hash : F9E35052
CRC32 hash (skip zero) : 2510275F
AccurateRip v1 signature : 1CE10CA3
AccurateRip v2 signature : 773DC288
->Track not present in AccurateRip database.
Statistics
Read error : 0
Jitter error (maybe fixed) : 0
Retry sector count : 0
Damaged sector count : 0

Track 02
Filename : /Users/camron/Desktop/I'm A Freak, Baby… (2016) [FLAC]/Disc 3/I'm A Freak, Baby… - Blonde On Blonde (1970) [FLAC]/02 Heart Without A Home.flac
Pre-gap length : 00:01:00

Track gain : -6.95 dB
Peak : 0.966064
CRC32 hash (test run) : CB2CF305
CRC32 hash : CB2CF305
CRC32 hash (skip zero) : 5461906C
AccurateRip v1 signature : F741E789
AccurateRip v2 signature : 39948C59
->Track not present in AccurateRip database.
Statistics
Read error : 0
Jitter error (maybe fixed) : 0
Retry sector count : 0
Damaged sector count : 0

Track 03
Filename : /Users/camron/Desktop/I'm A Freak, Baby… (2016) [FLAC]/Disc 3/I'm A Freak, Baby… - Third World War (1971) [FLAC]/03 Ascension Day.flac
Pre-gap length : 00:01:00

Track gain : -5.76 dB
Peak : 0.966034
CRC32 hash (test run) : CAFBF6BD
CRC32 hash : CAFBF6BD
CRC32 hash (skip zero) : 8FBFF6AD
AccurateRip v1 signature : CCCFD7B8
AccurateRip v2 signature : 3FD05E8E
->Track not present in AccurateRip database.
Statistics
Read error : 0
Jitter error (maybe fixed) : 0
Retry sector count : 0
Damaged sector count : 0

Track 04
Filename : /Users/camron/Desktop/I'm A Freak, Baby… (2016) [FLAC]/Disc 3/I'm A Freak, Baby… - Egor (1971) [FLAC]/04 Street.flac
Pre-gap length : 00:01:00

Track gain : -7.35 dB
Peak : 0.966064
CRC32 hash (test run) : 688687C7
CRC32 hash : 688687C7
CRC32 hash (skip zero) : FA32E3C2
AccurateRip v1 signature : EAA8B486
AccurateRip v2 signature : AC75E623
->Track not present in AccurateRip database.
Statistics
Read error : 0
Jitter error (maybe fixed) : 0
Retry sector count : 0
Damaged sector count : 0

Track 05
Filename : /Users/camron/Desktop/I'm A Freak, Baby… (2016) [FLAC]/Disc 3/I'm A Freak, Baby… - Sam Gopal (1969) [FLAC]/05 Escalator.flac
Pre-gap length : 00:01:00

Track gain : -9.20 dB
Peak : 0.966064
CRC32 hash (test run) : 6878D260
CRC32 hash : 6878D260
CRC32 hash (skip zero) : CC56E4EF
AccurateRip v1 signature : 35E95B9A
AccurateRip v2 signature : 2977E6B4
->Track not present in AccurateRip database.
Statistics
Read error : 0
Jitter error (maybe fixed) : 0
Retry sector count : 0
Damaged sector count : 0

Track 06
Filename : /Users/camron/Desktop/I'm A Freak, Baby… (2016) [FLAC]/Disc 3/I'm A Freak, Baby… - Uriah Heep (1970) [FLAC]/06 Gypsy.flac
Pre-gap length : 00:01:00

Track gain : -8.69 dB
Peak : 0.966064
CRC32 hash (test run) : 6FCA3873
CRC32 hash : 6FCA3873
CRC32 hash (skip zero) : E72D5B30
AccurateRip v1 signature : CEE273EF
AccurateRip v2 signature : 5483B59D
->Track not present in AccurateRip database.
Statistics
Read error : 0
Jitter error (maybe fixed) : 0
Retry sector count : 0
Damaged sector count : 0

Track 07
Filename : /Users/camron/Desktop/I'm A Freak, Baby… (2016) [FLAC]/Disc 3/I'm A Freak, Baby… - The Mickey Finn (1967) [FLAC]/07 Garden Of My Mind.flac
Pre-gap length : 00:01:00

Track gain : -8.41 dB
Peak : 0.966034
CRC32 hash (test run) : 4ED90D05
CRC32 hash : 4ED90D05
CRC32 hash (skip zero) : 9071FD73
AccurateRip v1 signature : 83C6A241
AccurateRip v2 signature : C1F4E7C2
->Track not present in AccurateRip database.
Statistics
Read error : 0
Jitter error (maybe fixed) : 0
Retry sector count : 0
Damaged sector count : 0

Track 08
Filename : /Users/camron/Desktop/I'm A Freak, Baby… (2016) [FLAC]/Disc 3/I'm A Freak, Baby… - The Yardbirds (1968) [FLAC]/08 Think About It.flac
Pre-gap length : 00:01:00

Track gain : -6.31 dB
Peak : 0.966064
CRC32 hash (test run) : 5F898277
CRC32 hash : 5F898277
CRC32 hash (skip zero) : 193E2A2A
AccurateRip v1 signature : 39F56990
AccurateRip v2 signature : 47FD404D
->Track not present in AccurateRip database.
Statistics
Read error : 0
Jitter error (maybe fixed) : 0
Retry sector count : 0
Damaged sector count : 0

Track 09
Filename : /Users/camron/Desktop/I'm A Freak, Baby… (2016) [FLAC]/Disc 3/I'm A Freak, Baby… - Morning After (1971) [FLAC]/09 Trying To Find My Way Back Home.flac
Pre-gap length : 00:01:00

Track gain : -9.22 dB
Peak : 0.966064
CRC32 hash (test run) : 561D2AFF
CRC32 hash : 561D2AFF
CRC32 hash (skip zero) : 06ED0E07
AccurateRip v1 signature : 9771AFF3
AccurateRip v2 signature : 0837687D
->Track not present in AccurateRip database.
Statistics
Read error : 0
Jitter error (maybe fixed) : 0
Retry sector count : 0
Damaged sector count : 0

Track 10
Filename : /Users/camron/Desktop/I'm A Freak, Baby… (2016) [FLAC]/Disc 3/I'm A Freak, Baby… - Velvett Fogg (1969) [FLAC]/10 Yellow Cave Woman.flac
Pre-gap length : 00:01:00

Track gain : -7.32 dB
Peak : 0.966064
CRC32 hash (test run) : 968C2A8A
CRC32 hash : 968C2A8A
CRC32 hash (skip zero) : EB2DFDB5
AccurateRip v1 signature : E9620DE7
AccurateRip v2 signature : 3B38F813
->Track not present in AccurateRip database.
Statistics
Read error : 0
Jitter error (maybe fixed) : 0
Retry sector count : 0
Damaged sector count : 0

Track 11
Filename : /Users/camron/Desktop/I'm A Freak, Baby… (2016) [FLAC]/Disc 3/I'm A Freak, Baby… - Andromeda (1969) [FLAC]/11 Too Old.flac
Pre-gap length : 00:01:00

Track gain : -8.22 dB
Peak : 0.966064
CRC32 hash (test run) : DB2BD92A
CRC32 hash : DB2BD92A
CRC32 hash (skip zero) : E699797B
AccurateRip v1 signature : DFB89276
AccurateRip v2 signature : 38EF722F
->Track not present in AccurateRip database.
Statistics
Read error : 0
Jitter error (maybe fixed) : 0
Retry sector count : 0
Damaged sector count : 0

Track 12
Filename : /Users/camron/Desktop/I'm A Freak, Baby… (2016) [FLAC]/Disc 3/I'm A Freak, Baby… - Fleetwood Mac (1970) [FLAC]/12 The Green Manalishi (With The Two Prong Crown).flac
Pre-gap length : 00:01:00

Track gain : -7.41 dB
Peak : 0.966064
CRC32 hash (test run) : 8A3D08CD
CRC32 hash : 8A3D08CD
CRC32 hash (skip zero) : 384C99CF
AccurateRip v1 signature : BF402C5F
AccurateRip v2 signature : FA193252
->Track not present in AccurateRip database.
Statistics
Read error : 0
Jitter error (maybe fixed) : 0
Retry sector count : 0
Damaged sector count : 0

Track 13
Filename : /Users/camron/Desktop/I'm A Freak, Baby… (2016) [FLAC]/Disc 3/I'm A Freak, Baby… - Sweet Slag (1971) [FLAC]/13 Twisted Trip Woman.flac
Pre-gap length : 00:01:00

Track gain : -6.44 dB
Peak : 0.966064
CRC32 hash (test run) : 44563EB1
CRC32 hash : 44563EB1
CRC32 hash (skip zero) : B582E2EB
AccurateRip v1 signature : FAC2B549
AccurateRip v2 signature : 0E62CC4B
->Track not present in AccurateRip database.
Statistics
Read error : 0
Jitter error (maybe fixed) : 0
Retry sector count : 0
Damaged sector count : 0

Track 14
Filename : /Users/camron/Desktop/I'm A Freak, Baby… (2016) [FLAC]/Disc 3/I'm A Freak, Baby… - The Kult (1969) [FLAC]/14 Occult.flac
Pre-gap length : 00:01:00

Track gain : -6.76 dB
Peak : 0.966034
CRC32 hash (test run) : 230C1001
CRC32 hash : 230C1001
CRC32 hash (skip zero) : 1A896C53
AccurateRip v1 signature : 955785B2
AccurateRip v2 signature : 69A560F4
->Track not present in AccurateRip database.
Statistics
Read error : 0
Jitter error (maybe fixed) : 0
Retry sector count : 0
Damaged sector count : 0

Track 15
Filename : /Users/camron/Desktop/I'm A Freak, Baby… (2016) [FLAC]/Disc 3/I'm A Freak, Baby… - The Taste (1969) [FLAC]/15 Born On The Wrong Side Of Time.flac
Pre-gap length : 00:01:00

Track gain : -8.39 dB
Peak : 0.966034
CRC32 hash (test run) : A7EE5B6E
CRC32 hash : A7EE5B6E
CRC32 hash (skip zero) : 3D89D83A
AccurateRip v1 signature : C0B54960
AccurateRip v2 signature : 41242329
->Track not present in AccurateRip database.
Statistics
Read error : 0
Jitter error (maybe fixed) : 0
Retry sector count : 0
Damaged sector count : 0

Track 16
Filename : /Users/camron/Desktop/I'm A Freak, Baby… (2016) [FLAC]/Disc 3/I'm A Freak, Baby… - Fusion Farm (1971) [FLAC]/16 Hollis Brown.flac
Pre-gap length : 00:01:00

Track gain : -6.66 dB
Peak : 0.966064
CRC32 hash (test run) : 2167DE64
CRC32 hash : 2167DE64
CRC32 hash (skip zero) : BDDFF5C7
AccurateRip v1 signature : 37A93F52
AccurateRip v2 signature : CA166868
->Track not present in AccurateRip database.
Statistics
Read error : 0
Jitter error (maybe fixed) : 0
Retry sector count : 0
Damaged sector count : 0

No errors occurred

End of status report

––-BEGIN XLD SIGNATURE––-
gwoa9JH.9Xyfuqrg5OM4UKcNnua1oUhuRwuDjN4EfAEFZuqA1aUNdxaFZDdKXmk.jPt.7OfeKOi0tgUpSbacCGvhDIJarjNsdeDOPqK
––-END XLD SIGNATURE––-

Thanks to the Original ripper eripley !