Subcategories

VA - It's Beginning To Sound A Lot Like Christmas (2010)

Posted By: delpotro
VA - It's Beginning To Sound A Lot Like Christmas (2010)

VA - It's Beginning To Sound A Lot Like Christmas (2010)
EAC Rip | FLAC (tracks+log+.cue) | 02:17:05 | 524 Mb
Honky-tonk, Pop, Rock'n'Roll, Xmas | Label: Chrome Dreams Records

Of all the factors making the more cynical amongst us dread the oncoming of another festive season, the preponderance of the same dozen records spun endlessly across the airwaves and in department stores for months prior to the big day, is one of the most potent. But with a compilation as refreshing, thrilling and eclectic as this alternative yuletide collection now available, with its delightful tunes actually complementing the event in question, the time has come to welcome in the season of goodwill while enjoying the likes of The Reindeer Boogie, North Pole Rock, Mambo Santa Mambo or one of 53 other Christmas Crackers as presented on this 2 disc set.
Tracklist:
1-1 Mary Martin - Making Believe It's Christmas Eve 2:50
1-2 Louis Armstrong - Cool Yule 2:57
1-3 Lawrence Welk - Let It Snow! Let It Snow! Let It Snow! 2:26
1-4 Lloyd Glenn - Sleighride 2:40
1-5 Bob Wills & His Texas Playboys - Santa's On His Way 2:34
1-6 The Moods - Rockin' Santa Claus 2:06
1-7 The Uniques - Rock'n Rudolph 1:45
1-8 Dolly Nunn - Nuttin' For Christmas 2:21
1-9 Augie Rios - Ol' Fatso 2:17
1-10 Little Bobby Rey & His Band - Rockin' "J" Bells 2:18
1-11 Santo & Johnny - Twistin' Bells 2:21
1-12 Buchanan & Goodman - Santa And The Satellite Part 1 1:40
1-13 Buchanan & Goodman - Santa And The Satellite Part 2 1:24
1-14 Al Dexter And His Troopers Merry Christmas To All 2:22
1-15 Three Aces & A Joker - Sleigh Bell Rock 1:53
1-16 Cathy Sharpe - North Pole Rock 2:11
1-17 The Moonglows - Hey Santa Claus 2:22
1-18 Sheb Wooley - Santa Claus Meets The Purple People Eater 2:18
1-19 Johnny Bond And His Red River Valley Boys - Jingle Bells Boogie 2:52
1-20 The Youngsters - Christmas In Jail 2:06
1-21 Spike Jones And His City Slickers - Santa Brought Me Choo Choo Trains (But Daddy's Having Fun) 2:50
1-22 The Davis Sisters - Christmas Boogie 2:02
1-23 The Cadillacs - Rudolph The Red Nosed Reindeer 2:20
1-24 Hank Snow - The Reindeer Boogie 2:21
1-25 Jackson Trio - Love For Christmas 2:55
1-26 Bill Doggett Santa Claus Is Coming To Town 1:49
1-27 Pee Wee King - Rootin' Tootin' Santa Claus 2:13
1-28 Big Bud Rock - Around The Christmas Tree 2:30

2-1 Joe Poovey - Santa's Helper 1:59
2-2 The Keynotes With Primo Scala And His Banjo And Accordion Band - The Mistletoe Kiss 2:58
2-3 Bobby Helms - Jingle Bell Rock 2:12
2-4 Johnny Horton - They Shined Up Rudolph's Nose 2:12
2-5 Marvin & Johnny - Christmas Time 2:16
2-6 Nino & The Ebb Tides - The Real Meaning Of Christmas 2:51
2-7 The Marquees - Santa Done Got Hip 1:49
2-8 Stan Freberg - Christmas Dragnet 6:39
2-9 The Prairie Ramblers - Cowboy Santa Claus 2:12
2-10 The Hepsters - Rockin' & Rollin' With Santa Claus 2:02
2-11 Marguerite Trina - The Rocking Tree 2:02
2-12 Homer And Jethro - Santy's Movin' On 2:00
2-13 Big Joe Turner - Christmas Date Boogie 2:34
2-14 The Falcons - Can This Be Christmas 2:56
2-15 Cliff Bruner And His Texas Wanderers - Snow Flakes 2:36
2-16 Babs Gonzales - Be Bop Santa Claus 3:18
2-17 Ruth Welcome - Winter Wonderland 2:19
2-18 The Sportsmen - Reindeer Rock 2:08
2-19 The Three Suns - Ding Dong Dandy Christmas 2:54
2-20 The Enchanters - Mambo Santa Mambo 2:42
2-21 The Sabres - A Cool, Cool Christmas 2:20
2-22 Bill Boyd And His Cowboy Ramblers - Frost Mornin' 2:41
2-23 Lu Ann Simms - I Dreamt That I Was Santa Claus 2:47
2-24 The Three Stooges - I Want A Hippopotamus For Christmas 2:25
2-25 Bill Lacey & His Group - Cowboy Santa Claus 2:43
2-26 Terry Butler - C-H-R-I-S-T-M-A-S 1:48
2-27 The Cameos - New Years Eve 2:11
2-28 Jo Ann Campbell - Happy New Year Baby 2:40

Exact Audio Copy V1.0 beta 3 from 29. August 2011

EAC extraction logfile from 30. January 2015, 21:31

Various / It's Beginning To Sound A Lot Like Christmas (Disc 1)

Used drive : HL-DT-STDVD+-RW GH30N Adapter: 5 ID: 0

Read mode : Secure
Utilize accurate stream : Yes
Defeat audio cache : Yes
Make use of C2 pointers : No

Read offset correction : 102
Overread into Lead-In and Lead-Out : Yes
Fill up missing offset samples with silence : Yes
Delete leading and trailing silent blocks : No
Null samples used in CRC calculations : Yes
Used interface : Native Win32 interface for Win NT & 2000
Gap handling : Appended to previous track

Used output format : User Defined Encoder
Selected bitrate : 768 kBit/s
Quality : High
Add ID3 tag : No
Command line compressor : C:\Program Files (x86)\Exact Audio Copy\FLAC\FLAC.EXE
Additional command line options : -8 -V -T "ARTIST=%artist%" -T "TITLE=%title%" -T "ALBUM=%albumtitle%" -T "DATE=%year%" -T "TRACKNUMBER=%tracknr%" -T "GENRE=%genre%" -T "COMMENT=%comment%" -T "BAND=%albuminterpret%" -T "ALBUMARTIST=%albuminterpret%" -T "COMPOSER=%composer%" %haslyrics%–tag-from-file=LYRICS="%lyricsfile%"%haslyrics% -T "DISCNUMBER=%cdnumber%" -T "TOTALDISCS=%totalcds%" -T "TOTALTRACKS=%numtracks%" %hascover%–picture="%coverfile%"%hascover% %source% -o %dest%


TOC of the extracted CD

Track | Start | Length | Start sector | End sector
––––––––––––––––––––––––––––-
1 | 0:00.00 | 2:49.74 | 0 | 12748
2 | 2:49.74 | 2:56.59 | 12749 | 26007
3 | 5:46.58 | 2:26.32 | 26008 | 36989
4 | 8:13.15 | 2:39.46 | 36990 | 48960
5 | 10:52.61 | 2:33.53 | 48961 | 60488
6 | 13:26.39 | 2:05.39 | 60489 | 69902
7 | 15:32.03 | 1:45.00 | 69903 | 77777
8 | 17:17.03 | 2:21.01 | 77778 | 88353
9 | 19:38.04 | 2:16.41 | 88354 | 98594
10 | 21:54.45 | 2:18.09 | 98595 | 108953
11 | 24:12.54 | 2:21.17 | 108954 | 119545
12 | 26:33.71 | 1:39.60 | 119546 | 127030
13 | 28:13.56 | 1:23.55 | 127031 | 133310
14 | 29:37.36 | 2:21.54 | 133311 | 143939
15 | 31:59.15 | 1:53.18 | 143940 | 152432
16 | 33:52.33 | 2:10.68 | 152433 | 162250
17 | 36:03.26 | 2:21.72 | 162251 | 172897
18 | 38:25.23 | 2:17.52 | 172898 | 183224
19 | 40:43.00 | 2:52.18 | 183225 | 196142
20 | 43:35.18 | 2:05.60 | 196143 | 205577
21 | 45:41.03 | 2:50.36 | 205578 | 218363
22 | 48:31.39 | 2:01.63 | 218364 | 227501
23 | 50:33.27 | 2:19.41 | 227502 | 237967
24 | 52:52.68 | 2:21.25 | 237968 | 248567
25 | 55:14.18 | 2:54.65 | 248568 | 261682
26 | 58:09.08 | 1:48.55 | 261683 | 269837
27 | 59:57.63 | 2:12.45 | 269838 | 279782
28 | 62:10.33 | 2:30.34 | 279783 | 291066


Track 1

Filename C:\EACrips\01 - Mary Martin - Making Believe It's Christmas Eve.wav

Pre-gap length 0:00:02.00

Peak level 94.2 %
Extraction speed 1.2 X
Track quality 99.9 %
Test CRC BE8B9FF1
Copy CRC BE8B9FF1
Accurately ripped (confidence 5) [644F0233] (AR v2)
Copy OK

Track 2

Filename C:\EACrips\02 - Louis Armstrong - Cool Yule.wav

Pre-gap length 0:00:02.00

Peak level 99.8 %
Extraction speed 1.5 X
Track quality 100.0 %
Test CRC CF5CF3F9
Copy CRC CF5CF3F9
Accurately ripped (confidence 6) [48724DD9] (AR v2)
Copy OK

Track 3

Filename C:\EACrips\03 - Lawrence Welk - Let It Snow! Let It Snow! Let It Snow!.wav

Pre-gap length 0:00:02.00

Peak level 88.9 %
Extraction speed 1.3 X
Track quality 99.9 %
Test CRC C48884FA
Copy CRC C48884FA
Accurately ripped (confidence 5) [E6E5DC46] (AR v2)
Copy OK

Track 4

Filename C:\EACrips\04 - Lloyd Glenn - Sleighride.wav

Pre-gap length 0:00:02.00

Peak level 94.1 %
Extraction speed 1.7 X
Track quality 100.0 %
Test CRC 14D88EE3
Copy CRC 14D88EE3
Accurately ripped (confidence 6) [29C6328C] (AR v2)
Copy OK

Track 5

Filename C:\EACrips\05 - Bob Wills & His Texas Playboys - Santa's On His Way.wav

Pre-gap length 0:00:02.00

Peak level 81.9 %
Extraction speed 1.5 X
Track quality 99.9 %
Test CRC 77F546CF
Copy CRC 77F546CF
Accurately ripped (confidence 5) [79518042] (AR v2)
Copy OK

Track 6

Filename C:\EACrips\06 - The Moods - Rockin' Santa Claus.wav

Pre-gap length 0:00:02.00

Peak level 91.6 %
Extraction speed 1.5 X
Track quality 99.9 %
Test CRC 0DF69A40
Copy CRC 0DF69A40
Accurately ripped (confidence 5) [7B026236] (AR v2)
Copy OK

Track 7

Filename C:\EACrips\07 - The Uniques - Rock 'N' Rudolph.wav

Pre-gap length 0:00:02.00

Peak level 88.9 %
Extraction speed 1.8 X
Track quality 100.0 %
Test CRC F751A31A
Copy CRC F751A31A
Accurately ripped (confidence 5) [6E6DA101] (AR v2)
Copy OK

Track 8

Filename C:\EACrips\08 - Dolly Nunn - Nuttin' For Christmas.wav

Pre-gap length 0:00:02.00

Peak level 100.0 %
Extraction speed 2.0 X
Track quality 100.0 %
Test CRC EF8AB7E4
Copy CRC EF8AB7E4
Accurately ripped (confidence 5) [FE181218] (AR v2)
Copy OK

Track 9

Filename C:\EACrips\09 - Augie Rios - Ol' Fatso.wav

Pre-gap length 0:00:02.00

Peak level 95.8 %
Extraction speed 2.1 X
Track quality 100.0 %
Test CRC 4C8FEC6E
Copy CRC 4C8FEC6E
Accurately ripped (confidence 5) [EBEEBE30] (AR v2)
Copy OK

Track 10

Filename C:\EACrips\10 - Little Bobby Rey & His Band - Rockin' ''J'' Bells.wav

Pre-gap length 0:00:02.00

Peak level 95.3 %
Extraction speed 1.7 X
Track quality 99.9 %
Test CRC F895915A
Copy CRC F895915A
Accurately ripped (confidence 5) [A299EB39] (AR v2)
Copy OK

Track 11

Filename C:\EACrips\11 - Santo & Johnny - Twistin' Bells.wav

Pre-gap length 0:00:02.00

Peak level 93.0 %
Extraction speed 2.2 X
Track quality 100.0 %
Test CRC 89B344A2
Copy CRC 89B344A2
Accurately ripped (confidence 5) [3C9E1701] (AR v2)
Copy OK

Track 12

Filename C:\EACrips\12 - Buchanan & Goodman - Santa And The Satellite - Part 1.wav

Pre-gap length 0:00:02.00

Peak level 99.9 %
Extraction speed 2.1 X
Track quality 100.0 %
Test CRC 6F841E43
Copy CRC 6F841E43
Accurately ripped (confidence 5) [923625D4] (AR v2)
Copy OK

Track 13

Filename C:\EACrips\13 - Buchanan & Goodman - Santa And The Satellite - Part 2.wav

Pre-gap length 0:00:02.00

Peak level 100.0 %
Extraction speed 2.0 X
Track quality 100.0 %
Test CRC E81EF67A
Copy CRC E81EF67A
Accurately ripped (confidence 5) [00310624] (AR v2)
Copy OK

Track 14

Filename C:\EACrips\14 - Al Dexter & His Troopers - Merry Christmas To All.wav

Pre-gap length 0:00:02.00

Peak level 100.0 %
Extraction speed 1.9 X
Track quality 99.9 %
Test CRC 7C9A0A29
Copy CRC 7C9A0A29
Accurately ripped (confidence 5) [DC4B0CC7] (AR v2)
Copy OK

Track 15

Filename C:\EACrips\15 - Three Aces & A Joker - Sleigh Bell Rock.wav

Pre-gap length 0:00:02.00

Peak level 89.2 %
Extraction speed 1.8 X
Track quality 99.9 %
Test CRC 79EDA455
Copy CRC 79EDA455
Accurately ripped (confidence 5) [C90D8911] (AR v2)
Copy OK

Track 16

Filename C:\EACrips\16 - Cathy Sharpe - North Pole Rock.wav

Pre-gap length 0:00:02.00

Peak level 100.0 %
Extraction speed 2.4 X
Track quality 100.0 %
Test CRC 88FCF12B
Copy CRC 88FCF12B
Accurately ripped (confidence 5) [3C8DC3C8] (AR v2)
Copy OK

Track 17

Filename C:\EACrips\17 - The Moonglows - Hey Santa Claus.wav

Pre-gap length 0:00:02.00

Peak level 96.7 %
Extraction speed 2.4 X
Track quality 100.0 %
Test CRC 4B7D4FFE
Copy CRC 4B7D4FFE
Accurately ripped (confidence 5) [DB240979] (AR v2)
Copy OK

Track 18

Filename C:\EACrips\18 - Sheb Wooley - Santa Claus Meets The Purple People Eater.wav

Pre-gap length 0:00:02.00

Peak level 96.8 %
Extraction speed 2.5 X
Track quality 100.0 %
Test CRC 65EEC5CB
Copy CRC 65EEC5CB
Accurately ripped (confidence 6) [56D9D0A0] (AR v2)
Copy OK

Track 19

Filename C:\EACrips\19 - Johnny Bond & His Red River Valley Boys - Jingle Bells Boogie.wav

Pre-gap length 0:00:02.00

Peak level 100.0 %
Extraction speed 2.6 X
Track quality 100.0 %
Test CRC 361F742F
Copy CRC 361F742F
Accurately ripped (confidence 5) [73D91E91] (AR v2)
Copy OK

Track 20

Filename C:\EACrips\20 - The Youngsters - Christmas In Jail.wav

Pre-gap length 0:00:02.00

Peak level 86.3 %
Extraction speed 2.0 X
Track quality 99.9 %
Test CRC 0837307D
Copy CRC 0837307D
Accurately ripped (confidence 6) [1E656FF7] (AR v2)
Copy OK

Track 21

Filename C:\EACrips\21 - Spike Jones & His City Slickers - Santa Brought Me Choo Choo Trains (But Daddy's Having Fun).wav

Pre-gap length 0:00:02.00

Peak level 96.7 %
Extraction speed 2.8 X
Track quality 100.0 %
Test CRC 5BB36D11
Copy CRC 5BB36D11
Accurately ripped (confidence 5) [7532E59E] (AR v2)
Copy OK

Track 22

Filename C:\EACrips\22 - The Davis Sisters - Christmas Boogie.wav

Pre-gap length 0:00:02.00

Peak level 95.5 %
Extraction speed 2.1 X
Track quality 99.9 %
Test CRC 0C3025D6
Copy CRC 0C3025D6
Accurately ripped (confidence 5) [FD6567A8] (AR v2)
Copy OK

Track 23

Filename C:\EACrips\23 - The Cadillacs - Rudolph The Red Nosed Reindeer.wav

Peak level 99.5 %
Extraction speed 2.8 X
Track quality 100.0 %
Test CRC 9C707ADA
Copy CRC 9C707ADA
Accurately ripped (confidence 5) [D1B91C55] (AR v2)
Copy OK

Track 24

Filename C:\EACrips\24 - Hank Snow - The Reindeer Boogie.wav

Pre-gap length 0:00:02.00

Peak level 95.5 %
Extraction speed 2.8 X
Track quality 100.0 %
Test CRC 5C46BB73
Copy CRC 5C46BB73
Accurately ripped (confidence 5) [1F31AA5F] (AR v2)
Copy OK

Track 25

Filename C:\EACrips\25 - Jackson Trio - Love For Christmas.wav

Pre-gap length 0:00:02.00

Peak level 100.0 %
Extraction speed 3.0 X
Track quality 100.0 %
Test CRC 4E59945C
Copy CRC 4E59945C
Accurately ripped (confidence 5) [92B88B91] (AR v2)
Copy OK

Track 26

Filename C:\EACrips\26 - Bill Doggett - Santa Claus Is Coming To Town.wav

Pre-gap length 0:00:02.00

Peak level 100.0 %
Extraction speed 2.7 X
Track quality 100.0 %
Test CRC 168F2CE4
Copy CRC 168F2CE4
Accurately ripped (confidence 5) [19AD0A2E] (AR v2)
Copy OK

Track 27

Filename C:\EACrips\27 - Pee Wee King - Rootin' Tootin' Santa Claus.wav

Pre-gap length 0:00:02.00

Peak level 100.0 %
Extraction speed 2.9 X
Track quality 100.0 %
Test CRC 7A7F502E
Copy CRC 7A7F502E
Accurately ripped (confidence 6) [5E286C95] (AR v2)
Copy OK

Track 28

Filename C:\EACrips\28 - Big Bud - Rock Around The Christmas Tree.wav

Pre-gap length 0:00:02.00

Peak level 100.0 %
Extraction speed 3.7 X
Track quality 100.0 %
Test CRC D1ECCD43
Copy CRC D1ECCD43
Accurately ripped (confidence 5) [D1F89C58] (AR v2)
Copy OK


All tracks accurately ripped

No errors occurred

End of status report

==== Log checksum 8FD1230F2ABFA52619D9657EE616B43196FF2F64D4ED62558C070CEAF410B2EB ====

Exact Audio Copy V1.0 beta 3 from 29. August 2011

EAC extraction logfile from 30. January 2015, 20:01

Various / It's Beginning To Sound A Lot Like Christmas (Disc 2)

Used drive : HL-DT-STDVD+-RW GH30N Adapter: 5 ID: 0

Read mode : Secure
Utilize accurate stream : Yes
Defeat audio cache : Yes
Make use of C2 pointers : No

Read offset correction : 102
Overread into Lead-In and Lead-Out : Yes
Fill up missing offset samples with silence : Yes
Delete leading and trailing silent blocks : No
Null samples used in CRC calculations : Yes
Used interface : Native Win32 interface for Win NT & 2000
Gap handling : Appended to previous track

Used output format : User Defined Encoder
Selected bitrate : 768 kBit/s
Quality : High
Add ID3 tag : No
Command line compressor : C:\Program Files (x86)\Exact Audio Copy\FLAC\FLAC.EXE
Additional command line options : -8 -V -T "ARTIST=%artist%" -T "TITLE=%title%" -T "ALBUM=%albumtitle%" -T "DATE=%year%" -T "TRACKNUMBER=%tracknr%" -T "GENRE=%genre%" -T "COMMENT=%comment%" -T "BAND=%albuminterpret%" -T "ALBUMARTIST=%albuminterpret%" -T "COMPOSER=%composer%" %haslyrics%–tag-from-file=LYRICS="%lyricsfile%"%haslyrics% -T "DISCNUMBER=%cdnumber%" -T "TOTALDISCS=%totalcds%" -T "TOTALTRACKS=%numtracks%" %hascover%–picture="%coverfile%"%hascover% %source% -o %dest%


TOC of the extracted CD

Track | Start | Length | Start sector | End sector
––––––––––––––––––––––––––––-
1 | 0:00.00 | 1:59.02 | 0 | 8926
2 | 1:59.02 | 2:58.04 | 8927 | 22280
3 | 4:57.06 | 2:12.02 | 22281 | 32182
4 | 7:09.08 | 2:12.16 | 32183 | 42098
5 | 9:21.24 | 2:16.36 | 42099 | 52334
6 | 11:37.60 | 2:51.37 | 52335 | 65196
7 | 14:29.22 | 1:49.36 | 65197 | 73407
8 | 16:18.58 | 6:38.46 | 73408 | 103303
9 | 22:57.29 | 2:11.70 | 103304 | 113198
10 | 25:09.24 | 2:11.48 | 113199 | 123071
11 | 27:20.72 | 2:02.13 | 123072 | 132234
12 | 29:23.10 | 1:59.69 | 132235 | 141228
13 | 31:23.04 | 2:34.35 | 141229 | 152813
14 | 33:57.39 | 2:56.11 | 152814 | 166024
15 | 36:53.50 | 2:35.54 | 166025 | 177703
16 | 39:29.29 | 3:18.06 | 177704 | 192559
17 | 42:47.35 | 2:18.46 | 192560 | 202955
18 | 45:06.06 | 2:08.23 | 202956 | 212578
19 | 47:14.29 | 2:53.42 | 212579 | 225595
20 | 50:07.71 | 2:41.49 | 225596 | 237719
21 | 52:49.45 | 2:20.29 | 237720 | 248248
22 | 55:09.74 | 2:40.38 | 248249 | 260286
23 | 57:50.37 | 2:47.31 | 260287 | 272842
24 | 60:37.68 | 2:25.18 | 272843 | 283735
25 | 63:03.11 | 2:43.21 | 283736 | 295981
26 | 65:46.32 | 1:47.38 | 295982 | 304044
27 | 67:33.70 | 2:10.44 | 304045 | 313838
28 | 69:44.39 | 2:39.73 | 313839 | 325836


Track 1

Filename C:\EACrips\01 - Joe Poovey - Santa's Helper.wav

Pre-gap length 0:00:02.00

Peak level 91.5 %
Extraction speed 1.3 X
Track quality 100.0 %
Test CRC A4EC55BA
Copy CRC A4EC55BA
Accurately ripped (confidence 5) [7D023173] (AR v2)
Copy OK

Track 2

Filename C:\EACrips\02 - The Keynotes - The Mistletoe Kiss.wav

Pre-gap length 0:00:02.00

Peak level 94.7 %
Extraction speed 1.6 X
Track quality 100.0 %
Test CRC 21148146
Copy CRC 21148146
Accurately ripped (confidence 5) [7AD4B9BE] (AR v2)
Copy OK

Track 3

Filename C:\EACrips\03 - Bobby Helms - Jingle Bell Rock.wav

Pre-gap length 0:00:02.00

Peak level 80.3 %
Extraction speed 1.6 X
Track quality 100.0 %
Test CRC 501389C6
Copy CRC 501389C6
Accurately ripped (confidence 5) [130653FA] (AR v2)
Copy OK

Track 4

Filename C:\EACrips\04 - Johnny Horton - They Shined Up Rudolph's Nose.wav

Pre-gap length 0:00:02.00

Peak level 93.4 %
Extraction speed 1.7 X
Track quality 100.0 %
Test CRC DFE7586F
Copy CRC DFE7586F
Accurately ripped (confidence 5) [F6686CA6] (AR v2)
Copy OK

Track 5

Filename C:\EACrips\05 - Marvin & Johnny - Christmas Time.wav

Pre-gap length 0:00:02.00

Peak level 100.0 %
Extraction speed 1.7 X
Track quality 100.0 %
Test CRC 54F25596
Copy CRC 54F25596
Accurately ripped (confidence 6) [C20FA6D5] (AR v2)
Copy OK

Track 6

Filename C:\EACrips\06 - Nino & The Ebb Tides - The Real Meaning Of Christmas.wav

Pre-gap length 0:00:02.00

Peak level 82.3 %
Extraction speed 2.0 X
Track quality 100.0 %
Test CRC D9AD73FC
Copy CRC D9AD73FC
Accurately ripped (confidence 5) [A3C8B1E1] (AR v2)
Copy OK

Track 7

Filename C:\EACrips\07 - The Marquees - Santa Done Gone Hip.wav

Pre-gap length 0:00:02.00

Peak level 100.0 %
Extraction speed 1.8 X
Track quality 100.0 %
Test CRC 875AC187
Copy CRC 875AC187
Accurately ripped (confidence 5) [A3443206] (AR v2)
Copy OK

Track 8

Filename C:\EACrips\08 - Stan Freberg - Christmas Dragnet.wav

Pre-gap length 0:00:02.00

Peak level 92.8 %
Extraction speed 2.4 X
Track quality 100.0 %
Test CRC AE81B79B
Copy CRC AE81B79B
Accurately ripped (confidence 5) [14A723BC] (AR v2)
Copy OK

Track 9

Filename C:\EACrips\09 - The Prairie Ramblers - Cowboy Santa Claus.wav

Pre-gap length 0:00:02.00

Peak level 100.0 %
Extraction speed 2.2 X
Track quality 100.0 %
Test CRC 7655C9B6
Copy CRC 7655C9B6
Accurately ripped (confidence 6) [24408172] (AR v2)
Copy OK

Track 10

Filename C:\EACrips\10 - The Hepsters - Rockin' N' Rollin' With Santa Claus.wav

Pre-gap length 0:00:02.00

Peak level 100.0 %
Extraction speed 2.2 X
Track quality 100.0 %
Test CRC 81A4973E
Copy CRC 81A4973E
Accurately ripped (confidence 6) [ECF69C52] (AR v2)
Copy OK

Track 11

Filename C:\EACrips\11 - Marguerite Trina - The Rocking Tree.wav

Pre-gap length 0:00:02.00

Peak level 89.0 %
Extraction speed 1.8 X
Track quality 99.9 %
Test CRC 59A063FA
Copy CRC 59A063FA
Accurately ripped (confidence 6) [964B9535] (AR v2)
Copy OK

Track 12

Filename C:\EACrips\12 - Homer & Jethro - Santy's Movin' On.wav

Pre-gap length 0:00:02.00

Peak level 99.1 %
Extraction speed 2.2 X
Track quality 100.0 %
Test CRC 5237C2C9
Copy CRC 5237C2C9
Accurately ripped (confidence 5) [594AD6E3] (AR v2)
Copy OK

Track 13

Filename C:\EACrips\13 - Big Joe Turner - Christmas Date Boogie.wav

Pre-gap length 0:00:02.00

Peak level 89.4 %
Extraction speed 2.4 X
Track quality 100.0 %
Test CRC F62CED7D
Copy CRC F62CED7D
Accurately ripped (confidence 5) [ACA96683] (AR v2)
Copy OK

Track 14

Filename C:\EACrips\14 - The Falcons - Can This Be Christmas.wav

Pre-gap length 0:00:02.00

Peak level 90.1 %
Extraction speed 2.5 X
Track quality 100.0 %
Test CRC 4C18DA7E
Copy CRC 4C18DA7E
Accurately ripped (confidence 5) [B26BEDE8] (AR v2)
Copy OK

Track 15

Filename C:\EACrips\15 - Cliff Bruner & His Texas Wanderers - Snow Flakes.wav

Pre-gap length 0:00:02.00

Peak level 99.3 %
Extraction speed 2.1 X
Track quality 99.9 %
Test CRC 84901A21
Copy CRC 84901A21
Accurately ripped (confidence 5) [B7B6C461] (AR v2)
Copy OK

Track 16

Filename C:\EACrips\16 - Babs Gonzales - Be-Bop Santa Claus.wav

Pre-gap length 0:00:02.00

Peak level 100.0 %
Extraction speed 2.7 X
Track quality 100.0 %
Test CRC E7C7D2DB
Copy CRC E7C7D2DB
Accurately ripped (confidence 5) [4CBFF135] (AR v2)
Copy OK

Track 17

Filename C:\EACrips\17 - Ruth Welcome - Winter Wonderland.wav

Pre-gap length 0:00:02.00

Peak level 100.0 %
Extraction speed 2.6 X
Track quality 100.0 %
Test CRC E3D12BE5
Copy CRC E3D12BE5
Accurately ripped (confidence 5) [2FF06048] (AR v2)
Copy OK

Track 18

Filename C:\EACrips\18 - The Sportsmen - Reindeer Rock.wav

Pre-gap length 0:00:02.00

Peak level 88.9 %
Extraction speed 2.6 X
Track quality 100.0 %
Test CRC 765B8F2D
Copy CRC 765B8F2D
Accurately ripped (confidence 5) [13E75A6C] (AR v2)
Copy OK

Track 19

Filename C:\EACrips\19 - The Three Suns - Ding Dong Dandy Christmas.wav

Pre-gap length 0:00:02.00

Peak level 100.0 %
Extraction speed 2.8 X
Track quality 100.0 %
Test CRC 3642A546
Copy CRC 3642A546
Accurately ripped (confidence 5) [B2CC3424] (AR v2)
Copy OK

Track 20

Filename C:\EACrips\20 - The Enchanters - Mambo Santa Mambo.wav

Pre-gap length 0:00:02.00

Peak level 91.7 %
Extraction speed 2.3 X
Track quality 99.9 %
Test CRC 9545B7B7
Copy CRC 9545B7B7
Accurately ripped (confidence 5) [5644F7A7] (AR v2)
Copy OK

Track 21

Filename C:\EACrips\21 - The Sabres - A Cool, Cool Christmas.wav

Pre-gap length 0:00:02.00

Peak level 95.6 %
Extraction speed 2.3 X
Track quality 99.9 %
Test CRC 922D8B7B
Copy CRC 922D8B7B
Accurately ripped (confidence 5) [C0EF5906] (AR v2)
Copy OK

Track 22

Filename C:\EACrips\22 - Bill Boyd & His Cowboy Ramblers - Frosty Mornin'.wav

Pre-gap length 0:00:02.00

Peak level 93.1 %
Extraction speed 2.9 X
Track quality 100.0 %
Test CRC 74097743
Copy CRC 74097743
Accurately ripped (confidence 5) [DE16A562] (AR v2)
Copy OK

Track 23

Filename C:\EACrips\23 - Lu Ann Simms - I Dreamt That I Was Santa Claus.wav

Pre-gap length 0:00:02.00

Peak level 99.2 %
Extraction speed 3.0 X
Track quality 100.0 %
Test CRC 92D61C15
Copy CRC 92D61C15
Accurately ripped (confidence 5) [C6263CD6] (AR v2)
Copy OK

Track 24

Filename C:\EACrips\24 - The Three Stooges - I Want A Hippopotamus For Christmas.wav

Pre-gap length 0:00:02.00

Peak level 95.2 %
Extraction speed 3.0 X
Track quality 100.0 %
Test CRC 4993A208
Copy CRC 4993A208
Accurately ripped (confidence 5) [71D93EA8] (AR v2)
Copy OK

Track 25

Filename C:\EACrips\25 - Bill Lacey & Group - Cowboy Santa Claus.wav

Pre-gap length 0:00:02.00

Peak level 90.6 %
Extraction speed 3.1 X
Track quality 100.0 %
Test CRC FCFF729B
Copy CRC FCFF729B
Accurately ripped (confidence 5) [4F60A348] (AR v2)
Copy OK

Track 26

Filename C:\EACrips\26 - Terry Buter - C-H-R-I-S-T-M-A-S.wav

Pre-gap length 0:00:02.00

Peak level 90.7 %
Extraction speed 2.8 X
Track quality 100.0 %
Test CRC 64F3530E
Copy CRC 64F3530E
Accurately ripped (confidence 5) [58852626] (AR v2)
Copy OK

Track 27

Filename C:\EACrips\27 - The Cameos - New Year's Eve.wav

Pre-gap length 0:00:02.00

Peak level 100.0 %
Extraction speed 3.0 X
Track quality 100.0 %
Test CRC 4D90F8D3
Copy CRC 4D90F8D3
Accurately ripped (confidence 5) [6D21A1DD] (AR v2)
Copy OK

Track 28

Filename C:\EACrips\28 - Jo Ann Campbell - Happy New Year Baby.wav

Pre-gap length 0:00:02.00

Peak level 100.0 %
Extraction speed 3.6 X
Track quality 99.9 %
Test CRC 2437AF3A
Copy CRC 2437AF3A
Accurately ripped (confidence 5) [180F0301] (AR v2)
Copy OK


All tracks accurately ripped

No errors occurred

End of status report

==== Log checksum 8DAE558119C94E0B38D7CDE405D8E843A4B3A592E01F6F81BBB4537B0B66FF92 ====

Thanks to the Original ripper leontrotsky !