Subcategories

Various Artists - Let Me Tell You About The Blues - Texas: The Evolution Of Texas Blues (2010) {3 CD Box Set}

Posted By: ruskaval
Various Artists - Let Me Tell You About The Blues - Texas: The Evolution Of Texas Blues (2010) {3 CD Box Set}

Various Artists - Let Me Tell You About The Blues - Texas: The Evolution Of Texas Blues (2010) {3 CD Box Set}
EAC rip (secure mode) | FLAC (tracks)+CUE+LOG -> 528 Mb | MP3 @320 -> 448 Mb
Full Artwork @ 300 dpi (png) -> 125 Mb | 5% repair rar
© 2010 Fantastic Voyage / Future Noise Music Ltd. | FVTD047
Blues / Regional Blues

‘The blues come to Texas, loping like a mule,’ Blind Lemon Jefferson sang through a shower of surface noise as he made his recording debut in March 1926. He established the primacy of Texas blues musicians that continued unchallenged for the next 30 years, encompassing the likes of Henry ‘Ragtime’ Thomas, Texas Alexander, T-Bone Walker, Smokey Hogg, Lightnin’ Hopkins, Clarence ‘Gatemouth’ Brown, Clarence Garlow, Lil’ Son Jackson, Lowell Fulson and Frankie Lee Sims. Other famous musicians recorded when they were passing through Texas, and that included Lonnie Johnson, Walter Davis, The Mississippi Sheiks, Robert Johnson, Roy Brown, Joe Turner, Honeyboy Edwards, Memphis Slim and Jimmy McCracklin.
Various Artists - Let Me Tell You About The Blues - Texas: The Evolution Of Texas Blues (2010) {3 CD Box Set}

Two of the most influential blues musicians to come out of Texas in the postwar years were Lightnin’ Hopkins and T-Bone Walker, both of whom encountered Lemon Jefferson in their youth. Both also developed individual guitar styles, one cleaving to the country blues traditions that personified Texas blues, the other creating the basic vocabulary for all single-string electric guitar soloists, black and white. As Oak Cliff T-Bone, Walker made his recording debut in December 1929. It wasn’t until later, after a brief creative partnership with jazz guitarist Charlie Christian, that he developed the combination of jazz-inflected chords and single-string runs that would change the nature of guitar blues. Lightnin’ stayed within his country roots, creating an angular, minimalist style that became instantly recognisable, virtually defining Texas blues for the world at large.

Through the last years of the 1940s, small group Texas R&B also found its voice, driven by gifted pianists like Little Willie Littlefield, Lonnie Lyons and Willie Johnson (the latter heard here backing Hubert Robinson). Guitarist Goree Carter took his lead from T-Bone and appears here under two pseudonyms, Little T-Bone and Rocky Thompson. Gatemouth Brown’s guitar style grew from T-Bone’s, too, but he added aggression to the mix. Clarence Garlow used the same source, adding a Cajun edge to his work. Manny Nichols, Johnny Beck, Ernest Lewis and Soldier Boy Houston thrived within the country tradition, while Joe Turner led the way for blues shouters like Lester Williams, Peppermint Harris, Hubert Robinson, Clarence Samuels and Earl Gilliam. While remaining with their origins, both Smokey Hogg and Frankie Lee Sims became individual stylists. But no matter their diversity, all the artists represented here testify to the resilience of the Texas blues tradition.
Various Artists - Let Me Tell You About The Blues - Texas: The Evolution Of Texas Blues (2010) {3 CD Box Set}


Personnel & Tracklist:

Disc 1


01. Blind Lemon Jefferson / Jack O'Diamond Blues - 02:48
02. Henry 'Ragtime' Thomas / John Henry - 02:47
03. Blind Willie Johnson / It's Nobody's Fault But Mine - 03:13
04. Coley Jones / Traveling Man - 03:37
05. Washington Phillips / Denomination Blues Pt 1 - 03:06
06. Bessie Tucker / Penitentiary - 03:29
07. Frenchy's String Band / Texas And Pacific Blues - 03:09
08. Texas Tommy / Trinity River Bottom Blues - 03:20
09. Hattie Burleson / Jim Nappy - 02:45
10. Ramblin' Thomas / Hard Dallas Blues - 03:06
11. Willie Reed / Texas Blues - 03:19
12. Bobbie Cadillac / Carbolic Acid Blues - 03:02
13. Otis Harris / You'll Like My Loving - 03:25
14. Sammy Hill / Cryin' For You Blues - 02:51
15. William McCoy / Central Tracks Blues - 03:23
16. Texas Alexander / No More Women Blues - 03:05
17. Lonnie Johnson / Broken Levee Blues - 03:28
18. Jesse 'Baby Face' Thomas / Blue Goose Blues - 02:38
19. Texas Bill Day / Burn The Trestle Down - 03:03
20. Whistlin' Alex Moore / Blue Bloomer Blues - 03:18
21. Oak Cliff T-Bone / Wichita Falls Blues - 03:11
22. Little Hat Jones / Kentucky Blues - 03:16
23. Gene Campbell / Doggone Mean Blues - 02:44
24. Eddie and Oscar / Nok-Em-All - 02:47
25. Walter Davis / Blue Ghost Blues - 03:15

Playing time…1:18:05

Various Artists - Let Me Tell You About The Blues - Texas: The Evolution Of Texas Blues (2010) {3 CD Box Set}


Disc 2

01. Mississippi Sheiks / Sales Tax - 03:10
02. Bo Carter / Backache Blues - 02:59
03. Joe Pullum / CWA Blues - 03:13
04. Bernice Edwards / Butcher Shop Blues - 03:12
05. Dallas Jamboree Jug Band / Elm Street Woman Blues - 02:52
06. Black Boy Shine / Ice Pick And Pistol Woman Blues - 02:29
07. The Black Ace / Black Ace - 02:51
08. Black Ivory King / The Flying Crow - 02:50
09. Andrew Hogg / Kind-Hearted Blues - 02:41
10. Andy Boy / Evil Blues - 03:38
11. Robert Johnson / Traveling Riverside Blues - 02:49
12. Buddy Woods / Don't Sell It (Don't Give It Away) - 02:36
13. Smith Casey / East Texas Rag - 02:14
14. Lightnin’ Hopkins / Short Haired Woman - 02:49
15. Roy Brown / Deep Sea Diver - 03:01
16. Charlie Bradix / Wee Wee Hours - 02:43
17. Little Willie Littlefield / Little Willie's Boogie - 02:58
18. Clarence 'Gatemouth' Brown / My Time Is Expensive - 02:48
19. Lester Williams / Winter Time Blues - 02:43
20. Manny Nichols / Throw A Little Boogie - 02:52
21. Bea Johnson / No Letter Blues - 02:42
22. Johnny Beck / You Gotta Lay Down Mama - 02:38
23. Little T-Bone / Love's A Gamble - 02:45
24. Lonnie Lyons / Down In The Groovy - 02:58
25. Clarence Garlow / Bon Ton Roula - 03:17

Playing time…1:11:48

Various Artists - Let Me Tell You About The Blues - Texas: The Evolution Of Texas Blues (2010) {3 CD Box Set}


Disc 3

01. Joe Turner / Adam Bit The Apple - 02:53
02. Ernest Lewis / Rosa Lee - 03:10
03. Smokey Hogg / You Gotta Go - 02:28
04. Mr Honey / Who May Your Regular Be - 02:37
05. Texas Alexander / Crossroads - 02:40
06. Rocky Thompson / Bull Corn Blues - 02:45
07. Soldier Boy Houston / Dallas Be Bop Blues - 03:10
08. Peppermint Harris / Raining In My Heart - 02:39
09. Bettye Jean Washington / Who Oh Why (Did You Let Me Go) - 02:54
10. Willie Holiday / I've Played This Town - 02:57
11. Herbert Robinson with Willie Johnson, his Piano and Orchestra / Got The Boogie Woogie Blues - 02:23
12. Joe Houston / Your Little Girl Is Gone - 02:50
13. Lil' Son Jackson / Rockin' And Rollin' - 02:34
14. L.C. Williams / I Don't Want No Woman - 03:19
15. Alexander Moore / If I Lose You Woman - 02:41
16. The Sugarman / She's Gone With The Wind - 02:04
17. Zuzu Bollin / Why Don't You Eat Where You Slept Last Night - 02:48
18. Memphis Slim / Sittin' And Thinkin' - 02:56
19. Jimmy McCracklin / She's Gone - 02:49
20. Lowell Fulson / Reconsider Baby - 03:14
21. Earl Gilliam / Wrong Doing Woman - 02:36
22. Clarence Samuels / Chicken Hearted Woman - 02:45
23. Lightnin’ Hopkins / Walkin' The Streets - 02:44
24. Frankie Lee Sims / What Will Lucy Do - 02:24
25. Mercy Baby / Mercy's Blues - 02:46
26. Big Mama Thornton / Just Like A Dog (Barking Up The Wrong Tree) - 02:49

Playing time…1:11:51

Various Artists - Let Me Tell You About The Blues - Texas: The Evolution Of Texas Blues (2010) {3 CD Box Set}


Exact Audio Copy V1.0 beta 3 from 29. August 2011

EAC extraction logfile from 1. December 2012, 7:55

Various Artists / Let Me Tell You About the Blues, Texas [Disc 1 of 3]

Used drive : HL-DT-STDVDRAM GT51N Adapter: 0 ID: 1

Read mode : Secure
Utilize accurate stream : Yes
Defeat audio cache : Yes
Make use of C2 pointers : No

Read offset correction : 103
Overread into Lead-In and Lead-Out : No
Fill up missing offset samples with silence : Yes
Delete leading and trailing silent blocks : No
Null samples used in CRC calculations : Yes
Used interface : Native Win32 interface for Win NT & 2000
Gap handling : Appended to previous track

Used output format : User Defined Encoder
Selected bitrate : 32 kBit/s
Quality : High
Add ID3 tag : No
Command line compressor : C:\Exact Audio Copy\FLAC\FLAC.EXE
Additional command line options : -5 -V -T "ARTIST=%artist%" -T "TITLE=%title%" -T "ALBUM=%albumtitle%" -T "DATE=%year%" -T "TRACKNUMBER=%tracknr%" -T "TOTALTRACKS=%numtracks%" -T "GENRE=%genre%" -T "ALBUM ARTIST=%albumartist%" -T "ALBUMARTIST=%albumartist%" -T "COMMENT=Secure Mode, Test and Copy, AccurateRip, FLAC -5" %source%


TOC of the extracted CD

Track | Start | Length | Start sector | End sector
––––––––––––––––––––––––––––-
1 | 0:00.00 | 2:48.30 | 0 | 12629
2 | 2:48.30 | 2:47.27 | 12630 | 25181
3 | 5:35.57 | 3:13.23 | 25182 | 39679
4 | 8:49.05 | 3:36.55 | 39680 | 55934
5 | 12:25.60 | 3:06.23 | 55935 | 69907
6 | 15:32.08 | 3:29.03 | 69908 | 85585
7 | 19:01.11 | 3:09.08 | 85586 | 99768
8 | 22:10.19 | 3:19.71 | 99769 | 114764
9 | 25:30.15 | 2:45.17 | 114765 | 127156
10 | 28:15.32 | 3:06.02 | 127157 | 141108
11 | 31:21.34 | 3:18.64 | 141109 | 156022
12 | 34:40.23 | 3:02.15 | 156023 | 169687
13 | 37:42.38 | 3:25.11 | 169688 | 185073
14 | 41:07.49 | 2:51.19 | 185074 | 197917
15 | 43:58.68 | 3:23.01 | 197918 | 213143
16 | 47:21.69 | 3:05.03 | 213144 | 227021
17 | 50:26.72 | 3:28.25 | 227022 | 242646
18 | 53:55.22 | 2:37.60 | 242647 | 254481
19 | 56:33.07 | 3:02.69 | 254482 | 268200
20 | 59:36.01 | 3:17.38 | 268201 | 283013
21 | 62:53.39 | 3:10.62 | 283014 | 297325
22 | 66:04.26 | 3:15.72 | 297326 | 312022
23 | 69:20.23 | 2:43.57 | 312023 | 324304
24 | 72:04.05 | 2:46.53 | 324305 | 336807
25 | 74:50.58 | 3:15.16 | 336808 | 351448


Track 1

Filename C:\temp\01 - Blind Lemon Jefferson - Jack O'Diamond Blues.wav

Pre-gap length 0:00:02.00

Peak level 100.0 %
Extraction speed 2.8 X
Track quality 100.0 %
Test CRC 87C4D23E
Copy CRC 87C4D23E
Accurately ripped (confidence 1) [81EE5D52] (AR v2)
Copy OK

Track 2

Filename C:\temp\02 - Henry 'Ragtime' Thomas - John Henry.wav

Peak level 100.0 %
Extraction speed 3.0 X
Track quality 100.0 %
Test CRC 21362747
Copy CRC 21362747
Accurately ripped (confidence 1) [2166448E] (AR v2)
Copy OK

Track 3

Filename C:\temp\03 - Blind Willie Johnson - It's Nobody's Fault But Mine.wav

Peak level 100.0 %
Extraction speed 3.2 X
Track quality 100.0 %
Test CRC FC02B59D
Copy CRC FC02B59D
Accurately ripped (confidence 1) [1FCEA6EC] (AR v2)
Copy OK

Track 4

Filename C:\temp\04 - Coley Jones - Traveling Man.wav

Peak level 73.3 %
Extraction speed 3.5 X
Track quality 100.0 %
Test CRC 2CDF1BB1
Copy CRC 2CDF1BB1
Accurately ripped (confidence 1) [8BD447CB] (AR v2)
Copy OK

Track 5

Filename C:\temp\05 - Washington Phillips - Denomination Blues Pt 1.wav

Peak level 100.0 %
Extraction speed 3.6 X
Track quality 100.0 %
Test CRC 60E2854F
Copy CRC 60E2854F
Accurately ripped (confidence 1) [FC180A93] (AR v2)
Copy OK

Track 6

Filename C:\temp\06 - Bessie Tucker - Penitentiary.wav

Peak level 100.0 %
Extraction speed 3.8 X
Track quality 100.0 %
Test CRC 168E0930
Copy CRC 168E0930
Accurately ripped (confidence 1) [294FFDC8] (AR v2)
Copy OK

Track 7

Filename C:\temp\07 - Frenchy's String Band - Texas And Pacific Blues.wav

Peak level 82.9 %
Extraction speed 3.9 X
Track quality 100.0 %
Test CRC AC9F6FBA
Copy CRC AC9F6FBA
Accurately ripped (confidence 1) [BF1ECE15] (AR v2)
Copy OK

Track 8

Filename C:\temp\08 - Texas Tommy - Trinity River Bottom Blues.wav

Peak level 83.8 %
Extraction speed 4.1 X
Track quality 100.0 %
Test CRC 7C7B373B
Copy CRC 7C7B373B
Accurately ripped (confidence 1) [4F93A616] (AR v2)
Copy OK

Track 9

Filename C:\temp\09 - Hattie Burleson - Jim Nappy.wav

Peak level 93.8 %
Extraction speed 4.1 X
Track quality 100.0 %
Test CRC C74A29A6
Copy CRC C74A29A6
Accurately ripped (confidence 1) [C4DBF3E2] (AR v2)
Copy OK

Track 10

Filename C:\temp\10 - Ramblin' Thomas - Hard Dallas Blues.wav

Peak level 100.0 %
Extraction speed 4.4 X
Track quality 100.0 %
Test CRC 2DE373FC
Copy CRC 2DE373FC
Accurately ripped (confidence 1) [867D52F8] (AR v2)
Copy OK

Track 11

Filename C:\temp\11 - Willie Reed - Texas Blues.wav

Peak level 100.0 %
Extraction speed 3.5 X
Track quality 99.9 %
Test CRC DE265182
Copy CRC DE265182
Accurately ripped (confidence 1) [B35592B8] (AR v2)
Copy OK

Track 12

Filename C:\temp\12 - Bobbie Cadillac - Carbolic Acid Blues.wav

Peak level 92.2 %
Extraction speed 4.5 X
Track quality 100.0 %
Test CRC 3511A30E
Copy CRC 3511A30E
Accurately ripped (confidence 1) [35187971] (AR v2)
Copy OK

Track 13

Filename C:\temp\13 - Otis Harris - You'll Like My Loving.wav

Peak level 87.9 %
Extraction speed 3.8 X
Track quality 99.9 %
Test CRC D42C7498
Copy CRC D42C7498
Accurately ripped (confidence 1) [4ED53C53] (AR v2)
Copy OK

Track 14

Filename C:\temp\14 - Sammy Hill - Cryin' For You Blues.wav

Peak level 99.5 %
Extraction speed 4.8 X
Track quality 100.0 %
Test CRC 1079F5E2
Copy CRC 1079F5E2
Accurately ripped (confidence 1) [3CDA2CFA] (AR v2)
Copy OK

Track 15

Filename C:\temp\15 - William McCoy - Central Tracks Blues.wav

Peak level 77.7 %
Extraction speed 5.1 X
Track quality 100.0 %
Test CRC B6C0D11A
Copy CRC B6C0D11A
Accurately ripped (confidence 1) [0F7534B8] (AR v2)
Copy OK

Track 16

Filename C:\temp\16 - Texas Alexander - No More Women Blues.wav

Peak level 100.0 %
Extraction speed 5.2 X
Track quality 100.0 %
Test CRC 70A8ACD8
Copy CRC 70A8ACD8
Accurately ripped (confidence 1) [6543780B] (AR v2)
Copy OK

Track 17

Filename C:\temp\17 - Lonnie Johnson - Broken Levee Blues.wav

Peak level 100.0 %
Extraction speed 5.3 X
Track quality 100.0 %
Test CRC C76E3379
Copy CRC C76E3379
Accurately ripped (confidence 1) [A2D4C8B2] (AR v2)
Copy OK

Track 18

Filename C:\temp\18 - Jesse 'Baby Face' Thomas - Blue Goose Blues.wav

Peak level 99.9 %
Extraction speed 5.3 X
Track quality 100.0 %
Test CRC CE0C7D99
Copy CRC CE0C7D99
Accurately ripped (confidence 1) [456FFB64] (AR v2)
Copy OK

Track 19

Filename C:\temp\19 - Texas Bill Day - Burn The Trestle Down.wav

Peak level 100.0 %
Extraction speed 4.1 X
Track quality 99.9 %
Test CRC 08F70FCB
Copy CRC 08F70FCB
Accurately ripped (confidence 1) [6E1B8A34] (AR v2)
Copy OK

Track 20

Filename C:\temp\20 - Whistlin' Alex Moore - Blue Bloomer Blues.wav

Peak level 86.9 %
Extraction speed 4.3 X
Track quality 99.9 %
Test CRC 75E01A05
Copy CRC 75E01A05
Accurately ripped (confidence 1) [4794DDC8] (AR v2)
Copy OK

Track 21

Filename C:\temp\21 - Oak Cliff T-Bone - Wichita Falls Blues.wav

Peak level 88.7 %
Extraction speed 5.5 X
Track quality 100.0 %
Test CRC 3BDE59E8
Copy CRC 3BDE59E8
Accurately ripped (confidence 1) [BDD83945] (AR v2)
Copy OK

Track 22

Filename C:\temp\22 - Little Hat Jones - Kentucky Blues.wav

Peak level 100.0 %
Extraction speed 5.1 X
Track quality 100.0 %
Test CRC D2409ECE
Copy CRC D2409ECE
Accurately ripped (confidence 1) [FF17B625] (AR v2)
Copy OK

Track 23

Filename C:\temp\23 - Gene Campbell - Doggone Mean Blues.wav

Peak level 96.2 %
Extraction speed 5.8 X
Track quality 100.0 %
Test CRC 630A105B
Copy CRC 630A105B
Accurately ripped (confidence 1) [C0A6A415] (AR v2)
Copy OK

Track 24

Filename C:\temp\24 - Eddie and Oscar - Nok-Em-All.wav

Peak level 95.7 %
Extraction speed 5.8 X
Track quality 100.0 %
Test CRC 2D761A6B
Copy CRC 2D761A6B
Accurately ripped (confidence 1) [201DDDC6] (AR v2)
Copy OK

Track 25

Filename C:\temp\25 - Walter Davis - Blue Ghost Blues.wav

Peak level 97.7 %
Extraction speed 4.7 X
Track quality 99.9 %
Test CRC 79FA9540
Copy CRC 79FA9540
Accurately ripped (confidence 1) [6BF47C39] (AR v2)
Copy OK


All tracks accurately ripped

No errors occurred

End of status report

==== Log checksum C8907124A167172B2B92337C0348A2EB045FED7EEED499A753E67652E78C8AE1 ====
Exact Audio Copy V1.0 beta 3 from 29. August 2011

EAC extraction logfile from 1. December 2012, 8:38

Various Artists / Let Me Tell You About the Blues, Texas [Disc 2 of 3]

Used drive : HL-DT-STDVDRAM GT51N Adapter: 0 ID: 1

Read mode : Secure
Utilize accurate stream : Yes
Defeat audio cache : Yes
Make use of C2 pointers : No

Read offset correction : 103
Overread into Lead-In and Lead-Out : No
Fill up missing offset samples with silence : Yes
Delete leading and trailing silent blocks : No
Null samples used in CRC calculations : Yes
Used interface : Native Win32 interface for Win NT & 2000
Gap handling : Appended to previous track

Used output format : User Defined Encoder
Selected bitrate : 32 kBit/s
Quality : High
Add ID3 tag : No
Command line compressor : C:\Exact Audio Copy\FLAC\FLAC.EXE
Additional command line options : -5 -V -T "ARTIST=%artist%" -T "TITLE=%title%" -T "ALBUM=%albumtitle%" -T "DATE=%year%" -T "TRACKNUMBER=%tracknr%" -T "TOTALTRACKS=%numtracks%" -T "GENRE=%genre%" -T "ALBUM ARTIST=%albumartist%" -T "ALBUMARTIST=%albumartist%" -T "COMMENT=Secure Mode, Test and Copy, AccurateRip, FLAC -5" %source%


TOC of the extracted CD

Track | Start | Length | Start sector | End sector
––––––––––––––––––––––––––––-
1 | 0:00.00 | 3:10.32 | 0 | 14281
2 | 3:10.32 | 2:58.48 | 14282 | 27679
3 | 6:09.05 | 3:13.30 | 27680 | 42184
4 | 9:22.35 | 3:11.63 | 42185 | 56572
5 | 12:34.23 | 2:52.29 | 56573 | 69501
6 | 15:26.52 | 2:28.49 | 69502 | 80650
7 | 17:55.26 | 2:50.46 | 80651 | 93446
8 | 20:45.72 | 2:50.10 | 93447 | 106206
9 | 23:36.07 | 2:41.16 | 106207 | 118297
10 | 26:17.23 | 3:38.26 | 118298 | 134673
11 | 29:55.49 | 2:48.64 | 134674 | 147337
12 | 32:44.38 | 2:35.55 | 147338 | 159017
13 | 35:20.18 | 2:13.41 | 159018 | 169033
14 | 37:33.59 | 2:48.59 | 169034 | 181692
15 | 40:22.43 | 3:01.10 | 181693 | 195277
16 | 43:23.53 | 2:43.07 | 195278 | 207509
17 | 46:06.60 | 2:57.53 | 207510 | 220837
18 | 49:04.38 | 2:48.00 | 220838 | 233437
19 | 51:52.38 | 2:42.42 | 233438 | 245629
20 | 54:35.05 | 2:52.30 | 245630 | 258559
21 | 57:27.35 | 2:42.27 | 258560 | 270736
22 | 60:09.62 | 2:38.34 | 270737 | 282620
23 | 62:48.21 | 2:45.30 | 282621 | 295025
24 | 65:33.51 | 2:57.59 | 295026 | 308359
25 | 68:31.35 | 3:16.40 | 308360 | 323099


Track 1

Filename C:\temp\01 - Mississippi Sheiks - Sales Tax.wav

Pre-gap length 0:00:02.00

Peak level 100.0 %
Extraction speed 2.8 X
Track quality 100.0 %
Test CRC 0C733CCF
Copy CRC 0C733CCF
Track not present in AccurateRip database
Copy OK

Track 2

Filename C:\temp\02 - Bo Carter - Backache Blues.wav

Peak level 95.4 %
Extraction speed 2.3 X
Track quality 99.9 %
Test CRC 4E3AFD6B
Copy CRC 4E3AFD6B
Accurately ripped (confidence 1) [87901393] (AR v2)
Copy OK

Track 3

Filename C:\temp\03 - Joe Pullum - CWA Blues.wav

Peak level 100.0 %
Extraction speed 3.2 X
Track quality 100.0 %
Test CRC 575EDE94
Copy CRC 575EDE94
Accurately ripped (confidence 1) [2F05C065] (AR v2)
Copy OK

Track 4

Filename C:\temp\04 - Bernice Edwards - Butcher Shop Blues.wav

Peak level 94.1 %
Extraction speed 3.4 X
Track quality 100.0 %
Test CRC 0FE7C498
Copy CRC 0FE7C498
Accurately ripped (confidence 1) [0EBAA1CF] (AR v2)
Copy OK

Track 5

Filename C:\temp\05 - Dallas Jamboree Jug Band - Elm Street Woman Blues.wav

Peak level 100.0 %
Extraction speed 3.6 X
Track quality 100.0 %
Test CRC E9CBCD5C
Copy CRC E9CBCD5C
Accurately ripped (confidence 1) [EC712A79] (AR v2)
Copy OK

Track 6

Filename C:\temp\06 - Black Boy Shine - Ice Pick And Pistol Woman Blues.wav

Peak level 81.1 %
Extraction speed 3.5 X
Track quality 100.0 %
Test CRC 7603513B
Copy CRC 7603513B
Accurately ripped (confidence 1) [B0EDC858] (AR v2)
Copy OK

Track 7

Filename C:\temp\07 - The Black Ace - Black Ace.wav

Peak level 96.4 %
Extraction speed 2.9 X
Track quality 99.9 %
Test CRC DEC684CD
Copy CRC DEC684CD
Accurately ripped (confidence 1) [ACF056DC] (AR v2)
Copy OK

Track 8

Filename C:\temp\08 - Black Ivory King - The Flying Crow.wav

Peak level 92.4 %
Extraction speed 4.0 X
Track quality 100.0 %
Test CRC AFCA0B1D
Copy CRC AFCA0B1D
Accurately ripped (confidence 1) [19E30A28] (AR v2)
Copy OK

Track 9

Filename C:\temp\09 - Andrew Hogg - Kind-Hearted Blues.wav

Peak level 100.0 %
Extraction speed 4.0 X
Track quality 100.0 %
Test CRC A9ADF7AB
Copy CRC A9ADF7AB
Accurately ripped (confidence 1) [46F0217F] (AR v2)
Copy OK

Track 10

Filename C:\temp\10 - Andy Boy - Evil Blues.wav

Peak level 97.2 %
Extraction speed 4.4 X
Track quality 100.0 %
Test CRC 7C2AD2B2
Copy CRC 7C2AD2B2
Accurately ripped (confidence 1) [3A32CDA7] (AR v2)
Copy OK

Track 11

Filename C:\temp\11 - Robert Johnson - Traveling Riverside Blues.wav

Peak level 100.0 %
Extraction speed 4.3 X
Track quality 100.0 %
Test CRC A55B350D
Copy CRC A55B350D
Accurately ripped (confidence 1) [82C5C0A2] (AR v2)
Copy OK

Track 12

Filename C:\temp\12 - Buddy Woods - Don't Sell It (Don't Give It Away).wav

Peak level 100.0 %
Extraction speed 4.4 X
Track quality 100.0 %
Test CRC 5363EA17
Copy CRC 5363EA17
Accurately ripped (confidence 1) [0025B600] (AR v2)
Copy OK

Track 13

Filename C:\temp\13 - Smith Casey - East Texas Rag.wav

Peak level 83.9 %
Extraction speed 4.4 X
Track quality 100.0 %
Test CRC 8463DDE3
Copy CRC 8463DDE3
Accurately ripped (confidence 1) [403D7668] (AR v2)
Copy OK

Track 14

Filename C:\temp\14 - Lightnin' Hopkins - Short Haired Woman.wav

Peak level 91.0 %
Extraction speed 4.7 X
Track quality 100.0 %
Test CRC E90C636B
Copy CRC E90C636B
Accurately ripped (confidence 1) [5E37FCF9] (AR v2)
Copy OK

Track 15

Filename C:\temp\15 - Roy Brown - Deep Sea Diver.wav

Peak level 100.0 %
Extraction speed 4.8 X
Track quality 100.0 %
Test CRC 469C775E
Copy CRC 469C775E
Accurately ripped (confidence 1) [6374359D] (AR v2)
Copy OK

Track 16

Filename C:\temp\16 - Charlie Bradix - Wee Wee Hours.wav

Peak level 54.4 %
Extraction speed 5.0 X
Track quality 100.0 %
Test CRC 63F4757C
Copy CRC 63F4757C
Accurately ripped (confidence 1) [74FDC713] (AR v2)
Copy OK

Track 17

Filename C:\temp\17 - Little Willie Littlefield - Little Willie's Boogie.wav

Peak level 100.0 %
Extraction speed 5.2 X
Track quality 100.0 %
Test CRC B5B701E9
Copy CRC B5B701E9
Accurately ripped (confidence 1) [9A636881] (AR v2)
Copy OK

Track 18

Filename C:\temp\18 - Clarence 'Gatemouth' Brown - My Time Is Expensive.wav

Peak level 99.6 %
Extraction speed 3.8 X
Track quality 99.9 %
Test CRC FF093FA5
Copy CRC FF093FA5
Accurately ripped (confidence 1) [5EED18D5] (AR v2)
Copy OK

Track 19

Filename C:\temp\19 - Lester Williams - Winter Time Blues.wav

Peak level 75.2 %
Extraction speed 5.1 X
Track quality 100.0 %
Test CRC E7988D7B
Copy CRC E7988D7B
Accurately ripped (confidence 1) [34A7BD87] (AR v2)
Copy OK

Track 20

Filename C:\temp\20 - Manny Nichols - Throw A Little Boogie.wav

Peak level 80.8 %
Extraction speed 5.4 X
Track quality 100.0 %
Test CRC CB7F101B
Copy CRC CB7F101B
Accurately ripped (confidence 1) [B9361DFC] (AR v2)
Copy OK

Track 21

Filename C:\temp\21 - Bea Johnson - No Letter Blues.wav

Peak level 71.8 %
Extraction speed 4.0 X
Track quality 99.9 %
Test CRC 9B83980C
Copy CRC 9B83980C
Accurately ripped (confidence 1) [E81E654A] (AR v2)
Copy OK

Track 22

Filename C:\temp\22 - Johnny Beck - You Gotta Lay Down Mama.wav

Peak level 82.6 %
Extraction speed 5.5 X
Track quality 100.0 %
Test CRC D5482611
Copy CRC D5482611
Accurately ripped (confidence 1) [CD53BBD6] (AR v2)
Copy OK

Track 23

Filename C:\temp\23 - Little T-Bone - Love's A Gamble.wav

Peak level 79.3 %
Extraction speed 5.6 X
Track quality 100.0 %
Test CRC FD9C04CB
Copy CRC FD9C04CB
Accurately ripped (confidence 1) [ED03F43C] (AR v2)
Copy OK

Track 24

Filename C:\temp\24 - Lonnie Lyons - Down In The Groovy.wav

Peak level 91.0 %
Extraction speed 4.9 X
Track quality 100.0 %
Test CRC 4566B0E9
Copy CRC 4566B0E9
Accurately ripped (confidence 1) [AA772690] (AR v2)
Copy OK

Track 25

Filename C:\temp\25 - Clarence Garlow - Bon Ton Roula.wav

Peak level 95.2 %
Extraction speed 4.4 X
Track quality 99.9 %
Test CRC FB36E94A
Copy CRC FB36E94A
Accurately ripped (confidence 1) [C1EDC196] (AR v2)
Copy OK


24 track(s) accurately ripped
1 track(s) not present in the AccurateRip database

Some tracks could not be verified as accurate

No errors occurred

End of status report

==== Log checksum 264C866E3DDFE14E3434378AF18B2F13C2BC0EC4F22ABB425DB806278A6AEDBF ====
Exact Audio Copy V1.0 beta 3 from 29. August 2011

EAC extraction logfile from 1. December 2012, 9:43

Various Artists / Let Me Tell You About the Blues, Texas [Disc 3 of 3]

Used drive : HL-DT-STDVDRAM GT51N Adapter: 0 ID: 1

Read mode : Secure
Utilize accurate stream : Yes
Defeat audio cache : Yes
Make use of C2 pointers : No

Read offset correction : 103
Overread into Lead-In and Lead-Out : No
Fill up missing offset samples with silence : Yes
Delete leading and trailing silent blocks : No
Null samples used in CRC calculations : Yes
Used interface : Native Win32 interface for Win NT & 2000
Gap handling : Appended to previous track

Used output format : User Defined Encoder
Selected bitrate : 32 kBit/s
Quality : High
Add ID3 tag : No
Command line compressor : C:\Exact Audio Copy\FLAC\FLAC.EXE
Additional command line options : -5 -V -T "ARTIST=%artist%" -T "TITLE=%title%" -T "ALBUM=%albumtitle%" -T "DATE=%year%" -T "TRACKNUMBER=%tracknr%" -T "TOTALTRACKS=%numtracks%" -T "GENRE=%genre%" -T "ALBUM ARTIST=%albumartist%" -T "ALBUMARTIST=%albumartist%" -T "COMMENT=Secure Mode, Test and Copy, AccurateRip, FLAC -5" %source%


TOC of the extracted CD

Track | Start | Length | Start sector | End sector
––––––––––––––––––––––––––––-
1 | 0:00.00 | 2:52.40 | 0 | 12939
2 | 2:52.40 | 3:09.51 | 12940 | 27165
3 | 6:02.16 | 2:27.61 | 27166 | 38251
4 | 8:30.02 | 2:36.55 | 38252 | 50006
5 | 11:06.57 | 2:40.25 | 50007 | 62031
6 | 13:47.07 | 2:45.15 | 62032 | 74421
7 | 16:32.22 | 3:10.12 | 74422 | 88683
8 | 19:42.34 | 2:38.50 | 88684 | 100583
9 | 22:21.09 | 2:54.12 | 100584 | 113645
10 | 25:15.21 | 2:56.45 | 113646 | 126890
11 | 28:11.66 | 2:22.61 | 126891 | 137601
12 | 30:34.52 | 2:49.47 | 137602 | 150323
13 | 33:24.24 | 2:34.19 | 150324 | 161892
14 | 35:58.43 | 3:18.66 | 161893 | 176808
15 | 39:17.34 | 2:40.61 | 176809 | 188869
16 | 41:58.20 | 2:04.35 | 188870 | 198204
17 | 44:02.55 | 2:48.11 | 198205 | 210815
18 | 46:50.66 | 2:55.39 | 210816 | 223979
19 | 49:46.30 | 2:48.39 | 223980 | 236618
20 | 52:34.69 | 3:13.45 | 236619 | 251138
21 | 55:48.39 | 2:35.52 | 251139 | 262815
22 | 58:24.16 | 2:44.43 | 262816 | 275158
23 | 61:08.59 | 2:44.25 | 275159 | 287483
24 | 63:53.09 | 2:24.36 | 287484 | 298319
25 | 66:17.45 | 2:45.44 | 298320 | 310738
26 | 69:03.14 | 2:48.60 | 310739 | 323398


Track 1

Filename C:\temp\01 - Joe Turner - Adam Bit The Apple.wav

Pre-gap length 0:00:02.00

Peak level 76.0 %
Extraction speed 2.7 X
Track quality 100.0 %
Test CRC 2581C287
Copy CRC 2581C287
Accurately ripped (confidence 1) [DF8B00F4] (AR v2)
Copy OK

Track 2

Filename C:\temp\02 - Ernest Lewis - Rosa Lee.wav

Peak level 86.0 %
Extraction speed 3.0 X
Track quality 100.0 %
Test CRC 3554794A
Copy CRC 3554794A
Accurately ripped (confidence 1) [534D9CFD] (AR v2)
Copy OK

Track 3

Filename C:\temp\03 - Smokey Hogg - You Gotta Go.wav

Peak level 99.9 %
Extraction speed 3.1 X
Track quality 100.0 %
Test CRC B507F3B2
Copy CRC B507F3B2
Accurately ripped (confidence 1) [34B4AF05] (AR v2)
Copy OK

Track 4

Filename C:\temp\04 - Mr Honey - Who May Your Regular Be.wav

Peak level 100.0 %
Extraction speed 3.2 X
Track quality 100.0 %
Test CRC 5FC608FB
Copy CRC 5FC608FB
Accurately ripped (confidence 1) [CB361F17] (AR v2)
Copy OK

Track 5

Filename C:\temp\05 - Texas Alexander - Crossroads.wav

Peak level 78.5 %
Extraction speed 2.5 X
Track quality 99.9 %
Test CRC 924A2A69
Copy CRC 924A2A69
Accurately ripped (confidence 1) [C25CD9CB] (AR v2)
Copy OK

Track 6

Filename C:\temp\06 - Rocky Thompson - Bull Corn Blues.wav

Peak level 84.6 %
Extraction speed 3.5 X
Track quality 100.0 %
Test CRC BB5E9727
Copy CRC BB5E9727
Accurately ripped (confidence 1) [CC5289DB] (AR v2)
Copy OK

Track 7

Filename C:\temp\07 - Soldier Boy Houston - Dallas Be Bop Blues.wav

Peak level 100.0 %
Extraction speed 3.8 X
Track quality 100.0 %
Test CRC 53959027
Copy CRC 53959027
Accurately ripped (confidence 1) [A629BA0A] (AR v2)
Copy OK

Track 8

Filename C:\temp\08 - Peppermint Harris - Raining In My Heart.wav

Peak level 87.6 %
Extraction speed 2.9 X
Track quality 99.9 %
Test CRC D1EED5F6
Copy CRC D1EED5F6
Accurately ripped (confidence 1) [8E509BDE] (AR v2)
Copy OK

Track 9

Filename C:\temp\09 - Bettye Jean Washington - Who Oh Why (Did You Let Me Go).wav

Peak level 84.8 %
Extraction speed 4.0 X
Track quality 100.0 %
Test CRC 51DC9B45
Copy CRC 51DC9B45
Accurately ripped (confidence 1) [3707D703] (AR v2)
Copy OK

Track 10

Filename C:\temp\10 - Willie Holiday - I've Played This Town.wav

Peak level 90.6 %
Extraction speed 3.2 X
Track quality 99.9 %
Test CRC A161EBF4
Copy CRC A161EBF4
Accurately ripped (confidence 1) [35C94311] (AR v2)
Copy OK

Track 11

Filename C:\temp\11 - Herbert Robinson with Willie Johnson, his Piano and Orchestra - Got The Boogie Woogie Blues.wav

Peak level 78.5 %
Extraction speed 4.2 X
Track quality 100.0 %
Test CRC 96F16EBA
Copy CRC 96F16EBA
Accurately ripped (confidence 1) [B587DF39] (AR v2)
Copy OK

Track 12

Filename C:\temp\12 - Joe Houston - Your Little Girl Is Gone.wav

Peak level 98.0 %
Extraction speed 3.3 X
Track quality 99.9 %
Test CRC 8F0850ED
Copy CRC 8F0850ED
Accurately ripped (confidence 1) [FB770CA7] (AR v2)
Copy OK

Track 13

Filename C:\temp\13 - Lil' Son Jackson - Rockin' And Rollin'.wav

Peak level 81.7 %
Extraction speed 4.4 X
Track quality 100.0 %
Test CRC F79BE9EA
Copy CRC F79BE9EA
Accurately ripped (confidence 1) [3BD87D13] (AR v2)
Copy OK

Track 14

Filename C:\temp\14 - L.C. Williams - I Don't Want No Woman.wav

Peak level 73.5 %
Extraction speed 3.7 X
Track quality 99.9 %
Test CRC 49BBCE4A
Copy CRC 49BBCE4A
Accurately ripped (confidence 1) [BC38D375] (AR v2)
Copy OK

Track 15

Filename C:\temp\15 - Alexander Moore - If I Lose You Woman.wav

Peak level 84.9 %
Extraction speed 4.7 X
Track quality 100.0 %
Test CRC B2DD0E77
Copy CRC B2DD0E77
Accurately ripped (confidence 1) [A0D9965F] (AR v2)
Copy OK

Track 16

Filename C:\temp\16 - The Sugarman - She's Gone With The Wind.wav

Peak level 100.0 %
Extraction speed 3.2 X
Track quality 99.9 %
Test CRC 0D603594
Copy CRC 0D603594
Accurately ripped (confidence 1) [64A808A2] (AR v2)
Copy OK

Track 17

Filename C:\temp\17 - Zuzu Bollin - Why Don't You Eat Where You Slept Last Night.wav

Peak level 77.3 %
Extraction speed 5.0 X
Track quality 100.0 %
Test CRC 3FF9C7D4
Copy CRC 3FF9C7D4
Accurately ripped (confidence 1) [156EAB57] (AR v2)
Copy OK

Track 18

Filename C:\temp\18 - Memphis Slim - Sittin' And Thinkin'.wav

Peak level 100.0 %
Extraction speed 5.0 X
Track quality 100.0 %
Test CRC 7A2EEB21
Copy CRC 7A2EEB21
Accurately ripped (confidence 1) [37708883] (AR v2)
Copy OK

Track 19

Filename C:\temp\19 - Jimmy McCracklin - She's Gone.wav

Peak level 100.0 %
Extraction speed 5.1 X
Track quality 100.0 %
Test CRC 466A9A66
Copy CRC 466A9A66
Accurately ripped (confidence 1) [EDBF9D17] (AR v2)
Copy OK

Track 20

Filename C:\temp\20 - Lowell Fulson - Reconsider Baby.wav

Peak level 84.0 %
Extraction speed 5.4 X
Track quality 100.0 %
Test CRC 713A87C2
Copy CRC 713A87C2
Accurately ripped (confidence 1) [9406A04A] (AR v2)
Copy OK

Track 21

Filename C:\temp\21 - Earl Gilliam - Wrong Doing Woman.wav

Peak level 100.0 %
Extraction speed 3.8 X
Track quality 99.9 %
Test CRC A9D81B45
Copy CRC A9D81B45
Accurately ripped (confidence 1) [D8F0CEA2] (AR v2)
Copy OK

Track 22

Filename C:\temp\22 - Clarence Samuels - Chicken Hearted Woman.wav

Peak level 77.5 %
Extraction speed 5.4 X
Track quality 100.0 %
Test CRC 45D234F1
Copy CRC 45D234F1
Accurately ripped (confidence 1) [E8E3CFD0] (AR v2)
Copy OK

Track 23

Filename C:\temp\23 - Lightnin' Hopkins - Walkin' The Streets.wav

Peak level 90.6 %
Extraction speed 4.1 X
Track quality 99.9 %
Test CRC A55717DF
Copy CRC A55717DF
Accurately ripped (confidence 1) [8735325F] (AR v2)
Copy OK

Track 24

Filename C:\temp\24 - Frankie Lee Sims - What Will Lucy Do.wav

Peak level 73.9 %
Extraction speed 5.5 X
Track quality 100.0 %
Test CRC 7BE1506C
Copy CRC 7BE1506C
Accurately ripped (confidence 1) [87CA6C21] (AR v2)
Copy OK

Track 25

Filename C:\temp\25 - Mercy Baby - Mercy's Blues.wav

Peak level 92.1 %
Extraction speed 5.6 X
Track quality 100.0 %
Test CRC FDF6A0ED
Copy CRC FDF6A0ED
Accurately ripped (confidence 1) [3E6F996B] (AR v2)
Copy OK

Track 26

Filename C:\temp\26 - Big Mama Thornton - Just Like A Dog (Barking Up The Wrong Tree).wav

Peak level 100.0 %
Extraction speed 5.8 X
Track quality 100.0 %
Test CRC 0ACFC4CD
Copy CRC 0ACFC4CD
Accurately ripped (confidence 1) [0C5AC6B1] (AR v2)
Copy OK


All tracks accurately ripped

No errors occurred

End of status report

==== Log checksum 57005056C8C23BF95635EF488BF1E5118C0F44C1FA71D8DAF3FFBE254D4101DD ====


Various Artists - Let Me Tell You About The Blues - Texas: The Evolution Of Texas Blues (2010) {3 CD Box Set}


NEXT -> more Let Me Tell You About The Blues series on the way…

see more Let Me Tell You About The Blues Series…


===