Subcategories
Tags
Language
Tags

VA - Love Saves The Day (A History Of American Dance Music Culture, 1970-1979 (2020)

Posted By: delpotro
VA -  Love Saves The Day (A History Of American Dance Music Culture, 1970-1979 (2020)

VA - Love Saves The Day (A History Of American Dance Music Culture, 1970-1979 (2020)
EAC Rip | FLAC (tracks+log+.cue) - 759 Mb | MP3 CBR 320 kbps - 278 Mb | Covers included | 01:53:05
Disco, Funk | Label: Reappearing Records

For the last 20 years London-based author and party organiser Tim Lawrence has dedicated himself to excavating the history of New York City party culture and bringing some of the most powerful aspects of that culture to London’s dance scene, from where it has ricocheted around the world.

Having conducted the first and set of major interviews with David Mancuso of the New York City Loft, Lawrence started to host Loft-style Lucky Cloud Sound System parties with David and friends in London in June 2003. In February 2004 he published the first of three published three pioneering histories that have excavated and championed the previously overlooked foundations of contemporary party culture: Love Saves the Day: A History of American Dance Music (1970-79), Hold on to Your Dreams: Arthur Russell and the Downtown Music Scene (1973-92), and Life and Death on the New York Dance Floor (1980-83). Since 2018 Lawrence has hosted and DJed at the community audiophile party "All Our Friends. Paper Magazine describes him as the “reigning authority on the history of dance music in New York”.

With knowledge to share, and a readership as well as a dance floor to feed, Lawrence released Life and Death on the New York Dance Floor as the debut imprint on Reappearing Records. A year in the making, a compilation featuring rare and iconic tracks that appear in his much-loved and heavily-thumbed classic Love Saves the Day amounts to the follow-up. The collection features several tracks selected regularly by Mancuso, the party host who exerted a prophetic and unparalleled influence on New York City party culture, as charted by Lawrence. It also includes choice picks from groundbreaking DJs such as Michael Cappello, Steve D’Acquisto, Francis Grasso, Richie Kaczor, Larry Levan and Nicky Siano, whose expressive contributions are faithfully recorded in Love Saves the Day. The compilation traces how disco grew out of the record collections and intuitive sensibility of these and other DJs, offering a unique survey of the era’s expansive sonic palette.
Tracklist:
Disc 1 (58:45)
1. Les Troubadours Du Roi Baudouin – Dibwe Diambula Kabanda (03:00)
2. Chuck Mangione – Land Of Make Believe (12:06)
3. Wilson Pickett – Don't Knock My Love (Part 1) (02:22)
4. Wilson Pickett – Don't Knock My Love (Part 2) (04:01)
5. James Brown – Give It Up Or Turnit A Loose (06:29)
6. Jackson 5 – Hum Along And Dance (Uncut Version) (15:06)
7. Brainstorm – Lovin' Is Really My Game (12" Version) (07:40)
8. Domenic Troiano – We All Need Love (12" Version) (05:32)
9. Gladys Knight And The Pips – It's Time To Go Now (02:29)

Disc 2 (53:25)
1. Willie Hutch – Brother's Gonna Work It Out (04:47)
2. Charles Earland – Leaving This Planet (07:27)
3. Laura Lee – (If You Want To Try Love Again) Remember Me (03:57)
4. The Modulations – I Can't Fight Your Love (04:15)
5. Margie Joseph – Prophecy (05:23)
6. Blue Magic – Welcome To The Club (05:14)
7. Twennynine With Lenny White – Fancy Dancer (12" Version) (06:25)
8. Miroslav Vitous – New York City (09:31)
9. Edgar Winter – Above And Beyond (12" Version) (06:26)

Exact Audio Copy V1.3 from 2. September 2016

EAC extraction logfile from 8. October 2020, 8:59

Various Artists / Love Saves The Day

Used drive : PLEXTOR PX-891SAF Adapter: 1 ID: 0

Read mode : Secure
Utilize accurate stream : Yes
Defeat audio cache : Yes
Make use of C2 pointers : No

Read offset correction : 6
Overread into Lead-In and Lead-Out : No
Fill up missing offset samples with silence : Yes
Delete leading and trailing silent blocks : No
Null samples used in CRC calculations : Yes
Used interface : Native Win32 interface for Win NT & 2000
Gap handling : Appended to previous track

Used output format : User Defined Encoder
Selected bitrate : 1024 kBit/s
Quality : High
Add ID3 tag : No
Command line compressor : C:\Program Files (x86)\Exact Audio Copy\Flac\flac.exe
Additional command line options : -8 -V -T "ARTIST=%artist%" -T "TITLE=%title%" -T "ALBUM=%albumtitle%" -T "DATE=%year%" -T "TRACKNUMBER=%tracknr%" -T "GENRE=%genre%" -T "PERFORMER=%albuminterpret%" -T "COMPOSER=%composer%" %haslyrics%–tag-from-file=LYRICS="%lyricsfile%"%haslyrics% -T "ALBUMARTIST=%albumartist%" -T "DISCNUMBER=%cdnumber%" -T "TOTALDISCS=%totalcds%" -T "TOTALTRACKS=%numtracks%" -T "COMMENT=%comment%" %source% -o %dest%


TOC of the extracted CD

Track | Start | Length | Start sector | End sector
––––––––––––––––––––––––––––-
1 | 0:00.00 | 3:04.52 | 0 | 13851
2 | 3:04.52 | 12:09.42 | 13852 | 68568
3 | 15:14.19 | 2:25.04 | 68569 | 79447
4 | 17:39.23 | 4:04.10 | 79448 | 97757
5 | 21:43.33 | 6:32.46 | 97758 | 127203
6 | 28:16.04 | 15:09.74 | 127204 | 195452
7 | 43:26.03 | 7:43.05 | 195453 | 230182
8 | 51:09.08 | 5:35.31 | 230183 | 255338
9 | 56:44.39 | 2:31.36 | 255339 | 266699


Track 1

Filename D:\#EAC new\#wav+flac\#New\VA - Love Saves The Day\cd 1\01. Les Troubadours Du Roi Baudoin - Dibwe Diambula Kabanda.wav

Pre-gap length 0:00:02.00

Peak level 99.7 %
Extraction speed 4.8 X
Track quality 100.0 %
Test CRC FCEE347A
Copy CRC FCEE347A
Track not present in AccurateRip database
Copy OK

Track 2

Filename D:\#EAC new\#wav+flac\#New\VA - Love Saves The Day\cd 1\02. Chuck Mangione - Land Of Make Believe.wav

Pre-gap length 0:00:02.78

Peak level 99.9 %
Extraction speed 6.6 X
Track quality 100.0 %
Test CRC 4297105B
Copy CRC 4297105B
Track not present in AccurateRip database
Copy OK

Track 3

Filename D:\#EAC new\#wav+flac\#New\VA - Love Saves The Day\cd 1\03. Wilson Pickett - Don't Knock My Love (Part 1).wav

Pre-gap length 0:00:02.78

Peak level 99.8 %
Extraction speed 4.9 X
Track quality 99.9 %
Test CRC CC6A6220
Copy CRC CC6A6220
Track not present in AccurateRip database
Copy OK

Track 4

Filename D:\#EAC new\#wav+flac\#New\VA - Love Saves The Day\cd 1\04. Wilson Pickett - Don't Knock My Love (Part 2).wav

Pre-gap length 0:00:02.78

Peak level 99.9 %
Extraction speed 7.1 X
Track quality 100.0 %
Test CRC 2199EC0B
Copy CRC 2199EC0B
Track not present in AccurateRip database
Copy OK

Track 5

Filename D:\#EAC new\#wav+flac\#New\VA - Love Saves The Day\cd 1\05. James Brown - Give It Up Or Turnit A Loose.wav

Pre-gap length 0:00:02.78

Peak level 99.9 %
Extraction speed 8.1 X
Track quality 100.0 %
Test CRC 9E645D55
Copy CRC 9E645D55
Track not present in AccurateRip database
Copy OK

Track 6

Filename D:\#EAC new\#wav+flac\#New\VA - Love Saves The Day\cd 1\06. The Jackson 5 - Hum Along And Dance (Uncut Version).wav

Pre-gap length 0:00:02.78

Peak level 99.9 %
Extraction speed 8.9 X
Track quality 99.9 %
Test CRC D12EFE38
Copy CRC D12EFE38
Track not present in AccurateRip database
Copy OK

Track 7

Filename D:\#EAC new\#wav+flac\#New\VA - Love Saves The Day\cd 1\07. Brainstorm - Lovin' Is Really My Game (12'' Version).wav

Pre-gap length 0:00:02.78

Peak level 99.9 %
Extraction speed 10.1 X
Track quality 100.0 %
Test CRC B6E017D5
Copy CRC B6E017D5
Track not present in AccurateRip database
Copy OK

Track 8

Filename D:\#EAC new\#wav+flac\#New\VA - Love Saves The Day\cd 1\08. Domenic Troiano - We All Need Love (12'' Version).wav

Pre-gap length 0:00:02.78

Peak level 99.9 %
Extraction speed 10.1 X
Track quality 100.0 %
Test CRC ACE8BF30
Copy CRC ACE8BF30
Track not present in AccurateRip database
Copy OK

Track 9

Filename D:\#EAC new\#wav+flac\#New\VA - Love Saves The Day\cd 1\09. Gladys Knight & The Pips - It's Time To Go Now.wav

Pre-gap length 0:00:02.78

Peak level 99.8 %
Extraction speed 9.4 X
Track quality 100.0 %
Test CRC 27E23D6B
Copy CRC 27E23D6B
Track not present in AccurateRip database
Copy OK


None of the tracks are present in the AccurateRip database

No errors occurred

End of status report

–– CUETools DB Plugin V2.1.6

[CTDB TOCID: zl99L6er81zh.lDFrocK98sn.Xw-] found
Submit result: zl99L6er81zh.lDFrocK98sn.Xw- has been confirmed
Track | CTDB Status
1 | (3/3) Accurately ripped
2 | (3/3) Accurately ripped
3 | (3/3) Accurately ripped
4 | (3/3) Accurately ripped
5 | (3/3) Accurately ripped
6 | (3/3) Accurately ripped
7 | (3/3) Accurately ripped
8 | (3/3) Accurately ripped
9 | (3/3) Accurately ripped


==== Log checksum 239CC94AB307E49AEF63C2C3F609F06D511BF74B4AD92155142DF8F11D34ACF1 ====

––––––––––––––––––––––––––––––

Exact Audio Copy V1.3 from 2. September 2016

EAC extraction logfile from 8. October 2020, 8:59

Various Artists / Love Saves The Day

Used drive : PLEXTOR PX-891SAF Adapter: 1 ID: 0

Read mode : Secure
Utilize accurate stream : Yes
Defeat audio cache : Yes
Make use of C2 pointers : No

Read offset correction : 6
Overread into Lead-In and Lead-Out : No
Fill up missing offset samples with silence : Yes
Delete leading and trailing silent blocks : No
Null samples used in CRC calculations : Yes
Used interface : Native Win32 interface for Win NT & 2000
Gap handling : Appended to previous track

Used output format : User Defined Encoder
Selected bitrate : 1024 kBit/s
Quality : High
Add ID3 tag : No
Command line compressor : C:\Program Files (x86)\Exact Audio Copy\Flac\flac.exe
Additional command line options : -8 -V -T "ARTIST=%artist%" -T "TITLE=%title%" -T "ALBUM=%albumtitle%" -T "DATE=%year%" -T "TRACKNUMBER=%tracknr%" -T "GENRE=%genre%" -T "PERFORMER=%albuminterpret%" -T "COMPOSER=%composer%" %haslyrics%–tag-from-file=LYRICS="%lyricsfile%"%haslyrics% -T "ALBUMARTIST=%albumartist%" -T "DISCNUMBER=%cdnumber%" -T "TOTALDISCS=%totalcds%" -T "TOTALTRACKS=%numtracks%" -T "COMMENT=%comment%" %source% -o %dest%


TOC of the extracted CD

Track | Start | Length | Start sector | End sector
––––––––––––––––––––––––––––-
1 | 0:00.00 | 3:04.52 | 0 | 13851
2 | 3:04.52 | 12:09.42 | 13852 | 68568
3 | 15:14.19 | 2:25.04 | 68569 | 79447
4 | 17:39.23 | 4:04.10 | 79448 | 97757
5 | 21:43.33 | 6:32.46 | 97758 | 127203
6 | 28:16.04 | 15:09.74 | 127204 | 195452
7 | 43:26.03 | 7:43.05 | 195453 | 230182
8 | 51:09.08 | 5:35.31 | 230183 | 255338
9 | 56:44.39 | 2:31.36 | 255339 | 266699


Track 1

Filename D:\#EAC new\#wav+flac\#New\VA - Love Saves The Day\cd 1\01. Les Troubadours Du Roi Baudoin - Dibwe Diambula Kabanda.wav

Pre-gap length 0:00:02.00

Peak level 99.7 %
Extraction speed 4.8 X
Track quality 100.0 %
Test CRC FCEE347A
Copy CRC FCEE347A
Track not present in AccurateRip database
Copy OK

Track 2

Filename D:\#EAC new\#wav+flac\#New\VA - Love Saves The Day\cd 1\02. Chuck Mangione - Land Of Make Believe.wav

Pre-gap length 0:00:02.78

Peak level 99.9 %
Extraction speed 6.6 X
Track quality 100.0 %
Test CRC 4297105B
Copy CRC 4297105B
Track not present in AccurateRip database
Copy OK

Track 3

Filename D:\#EAC new\#wav+flac\#New\VA - Love Saves The Day\cd 1\03. Wilson Pickett - Don't Knock My Love (Part 1).wav

Pre-gap length 0:00:02.78

Peak level 99.8 %
Extraction speed 4.9 X
Track quality 99.9 %
Test CRC CC6A6220
Copy CRC CC6A6220
Track not present in AccurateRip database
Copy OK

Track 4

Filename D:\#EAC new\#wav+flac\#New\VA - Love Saves The Day\cd 1\04. Wilson Pickett - Don't Knock My Love (Part 2).wav

Pre-gap length 0:00:02.78

Peak level 99.9 %
Extraction speed 7.1 X
Track quality 100.0 %
Test CRC 2199EC0B
Copy CRC 2199EC0B
Track not present in AccurateRip database
Copy OK

Track 5

Filename D:\#EAC new\#wav+flac\#New\VA - Love Saves The Day\cd 1\05. James Brown - Give It Up Or Turnit A Loose.wav

Pre-gap length 0:00:02.78

Peak level 99.9 %
Extraction speed 8.1 X
Track quality 100.0 %
Test CRC 9E645D55
Copy CRC 9E645D55
Track not present in AccurateRip database
Copy OK

Track 6

Filename D:\#EAC new\#wav+flac\#New\VA - Love Saves The Day\cd 1\06. The Jackson 5 - Hum Along And Dance (Uncut Version).wav

Pre-gap length 0:00:02.78

Peak level 99.9 %
Extraction speed 8.9 X
Track quality 99.9 %
Test CRC D12EFE38
Copy CRC D12EFE38
Track not present in AccurateRip database
Copy OK

Track 7

Filename D:\#EAC new\#wav+flac\#New\VA - Love Saves The Day\cd 1\07. Brainstorm - Lovin' Is Really My Game (12'' Version).wav

Pre-gap length 0:00:02.78

Peak level 99.9 %
Extraction speed 10.1 X
Track quality 100.0 %
Test CRC B6E017D5
Copy CRC B6E017D5
Track not present in AccurateRip database
Copy OK

Track 8

Filename D:\#EAC new\#wav+flac\#New\VA - Love Saves The Day\cd 1\08. Domenic Troiano - We All Need Love (12'' Version).wav

Pre-gap length 0:00:02.78

Peak level 99.9 %
Extraction speed 10.1 X
Track quality 100.0 %
Test CRC ACE8BF30
Copy CRC ACE8BF30
Track not present in AccurateRip database
Copy OK

Track 9

Filename D:\#EAC new\#wav+flac\#New\VA - Love Saves The Day\cd 1\09. Gladys Knight & The Pips - It's Time To Go Now.wav

Pre-gap length 0:00:02.78

Peak level 99.8 %
Extraction speed 9.4 X
Track quality 100.0 %
Test CRC 27E23D6B
Copy CRC 27E23D6B
Track not present in AccurateRip database
Copy OK


None of the tracks are present in the AccurateRip database

No errors occurred

End of status report

–– CUETools DB Plugin V2.1.6

[CTDB TOCID: zl99L6er81zh.lDFrocK98sn.Xw-] found
Submit result: zl99L6er81zh.lDFrocK98sn.Xw- has been confirmed
Track | CTDB Status
1 | (3/3) Accurately ripped
2 | (3/3) Accurately ripped
3 | (3/3) Accurately ripped
4 | (3/3) Accurately ripped
5 | (3/3) Accurately ripped
6 | (3/3) Accurately ripped
7 | (3/3) Accurately ripped
8 | (3/3) Accurately ripped
9 | (3/3) Accurately ripped


==== Log checksum 239CC94AB307E49AEF63C2C3F609F06D511BF74B4AD92155142DF8F11D34ACF1 ====
Exact Audio Copy V1.3 from 2. September 2016

EAC extraction logfile from 8. October 2020, 9:15

Various Artists / Love Saves The Day

Used drive : PLEXTOR PX-891SAF Adapter: 1 ID: 0

Read mode : Secure
Utilize accurate stream : Yes
Defeat audio cache : Yes
Make use of C2 pointers : No

Read offset correction : 6
Overread into Lead-In and Lead-Out : No
Fill up missing offset samples with silence : Yes
Delete leading and trailing silent blocks : No
Null samples used in CRC calculations : Yes
Used interface : Native Win32 interface for Win NT & 2000
Gap handling : Appended to previous track

Used output format : User Defined Encoder
Selected bitrate : 1024 kBit/s
Quality : High
Add ID3 tag : No
Command line compressor : C:\Program Files (x86)\Exact Audio Copy\Flac\flac.exe
Additional command line options : -8 -V -T "ARTIST=%artist%" -T "TITLE=%title%" -T "ALBUM=%albumtitle%" -T "DATE=%year%" -T "TRACKNUMBER=%tracknr%" -T "GENRE=%genre%" -T "PERFORMER=%albuminterpret%" -T "COMPOSER=%composer%" %haslyrics%–tag-from-file=LYRICS="%lyricsfile%"%haslyrics% -T "ALBUMARTIST=%albumartist%" -T "DISCNUMBER=%cdnumber%" -T "TOTALDISCS=%totalcds%" -T "TOTALTRACKS=%numtracks%" -T "COMMENT=%comment%" %source% -o %dest%


TOC of the extracted CD

Track | Start | Length | Start sector | End sector
––––––––––––––––––––––––––––-
1 | 0:00.00 | 4:49.67 | 0 | 21741
2 | 4:49.67 | 7:30.30 | 21742 | 55521
3 | 12:20.22 | 4:00.69 | 55522 | 73590
4 | 16:21.16 | 4:18.16 | 73591 | 92956
5 | 20:39.32 | 5:26.26 | 92957 | 117432
6 | 26:05.58 | 5:17.05 | 117433 | 141212
7 | 31:22.63 | 6:24.19 | 141213 | 170031
8 | 37:47.07 | 9:34.22 | 170032 | 213103
9 | 47:21.29 | 6:28.45 | 213104 | 242248


Track 1

Filename D:\#EAC new\#wav+flac\#New\VA - Love Saves The Day\cd 2\01. Willie Hutch - Brother's Gonna Work It Out.wav

Pre-gap length 0:00:02.00

Peak level 99.9 %
Extraction speed 5.3 X
Track quality 100.0 %
Test CRC 1B2EAD24
Copy CRC 1B2EAD24
Track not present in AccurateRip database
Copy OK

Track 2

Filename D:\#EAC new\#wav+flac\#New\VA - Love Saves The Day\cd 2\02. Charles Earland - Leaving This Planet.wav

Pre-gap length 0:00:02.78

Peak level 99.7 %
Extraction speed 6.3 X
Track quality 100.0 %
Test CRC B0CF29BD
Copy CRC B0CF29BD
Track not present in AccurateRip database
Copy OK

Track 3

Filename D:\#EAC new\#wav+flac\#New\VA - Love Saves The Day\cd 2\03. Laura Lee - (If You Want To Try Love Again) Remember Me.wav

Pre-gap length 0:00:02.78

Peak level 99.9 %
Extraction speed 6.6 X
Track quality 100.0 %
Test CRC C7119679
Copy CRC C7119679
Track not present in AccurateRip database
Copy OK

Track 4

Filename D:\#EAC new\#wav+flac\#New\VA - Love Saves The Day\cd 2\04. The Modulations - I Can't Fight Your Love.wav

Pre-gap length 0:00:02.78

Peak level 99.8 %
Extraction speed 7.1 X
Track quality 100.0 %
Test CRC 1138DFA9
Copy CRC 1138DFA9
Track not present in AccurateRip database
Copy OK

Track 5

Filename D:\#EAC new\#wav+flac\#New\VA - Love Saves The Day\cd 2\05. Margie Joseph - Prophecy.wav

Pre-gap length 0:00:02.78

Peak level 99.9 %
Extraction speed 6.7 X
Track quality 99.9 %
Test CRC AB7F3000
Copy CRC AB7F3000
Track not present in AccurateRip database
Copy OK

Track 6

Filename D:\#EAC new\#wav+flac\#New\VA - Love Saves The Day\cd 2\06. Blue Magic - Welcome To The Club.wav

Pre-gap length 0:00:02.78

Peak level 99.9 %
Extraction speed 7.1 X
Track quality 99.9 %
Test CRC A9890096
Copy CRC A9890096
Track not present in AccurateRip database
Copy OK

Track 7

Filename D:\#EAC new\#wav+flac\#New\VA - Love Saves The Day\cd 2\07. Twennynine With Lenny White - Fancy Dancer (12'' Version).wav

Pre-gap length 0:00:02.78

Peak level 99.8 %
Extraction speed 8.8 X
Track quality 100.0 %
Test CRC 044D41FC
Copy CRC 044D41FC
Track not present in AccurateRip database
Copy OK

Track 8

Filename D:\#EAC new\#wav+flac\#New\VA - Love Saves The Day\cd 2\08. Miroslav Vitous - New York City.wav

Pre-gap length 0:00:02.78

Peak level 99.9 %
Extraction speed 9.7 X
Track quality 100.0 %
Test CRC E5768D31
Copy CRC E5768D31
Track not present in AccurateRip database
Copy OK

Track 9

Filename D:\#EAC new\#wav+flac\#New\VA - Love Saves The Day\cd 2\09. Edgar Winter - Above And Beyond (12'' Version).wav

Pre-gap length 0:00:02.78

Peak level 99.8 %
Extraction speed 10.0 X
Track quality 100.0 %
Test CRC 3B76B3A1
Copy CRC 3B76B3A1
Track not present in AccurateRip database
Copy OK


None of the tracks are present in the AccurateRip database

No errors occurred

End of status report

–– CUETools DB Plugin V2.1.6

[CTDB TOCID: p3B6glvwjGtbkQHyX0H_kJa4lh0-] found
Submit result: p3B6glvwjGtbkQHyX0H_kJa4lh0- has been confirmed
Track | CTDB Status
1 | (3/3) Accurately ripped
2 | (3/3) Accurately ripped
3 | (3/3) Accurately ripped
4 | (3/3) Accurately ripped
5 | (3/3) Accurately ripped
6 | (3/3) Accurately ripped
7 | (3/3) Accurately ripped
8 | (3/3) Accurately ripped
9 | (3/3) Accurately ripped


==== Log checksum F16C5060CD92EF8C14BAED8483686399A9B69DC428745C47F90B57F922E1E807 ====

––––––––––––––––––––––––––––––

Exact Audio Copy V1.3 from 2. September 2016

EAC extraction logfile from 8. October 2020, 9:15

Various Artists / Love Saves The Day

Used drive : PLEXTOR PX-891SAF Adapter: 1 ID: 0

Read mode : Secure
Utilize accurate stream : Yes
Defeat audio cache : Yes
Make use of C2 pointers : No

Read offset correction : 6
Overread into Lead-In and Lead-Out : No
Fill up missing offset samples with silence : Yes
Delete leading and trailing silent blocks : No
Null samples used in CRC calculations : Yes
Used interface : Native Win32 interface for Win NT & 2000
Gap handling : Appended to previous track

Used output format : User Defined Encoder
Selected bitrate : 1024 kBit/s
Quality : High
Add ID3 tag : No
Command line compressor : C:\Program Files (x86)\Exact Audio Copy\Flac\flac.exe
Additional command line options : -8 -V -T "ARTIST=%artist%" -T "TITLE=%title%" -T "ALBUM=%albumtitle%" -T "DATE=%year%" -T "TRACKNUMBER=%tracknr%" -T "GENRE=%genre%" -T "PERFORMER=%albuminterpret%" -T "COMPOSER=%composer%" %haslyrics%–tag-from-file=LYRICS="%lyricsfile%"%haslyrics% -T "ALBUMARTIST=%albumartist%" -T "DISCNUMBER=%cdnumber%" -T "TOTALDISCS=%totalcds%" -T "TOTALTRACKS=%numtracks%" -T "COMMENT=%comment%" %source% -o %dest%


TOC of the extracted CD

Track | Start | Length | Start sector | End sector
––––––––––––––––––––––––––––-
1 | 0:00.00 | 4:49.67 | 0 | 21741
2 | 4:49.67 | 7:30.30 | 21742 | 55521
3 | 12:20.22 | 4:00.69 | 55522 | 73590
4 | 16:21.16 | 4:18.16 | 73591 | 92956
5 | 20:39.32 | 5:26.26 | 92957 | 117432
6 | 26:05.58 | 5:17.05 | 117433 | 141212
7 | 31:22.63 | 6:24.19 | 141213 | 170031
8 | 37:47.07 | 9:34.22 | 170032 | 213103
9 | 47:21.29 | 6:28.45 | 213104 | 242248


Track 1

Filename D:\#EAC new\#wav+flac\#New\VA - Love Saves The Day\cd 2\01. Willie Hutch - Brother's Gonna Work It Out.wav

Pre-gap length 0:00:02.00

Peak level 99.9 %
Extraction speed 5.3 X
Track quality 100.0 %
Test CRC 1B2EAD24
Copy CRC 1B2EAD24
Track not present in AccurateRip database
Copy OK

Track 2

Filename D:\#EAC new\#wav+flac\#New\VA - Love Saves The Day\cd 2\02. Charles Earland - Leaving This Planet.wav

Pre-gap length 0:00:02.78

Peak level 99.7 %
Extraction speed 6.3 X
Track quality 100.0 %
Test CRC B0CF29BD
Copy CRC B0CF29BD
Track not present in AccurateRip database
Copy OK

Track 3

Filename D:\#EAC new\#wav+flac\#New\VA - Love Saves The Day\cd 2\03. Laura Lee - (If You Want To Try Love Again) Remember Me.wav

Pre-gap length 0:00:02.78

Peak level 99.9 %
Extraction speed 6.6 X
Track quality 100.0 %
Test CRC C7119679
Copy CRC C7119679
Track not present in AccurateRip database
Copy OK

Track 4

Filename D:\#EAC new\#wav+flac\#New\VA - Love Saves The Day\cd 2\04. The Modulations - I Can't Fight Your Love.wav

Pre-gap length 0:00:02.78

Peak level 99.8 %
Extraction speed 7.1 X
Track quality 100.0 %
Test CRC 1138DFA9
Copy CRC 1138DFA9
Track not present in AccurateRip database
Copy OK

Track 5

Filename D:\#EAC new\#wav+flac\#New\VA - Love Saves The Day\cd 2\05. Margie Joseph - Prophecy.wav

Pre-gap length 0:00:02.78

Peak level 99.9 %
Extraction speed 6.7 X
Track quality 99.9 %
Test CRC AB7F3000
Copy CRC AB7F3000
Track not present in AccurateRip database
Copy OK

Track 6

Filename D:\#EAC new\#wav+flac\#New\VA - Love Saves The Day\cd 2\06. Blue Magic - Welcome To The Club.wav

Pre-gap length 0:00:02.78

Peak level 99.9 %
Extraction speed 7.1 X
Track quality 99.9 %
Test CRC A9890096
Copy CRC A9890096
Track not present in AccurateRip database
Copy OK

Track 7

Filename D:\#EAC new\#wav+flac\#New\VA - Love Saves The Day\cd 2\07. Twennynine With Lenny White - Fancy Dancer (12'' Version).wav

Pre-gap length 0:00:02.78

Peak level 99.8 %
Extraction speed 8.8 X
Track quality 100.0 %
Test CRC 044D41FC
Copy CRC 044D41FC
Track not present in AccurateRip database
Copy OK

Track 8

Filename D:\#EAC new\#wav+flac\#New\VA - Love Saves The Day\cd 2\08. Miroslav Vitous - New York City.wav

Pre-gap length 0:00:02.78

Peak level 99.9 %
Extraction speed 9.7 X
Track quality 100.0 %
Test CRC E5768D31
Copy CRC E5768D31
Track not present in AccurateRip database
Copy OK

Track 9

Filename D:\#EAC new\#wav+flac\#New\VA - Love Saves The Day\cd 2\09. Edgar Winter - Above And Beyond (12'' Version).wav

Pre-gap length 0:00:02.78

Peak level 99.8 %
Extraction speed 10.0 X
Track quality 100.0 %
Test CRC 3B76B3A1
Copy CRC 3B76B3A1
Track not present in AccurateRip database
Copy OK


None of the tracks are present in the AccurateRip database

No errors occurred

End of status report

–– CUETools DB Plugin V2.1.6

[CTDB TOCID: p3B6glvwjGtbkQHyX0H_kJa4lh0-] found
Submit result: p3B6glvwjGtbkQHyX0H_kJa4lh0- has been confirmed
Track | CTDB Status
1 | (3/3) Accurately ripped
2 | (3/3) Accurately ripped
3 | (3/3) Accurately ripped
4 | (3/3) Accurately ripped
5 | (3/3) Accurately ripped
6 | (3/3) Accurately ripped
7 | (3/3) Accurately ripped
8 | (3/3) Accurately ripped
9 | (3/3) Accurately ripped


==== Log checksum F16C5060CD92EF8C14BAED8483686399A9B69DC428745C47F90B57F922E1E807 ====

Thanks to the Original ripper !