Subcategories

Various Artists - Masters Of Fusion - The Definitive Collection (2012) {16CD Set EMI 50999 624886 2 4}

Posted By: ruskaval
Various Artists - Masters Of Fusion - The Definitive Collection (2012) {16CD Set EMI 50999 624886 2 4}

Various Artists - Masters Of Fusion - The Definitive Collection (2012) {16CD Set EMI 50999 624886 2 4}
EAC rip (secure mode) | FLAC (tracks)+CUE+LOG -> 5.44 Gb | MP3 @320 -> 2.00 Gb
Full Artwork @ 300 dpi (png) -> 163 Mb | 5% repair rar
© 2012 EMI Music / Virgin Records (India) | 50999 624886 2 4
Jazz / Fusion / Indian Music

Indian masters connect jazz, classics and national melodies. This is fusion.
Various Artists - Masters Of Fusion - The Definitive Collection (2012) {16CD Set EMI 50999 624886 2 4}


CDs
CD 1. Confluence by Rahul Sharma & Richard Clayderman
CD 2. Bada Boom by Ranjit Barot
CD 3. Colours by Ustad Zakir Hussain & Kunnakudi Vaidyanathan
CD 4. Shiva Moon by Prem Joshua
CD 5. Moon Magic by Pandit Hariprasad Chaurasia
CD 6. Together by Niladri Kumar & Talvin Singh
CD 7. Thumri Funk by Pandit Ajay Pohankar & Abhijit Pohankar
CD 8. Fiery Drums by Ricky Kej
CD 9. Ravi Chary Crossing by Ravindra Chary
CD 10. Maya Maya
CD 11. Sitarscape by Purbayan Chatterjee
CD 12. Depths Of The Ocean by Susmit Sen
CD 13. Mesmerizing Flute by Ricky Kej
CD 14. The Urban Grooves Project: India
CD 15. East Blends West Western Classical Various
CD 16. Grounded In Space by Advaita

Musicians
Ustad Zakir Hussain, Talvin Singh, Abhijit Pohankar, Ricky Kej, Kunnakkudi R Vaidyanathan, Pandit Ajay Pohankar, Ravindra Chary, Advaita, Ranjit Barot, Pandit Hariprasad Chaurasia, Various, Rahul Sharma, Niladri Kumar, The Urban Grooves Project, Richard Clayderman, Prem Joshua, Purbayan Chatterjee, Susmit Sen, Ricky Kej, and others..

TRACK LISTING & PERSONNEL

Richard Clayderman & Rahul Sharma - The Confluence


1. Richard Clayderman & Rahul Sharma - Together [06:04]
2. Richard Clayderman & Rahul Sharma - Jaisalmer [07:17]
3. Richard Clayderman & Rahul Sharma - Yeh Hai Bambai Meri Jaan[05:04]
4. Richard Clayderman & Rahul Sharma - Blues Heaven [05:52]
5. Richard Clayderman & Rahul Sharma - Tere Ghar Ke Samne [04:06]
6. Richard Clayderman & Rahul Sharma - Ecstasy [07:36]
7. Richard Clayderman & Rahul Sharma - Dekha Ek Khwab [06:37]
8. Richard Clayderman & Rahul Sharma - Norwegian Wood [03:11]
9. Richard Clayderman & Rahul Sharma - Shangrila [06:22]
10. Richard Clayderman & Rahul Sharma - Celebration [05:08]

Various Artists - Masters Of Fusion - The Definitive Collection (2012) {16CD Set EMI 50999 624886 2 4}

Various Artists - Masters Of Fusion - The Definitive Collection (2012) {16CD Set EMI 50999 624886 2 4}



Ranjit Barot - bada boom

1. Ranjit Barot - Singularity [08:00]
2. Ranjit Barot - T=0 [06:41]
3. Ranjit Barot - Revolutions [08:35]
4. Ranjit Barot - Supernova [10:07]
5. Ranjit Barot - Dark Matter [07:51]
6. Ranjit Barot - Origin [05:54]

Various Artists - Masters Of Fusion - The Definitive Collection (2012) {16CD Set EMI 50999 624886 2 4}

Various Artists - Masters Of Fusion - The Definitive Collection (2012) {16CD Set EMI 50999 624886 2 4}



Zakir Hussain & Kunnakkudi Vaidyanathan - Colours Golden Krithis

1. Zakir Hussain & Kunnakkudi Vaidyanathan - Quest for Music (Raag Maya Malava Gowla)[03:56]
2. Zakir Hussain & Kunnakkudi Vaidyanathan - Valliya Naayaganae (Raag Shanmukha Priya)[15:13]
3. Zakir Hussain & Kunnakkudi Vaidyanathan - Evolution (Raag Maya Malava Gowla)[08:44]
4. Zakir Hussain & Kunnakkudi Vaidyanathan - Saamajavaragamana (Raag hindol)[15:34]
5. Zakir Hussain & Kunnakkudi Vaidyanathan - Abharaama Bhakti (Raag Bandhuvaraali)[13:18]

Various Artists - Masters Of Fusion - The Definitive Collection (2012) {16CD Set EMI 50999 624886 2 4}

Various Artists - Masters Of Fusion - The Definitive Collection (2012) {16CD Set EMI 50999 624886 2 4}


Prem Joshua - Shiva Moon


1. Prem Joshua - Darbari NYC (Diamond Turban Remix) [06:57]
2. Prem Joshua - Shiva Moon (Intro) [01:35]
3. Prem Joshua - Shiva Moon (Moon Nectar Remix) [06:40]
4. Prem Joshua - Tangerine Thumri (Orange Turban Mix) [07:12]
5. Prem Joshua - Bolo Hari (Bombay Lounge Remix) [05:52]
6. Prem Joshua - Tilang Tantra - (Temple Mix) [05:25]
7. Prem Joshua - Saffron Dreams - (Spice Shop Remix) [07:26]
8. Prem Joshua - Omar - (Purple Turban Mix) [04:31]
9. Prem Joshua - Seventh Eclipse - (Timbuktu Remix) [04:58]

Various Artists - Masters Of Fusion - The Definitive Collection (2012) {16CD Set EMI 50999 624886 2 4}

Various Artists - Masters Of Fusion - The Definitive Collection (2012) {16CD Set EMI 50999 624886 2 4}


Pt. Hariprasad Chaurasia - Moon Magic


1. Pt. Hariprasad Chaurasia - Caravan to Timbuktu [04:10]
2. Pt. Hariprasad Chaurasia - Dead leaves [06:30]
3. Pt. Hariprasad Chaurasia - Love is the winner [03:18]
4. Pt. Hariprasad Chaurasia - Journey to the light within [03:11]
5. Pt. Hariprasad Chaurasia - Ranbow on the wings [03:06]
6. Pt. Hariprasad Chaurasia - Moon Magic [04:08]
7. Pt. Hariprasad Chaurasia - One World [06:03]
8. Pt. Hariprasad Chaurasia - No Fear [03:33]
9. Pt. Hariprasad Chaurasia - God is in you [03:40]
10. Pt. Hariprasad Chaurasia - Listen to the sound Listen to the silence[04:22]
11. Pt. Hariprasad Chaurasia - Flight of the eagle [06:08]
12. Pt. Hariprasad Chaurasia - Song to Madhu Babma, the marabu of senegal[04:23]

Various Artists - Masters Of Fusion - The Definitive Collection (2012) {16CD Set EMI 50999 624886 2 4}

Various Artists - Masters Of Fusion - The Definitive Collection (2012) {16CD Set EMI 50999 624886 2 4}


Talvin Singh & Niladri Kumar - Together

1. Talvin Singh & Niladri Kumar - River [05:55]
2. Talvin Singh & Niladri Kumar - Pink [02:34]
3. Talvin Singh & Niladri Kumar - Mirror [03:22]
4. Talvin Singh & Niladri Kumar - Ananta [04:41]
5. Talvin Singh & Niladri Kumar - Together [09:53]
6. Talvin Singh & Niladri Kumar - Jogi [04:06]
7. Talvin Singh & Niladri Kumar - Play [01:39]
8. Talvin Singh & Niladri Kumar - The Bliss [05:36]
9. Talvin Singh & Niladri Kumar - Threads [10:57]
10. Talvin Singh & Niladri Kumar - Joy [05:54]

Various Artists - Masters Of Fusion - The Definitive Collection (2012) {16CD Set EMI 50999 624886 2 4}

Various Artists - Masters Of Fusion - The Definitive Collection (2012) {16CD Set EMI 50999 624886 2 4}


Pt. Ajay Pohankar & Abhijit Pohankar - Thumri Funk


1. Pt. Ajay Pohankar & Abhijit Pohankar - Ab Ke Sawan Ghar Aaja[06:12]
2. Pt. Ajay Pohankar & Abhijit Pohankar - Naina More [05:38]
3. Pt. Ajay Pohankar & Abhijit Pohankar - Tore Naino Ne Jadu[04:54]
4. Pt. Ajay Pohankar & Abhijit Pohankar - Balamwa Tum Kya Jano[06:36]
5. Pt. Ajay Pohankar & Abhijit Pohankar - Yaad Piya Ki [05:08]
6. Pt. Ajay Pohankar & Abhijit Pohankar - Ras Ke Bare Tore [04:21]
7. Pt. Ajay Pohankar & Abhijit Pohankar - Naina more [06:00]

Various Artists - Masters Of Fusion - The Definitive Collection (2012) {16CD Set EMI 50999 624886 2 4}

Various Artists - Masters Of Fusion - The Definitive Collection (2012) {16CD Set EMI 50999 624886 2 4}


Ricky Kej - Fiery Drums


1. Ricky Kej - Prance [04:26]
2. Ricky Kej - Dub Bol [03:45]
3. Ricky Kej - Dance of Fate [06:04]
4. Ricky Kej - Temple Trance [05:35]
5. Ricky Kej - African Idli [05:12]
6. Ricky Kej - Arabian Sea [05:55]
7. Ricky Kej - Madras State of Mind [05:08]
8. Ricky Kej - South Indian Surprise [04:51]
9. Ricky Kej - A Myth [06:18]
10. Ricky Kej - Tandav [04:13]

Various Artists - Masters Of Fusion - The Definitive Collection (2012) {16CD Set EMI 50999 624886 2 4}

Various Artists - Masters Of Fusion - The Definitive Collection (2012) {16CD Set EMI 50999 624886 2 4}


Ravi Chary - Crossing

1. Ravi Chary - Yogi [06:51]
2. Ravi Chary - 5.5 [06:04]
3. Ravi Chary - Sadguru [08:22]
4. Ravi Chary - Tree Of Souls [05:50]
5. Ravi Chary - Synergy [06:21]
6. Ravi Chary - Myra [12:26]
7. Ravi Chary - Divine Sphere [06:36]
8. Ravi Chary - Funk Jog [04:46]
9. Ravi Chary - Twilight [07:50]

Various Artists - Masters Of Fusion - The Definitive Collection (2012) {16CD Set EMI 50999 624886 2 4}

Various Artists - Masters Of Fusion - The Definitive Collection (2012) {16CD Set EMI 50999 624886 2 4}


Maya - Maya


1. Maya - Oceans Spray [08:18]
2. Maya - Move Along [06:29]
3. Maya - Feel it [09:11]
4. Maya - Power of 4 [06:37]
5. Maya - Bliss [05:06]
6. Maya - Maya [06:33]
7. Maya - Through Alps [07:22]

Various Artists - Masters Of Fusion - The Definitive Collection (2012) {16CD Set EMI 50999 624886 2 4}

Various Artists - Masters Of Fusion - The Definitive Collection (2012) {16CD Set EMI 50999 624886 2 4}


Purbayan Chatterjee - Sitarscope


1. Purbayan Chatterjee - Soul Mate [03:38]
2. Purbayan Chatterjee - Sagar Kinare [04:06]
3. Purbayan Chatterjee - Thundering Typhoons [03:39]
4. Purbayan Chatterjee - Synphony No 40 (Mozart) [04:11]
5. Purbayan Chatterjee - Kya Yehi Pyaar Hai [05:20]
6. Purbayan Chatterjee - Dance With The Clouds [03:57]
7. Purbayan Chatterjee - No Waman No Cry [03:15]
8. Purbayan Chatterjee - Waltz In Paradise [03:07]
9. Purbayan Chatterjee - Red Rain [04:09]
10. Purbayan Chatterjee - Chorono Dhorite (Original Composition By Rabndranath Tagore)[05:52]

Various Artists - Masters Of Fusion - The Definitive Collection (2012) {16CD Set EMI 50999 624886 2 4}

Various Artists - Masters Of Fusion - The Definitive Collection (2012) {16CD Set EMI 50999 624886 2 4}


Susmit Sen - Depths of the Ocean


1. Susmit Sen - Rejuvenation (feat. Asheem Chakravarty) [09:51]
2. Susmit Sen - City Lights (feat. Shubha Mudgal) [11:25]
3. Susmit Sen - Depths of the Ocean (feat. Nitim Malik) [10:10]
4. Susmit Sen - Tribute (A one take solo guitar piece) [10:51]
5. Susmit Sen - Wild Epiphany (feat. Papon) [08:18]
6. Susmit Sen - Intimacy (feat. Sari Roy) [06:47]
7. Susmit Sen - Six String Salute A solo guitar rendition of the National Anthem)[02:44]

Various Artists - Masters Of Fusion - The Definitive Collection (2012) {16CD Set EMI 50999 624886 2 4}

Various Artists - Masters Of Fusion - The Definitive Collection (2012) {16CD Set EMI 50999 624886 2 4}


Ricky Kej - Mesmerizing Flute

1. Ricky Kej - Monsoon [04:50]
2. Ricky Kej - Without You [04:21]
3. Ricky Kej - The Ocean [07:07]
4. Ricky Kej - Tu Hi Re (From the film Bombay) [05:02]
5. Ricky Kej - A Love Story [05:30]
6. Ricky Kej - A Taste Of Honey [04:57]
7. Ricky Kej - Making Up [06:22]
8. Ricky Kej - The Longing [04:54]
9. Ricky Kej - Missing You [05:59]
10. Ricky Kej - Hothon Se Choo Lo Tum (A Tribute to Jagjit Singh)[04:33]

Various Artists - Masters Of Fusion - The Definitive Collection (2012) {16CD Set EMI 50999 624886 2 4}

Various Artists - Masters Of Fusion - The Definitive Collection (2012) {16CD Set EMI 50999 624886 2 4}


Arani - The Urban Grooves Project: India

1. Arani - White Flower [07:14]
2. Beenti - The Lost Ring [05:01]
3. Katyu Chukh - Call For Deliverance [06:08]
4. Dapyomas Bal Yaras - The Light Within [05:33]
5. Hridh Majhare - My Precious Love [05:02]
6. Deebanishi - Boatman's Lament [06:04]
7. Kala Shankala & Gora Rang - Wedding Songs [05:23]
8. Heer - A Ballad Of Undying Love [08:01]
9. Job Kurian - Kaythola Paaya Virichu (Malayalam Folk Song)[04:20]
10. Chaitra HG - Balakrishnan Di (Tamil Folk Song) [03:34]
11. Piyush Soni - Mhaka Naka Go (The Goan Cult Song) [03:49]
12. Piyush Soni - Goa Massala Mix [06:02]

Various Artists - Masters Of Fusion - The Definitive Collection (2012) {16CD Set EMI 50999 624886 2 4}

Various Artists - Masters Of Fusion - The Definitive Collection (2012) {16CD Set EMI 50999 624886 2 4}


VA - East Blends West


1. Lokesh Anand - Swan Lake, Op. 20 - Scene, Act 2 - 10 (Tchaikovsky)[07:29]
2. Murad Ali Khan - Symphony 40 in G Minor, K 550 - Molto Allegro (Mozart)[06:34]
3. Sudhir Gautam - Fur Elise (Beethoven) [06:40]
4. Fateh Ali Khan - Serenade13 InG K525, Eine Kleine Nachtmusik-1 Allegro[05:54]
5. Kiran Kumar Sharma - The Four Seasons, Spring, Op.8-1-1 Allegro (Vivaldi)[06:12]
6. Sharat Chandra Srivastava - Carmina Burana, O Fortuna (Orff)[07:04]
7. Sharat Chandra Srivastava - Symphony25 in GMinor K183-1 Allegro Con Brio[02:38]
8. Neel Ranjan Mukherjee - Symphony No. 9 Ode To Joy (Beethoven)[06:45]
9. Vidushi Saraswati Rajagopalan - Piano Sonata No. 11 in A Major K331 (Mozart)[07:19]
10. G. Raghuraman - Peer Gynt - Prelude To Act 4 Morning (Grieg)[06:55]
11. Pt. Mukesh Sharma - Yumeji Theme - In The Mood For Love (Umebayashi)[07:05]

Various Artists - Masters Of Fusion - The Definitive Collection (2012) {16CD Set EMI 50999 624886 2 4}

Various Artists - Masters Of Fusion - The Definitive Collection (2012) {16CD Set EMI 50999 624886 2 4}


VA - Grounded In Space

1. Advaita - Rasiya [05:38]
2. Advaita - Suspended [04:31]
3. Advaita - Miliha [05:28]
4. Advaita - Ghir Ghir [05:05]
5. Advaita - Drops of Earth [05:17]
6. Advaita - Gates Of Dawn [07:06]
7. Advaita - So Lost [07:43]
8. Advaita - Durga [05:16]
9. Advaita - Mere Yaar [03:45]
10. Advaita - Hansadhwani [06:17]

Various Artists - Masters Of Fusion - The Definitive Collection (2012) {16CD Set EMI 50999 624886 2 4}

Various Artists - Masters Of Fusion - The Definitive Collection (2012) {16CD Set EMI 50999 624886 2 4}


Exact Audio Copy V1.0 beta 3 from 29. August 2011

EAC extraction logfile from 21. November 2013, 16:23

Richard Clayderman & Rahul Sharma / The Confluence

Used drive : HL-DT-STDVDRAM GE20LU10 Adapter: 3 ID: 0

Read mode : Secure
Utilize accurate stream : Yes
Defeat audio cache : Yes
Make use of C2 pointers : No

Read offset correction : 667
Overread into Lead-In and Lead-Out : No
Fill up missing offset samples with silence : Yes
Delete leading and trailing silent blocks : No
Null samples used in CRC calculations : Yes
Used interface : Native Win32 interface for Win NT & 2000
Gap handling : Appended to previous track

Used output format : User Defined Encoder
Selected bitrate : 128 kBit/s
Quality : High
Add ID3 tag : No
Command line compressor : C:\Program Files\Exact Audio Copy\Flac\flac.exe
Additional command line options : -8 -V -T "ARTIST=%artist%" -T "TITLE=%title%" -T "ALBUM=%albumtitle%" -T "DATE=%year%" -T "TRACKNUMBER=%tracknr%" -T "TOTALTRACKS=%numtracks%" -T "GENRE=%genre%" -T "ALBUMARTIST=%albumartist%" -T "ALBUM ARTIST=%albumartist%" -T "COMMENT=EAC Secure Mode, Test & Copy, AccurateRip, FLAC -8" %source%


TOC of the extracted CD

Track | Start | Length | Start sector | End sector
––––––––––––––––––––––––––––-
1 | 0:00.00 | 6:04.52 | 0 | 27351
2 | 6:04.52 | 7:17.70 | 27352 | 60196
3 | 13:22.47 | 5:04.63 | 60197 | 83059
4 | 18:27.35 | 5:52.57 | 83060 | 109516
5 | 24:20.17 | 4:06.45 | 109517 | 128011
6 | 28:26.62 | 7:36.47 | 128012 | 162258
7 | 36:03.34 | 6:37.06 | 162259 | 192039
8 | 42:40.40 | 3:11.44 | 192040 | 206408
9 | 45:52.09 | 6:22.73 | 206409 | 235131
10 | 52:15.07 | 5:08.49 | 235132 | 258280


Track 1

Filename D:\EAC_FLAC\Various Artists - Masters Of Fusion The Definitive Collection\Richard Clayderman & Rahul Sharma - The Confluence\01 - Together.wav

Pre-gap length 0:00:02.00

Peak level 98.8 %
Extraction speed 1.2 X
Track quality 100.0 %
Test CRC DC2A5CCC
Copy CRC DC2A5CCC
Accurately ripped (confidence 3) [C79BAE5D] (AR v2)
Copy OK

Track 2

Filename D:\EAC_FLAC\Various Artists - Masters Of Fusion The Definitive Collection\Richard Clayderman & Rahul Sharma - The Confluence\02 - Jaisalmer.wav

Peak level 100.0 %
Extraction speed 1.3 X
Track quality 99.9 %
Test CRC 9F9AB5CB
Copy CRC 9F9AB5CB
Accurately ripped (confidence 3) [F5DF5392] (AR v2)
Copy OK

Track 3

Filename D:\EAC_FLAC\Various Artists - Masters Of Fusion The Definitive Collection\Richard Clayderman & Rahul Sharma - The Confluence\03 - Yeh Hai Bambai Meri Jaan.wav

Peak level 100.0 %
Extraction speed 1.5 X
Track quality 100.0 %
Test CRC F7AD2B87
Copy CRC F7AD2B87
Accurately ripped (confidence 3) [9D18D6C3] (AR v2)
Copy OK

Track 4

Filename D:\EAC_FLAC\Various Artists - Masters Of Fusion The Definitive Collection\Richard Clayderman & Rahul Sharma - The Confluence\04 - Blues Heaven.wav

Peak level 98.8 %
Extraction speed 1.7 X
Track quality 100.0 %
Test CRC 625B842B
Copy CRC 625B842B
Accurately ripped (confidence 3) [D3348E74] (AR v2)
Copy OK

Track 5

Filename D:\EAC_FLAC\Various Artists - Masters Of Fusion The Definitive Collection\Richard Clayderman & Rahul Sharma - The Confluence\05 - Tere Ghar Ke Samne.wav

Peak level 88.1 %
Extraction speed 1.7 X
Track quality 100.0 %
Test CRC 8F8B3FCB
Copy CRC 8F8B3FCB
Accurately ripped (confidence 3) [383D9A4C] (AR v2)
Copy OK

Track 6

Filename D:\EAC_FLAC\Various Artists - Masters Of Fusion The Definitive Collection\Richard Clayderman & Rahul Sharma - The Confluence\06 - Ecstasy.wav

Peak level 98.8 %
Extraction speed 2.0 X
Track quality 100.0 %
Test CRC 873EA80B
Copy CRC 873EA80B
Accurately ripped (confidence 3) [15E165E7] (AR v2)
Copy OK

Track 7

Filename D:\EAC_FLAC\Various Artists - Masters Of Fusion The Definitive Collection\Richard Clayderman & Rahul Sharma - The Confluence\07 - Dekha Ek Khwab.wav

Peak level 98.8 %
Extraction speed 1.9 X
Track quality 99.9 %
Test CRC 501A4E67
Copy CRC 501A4E67
Accurately ripped (confidence 3) [2A9D2A80] (AR v2)
Copy OK

Track 8

Filename D:\EAC_FLAC\Various Artists - Masters Of Fusion The Definitive Collection\Richard Clayderman & Rahul Sharma - The Confluence\08 - Norwegian Wood.wav

Peak level 88.1 %
Extraction speed 1.7 X
Track quality 99.9 %
Test CRC 245584BB
Copy CRC 245584BB
Accurately ripped (confidence 3) [41F2752A] (AR v2)
Copy OK

Track 9

Filename D:\EAC_FLAC\Various Artists - Masters Of Fusion The Definitive Collection\Richard Clayderman & Rahul Sharma - The Confluence\09 - Shangrila.wav

Peak level 100.0 %
Extraction speed 1.7 X
Track quality 99.9 %
Test CRC 8CCE353E
Copy CRC 8CCE353E
Accurately ripped (confidence 3) [C8C95988] (AR v2)
Copy OK

Track 10

Filename D:\EAC_FLAC\Various Artists - Masters Of Fusion The Definitive Collection\Richard Clayderman & Rahul Sharma - The Confluence\10 - Celebration.wav

Peak level 88.1 %
Extraction speed 2.0 X
Track quality 99.9 %
Test CRC 05359EAA
Copy CRC 05359EAA
Accurately ripped (confidence 3) [9197A7AE] (AR v2)
Copy OK


All tracks accurately ripped

No errors occurred

End of status report

–– CUETools DB Plugin V2.1.3

[CTDB TOCID: .XPk95Qd.s.HzGagZvBHWDZ7odk-] found, Submit result: .XPk95Qd.s.HzGagZvBHWDZ7odk- has been confirmed
[56ceccc9] (2/2) Accurately ripped


==== Log checksum 315C5C960E1A993178BBEF598CFE3747E032BDEA78588637AF6CB1AC9E321A3D ====
Exact Audio Copy V1.0 beta 3 from 29. August 2011

EAC extraction logfile from 21. November 2013, 18:00

Ranjit Barot / bada boom

Used drive : HL-DT-STDVDRAM GE20LU10 Adapter: 3 ID: 0

Read mode : Secure
Utilize accurate stream : Yes
Defeat audio cache : Yes
Make use of C2 pointers : No

Read offset correction : 667
Overread into Lead-In and Lead-Out : No
Fill up missing offset samples with silence : Yes
Delete leading and trailing silent blocks : No
Null samples used in CRC calculations : Yes
Used interface : Native Win32 interface for Win NT & 2000
Gap handling : Appended to previous track

Used output format : User Defined Encoder
Selected bitrate : 128 kBit/s
Quality : High
Add ID3 tag : No
Command line compressor : C:\Program Files\Exact Audio Copy\Flac\flac.exe
Additional command line options : -8 -V -T "ARTIST=%artist%" -T "TITLE=%title%" -T "ALBUM=%albumtitle%" -T "DATE=%year%" -T "TRACKNUMBER=%tracknr%" -T "TOTALTRACKS=%numtracks%" -T "GENRE=%genre%" -T "ALBUMARTIST=%albumartist%" -T "ALBUM ARTIST=%albumartist%" -T "COMMENT=EAC Secure Mode, Test & Copy, AccurateRip, FLAC -8" %source%


TOC of the extracted CD

Track | Start | Length | Start sector | End sector
––––––––––––––––––––––––––––-
1 | 0:00.00 | 8:00.31 | 0 | 36030
2 | 8:00.31 | 6:41.30 | 36031 | 66135
3 | 14:41.61 | 8:35.39 | 66136 | 104799
4 | 23:17.25 | 10:07.34 | 104800 | 150358
5 | 33:24.59 | 7:51.44 | 150359 | 185727
6 | 41:16.28 | 5:54.73 | 185728 | 212350


Track 1

Filename D:\EAC_FLAC\Various Artists - Masters Of Fusion The Definitive Collection\Ranjit Barot - bada boom\01 - Singularity.wav

Pre-gap length 0:00:02.00

Peak level 98.8 %
Extraction speed 1.1 X
Track quality 99.9 %
Test CRC F8D3F602
Copy CRC F8D3F602
Cannot be verified as accurate (confidence 3) [6A315106], AccurateRip returned [F175A5F0] (AR v2)
Copy OK

Track 2

Filename D:\EAC_FLAC\Various Artists - Masters Of Fusion The Definitive Collection\Ranjit Barot - bada boom\02 - T=0.wav

Pre-gap length 0:00:00.54

Peak level 98.8 %
Extraction speed 1.3 X
Track quality 99.9 %
Test CRC ADA37213
Copy CRC ADA37213
Cannot be verified as accurate (confidence 3) [71B7F5C3], AccurateRip returned [957C7E52] (AR v2)
Copy OK

Track 3

Filename D:\EAC_FLAC\Various Artists - Masters Of Fusion The Definitive Collection\Ranjit Barot - bada boom\03 - Revolutions.wav

Peak level 98.8 %
Extraction speed 1.6 X
Track quality 100.0 %
Test CRC D90D0AAB
Copy CRC D90D0AAB
Cannot be verified as accurate (confidence 3) [B7089678], AccurateRip returned [F41850E8] (AR v2)
Copy OK

Track 4

Filename D:\EAC_FLAC\Various Artists - Masters Of Fusion The Definitive Collection\Ranjit Barot - bada boom\04 - Supernova.wav

Pre-gap length 0:00:00.59

Peak level 90.0 %
Extraction speed 1.9 X
Track quality 100.0 %
Test CRC B1D32859
Copy CRC B1D32859
Cannot be verified as accurate (confidence 3) [AECCF3D1], AccurateRip returned [AC3A44BB] (AR v2)
Copy OK

Track 5

Filename D:\EAC_FLAC\Various Artists - Masters Of Fusion The Definitive Collection\Ranjit Barot - bada boom\05 - Dark Matter.wav

Pre-gap length 0:00:00.51

Peak level 98.8 %
Extraction speed 2.0 X
Track quality 100.0 %
Test CRC FB472F37
Copy CRC FB472F37
Cannot be verified as accurate (confidence 3) [942F95EB], AccurateRip returned [4FE43876] (AR v2)
Copy OK

Track 6

Filename D:\EAC_FLAC\Various Artists - Masters Of Fusion The Definitive Collection\Ranjit Barot - bada boom\06 - Origin.wav

Pre-gap length 0:00:00.55

Peak level 98.8 %
Extraction speed 2.1 X
Track quality 100.0 %
Test CRC 10E21784
Copy CRC 10E21784
Cannot be verified as accurate (confidence 3) [F08C7D2F], AccurateRip returned [6CC6AD32] (AR v2)
Copy OK


No tracks could be verified as accurate
You may have a different pressing from the one(s) in the database

No errors occurred

End of status report

–– CUETools DB Plugin V2.1.3

[CTDB TOCID: DRMzGMeX4dg2vUJsU2hLHlbu7n8-] found, Submit result: DRMzGMeX4dg2vUJsU2hLHlbu7n8- has been confirmed
[fd7250b9] (3/4) No match
[a1df7928] (1/4) Accurately ripped


==== Log checksum BCBD1A4E62B5808EA6A9C50D13761C422B243F14228CA5A5E4869360D5930EDF ====
Exact Audio Copy V1.0 beta 3 from 29. August 2011

EAC extraction logfile from 23. November 2013, 8:22

Zakir Hussain & Kunnakkudi Vaidyanathan / Colours Golden Krithis

Used drive : hp DVDRAM GT30L Adapter: 0 ID: 1

Read mode : Secure
Utilize accurate stream : Yes
Defeat audio cache : Yes
Make use of C2 pointers : No

Read offset correction : 103
Overread into Lead-In and Lead-Out : No
Fill up missing offset samples with silence : Yes
Delete leading and trailing silent blocks : No
Null samples used in CRC calculations : Yes
Used interface : Native Win32 interface for Win NT & 2000
Gap handling : Appended to previous track

Used output format : User Defined Encoder
Selected bitrate : 256 kBit/s
Quality : High
Add ID3 tag : No
Command line compressor : C:\Program Files (x86)\Exact Audio Copy\Flac\flac.exe
Additional command line options : -8 -V -T "ARTIST=%artist%" -T "TITLE=%title%" -T "ALBUM=%albumtitle%" -T "DATE=%year%" -T "TRACKNUMBER=%tracknr%" -T "TOTALTRACKS=%numtracks%" -T "GENRE=%genre%" -T "ALBUMARTIST=%albumartist%" -T "ALBUM ARTIST=%albumartist%" -T "COMMENT=EAC Secure Mode, Test & Copy, AccurateRip, FLAC -8" %source%


TOC of the extracted CD

Track | Start | Length | Start sector | End sector
––––––––––––––––––––––––––––-
1 | 0:00.00 | 3:56.22 | 0 | 17721
2 | 3:56.22 | 15:13.00 | 17722 | 86196
3 | 19:09.22 | 8:44.05 | 86197 | 125501
4 | 27:53.27 | 15:34.60 | 125502 | 195611
5 | 43:28.12 | 13:18.10 | 195612 | 255471


Track 1

Filename C:\EAC\Zakir Hussain & Kunnakkudi Vaidyanathan - Colours Golden Krithis\01 - Quest for Music (Raag Maya Malava Gowla).wav

Pre-gap length 0:00:02.00

Peak level 91.1 %
Extraction speed 1.2 X
Track quality 100.0 %
Test CRC 45D3CF99
Copy CRC 45D3CF99
Accurately ripped (confidence 4) [74D826B4] (AR v2)
Copy OK

Track 2

Filename C:\EAC\Zakir Hussain & Kunnakkudi Vaidyanathan - Colours Golden Krithis\02 - Valliya Naayaganae (Raag Shanmukha Priya).wav

Pre-gap length 0:00:03.00

Peak level 94.2 %
Extraction speed 1.6 X
Track quality 99.9 %
Test CRC 9DF6D3DD
Copy CRC 9DF6D3DD
Accurately ripped (confidence 4) [DA65CE2E] (AR v2)
Copy OK

Track 3

Filename C:\EAC\Zakir Hussain & Kunnakkudi Vaidyanathan - Colours Golden Krithis\03 - Evolution (Raag Maya Malava Gowla).wav

Pre-gap length 0:00:03.00

Peak level 89.6 %
Extraction speed 1.7 X
Track quality 100.0 %
Test CRC E59E706E
Copy CRC E59E706E
Accurately ripped (confidence 3) [016ACF16] (AR v2)
Copy OK

Track 4

Filename C:\EAC\Zakir Hussain & Kunnakkudi Vaidyanathan - Colours Golden Krithis\04 - Saamajavaragamana (Raag hindol).wav

Pre-gap length 0:00:03.00

Peak level 90.8 %
Extraction speed 1.9 X
Track quality 100.0 %
Test CRC 78CB4431
Copy CRC 78CB4431
Accurately ripped (confidence 3) [B208FEB1] (AR v2)
Copy OK

Track 5

Filename C:\EAC\Zakir Hussain & Kunnakkudi Vaidyanathan - Colours Golden Krithis\05 - Abharaama Bhakti (Raag Bandhuvaraali).wav

Pre-gap length 0:00:03.00

Peak level 93.5 %
Extraction speed 1.9 X
Track quality 99.9 %
Test CRC 05581846
Copy CRC 05581846
Accurately ripped (confidence 4) [C14180E3] (AR v2)
Copy OK


All tracks accurately ripped

No errors occurred

End of status report

==== Log checksum E1760AEA205F65F42683CAF80DE35CCFBBE38FC9C3E1C0E8D7AEDE4528312EEB ====
Exact Audio Copy V1.0 beta 3 from 29. August 2011

EAC extraction logfile from 21. November 2013, 21:28

Prem Joshua / Shiva Moon

Used drive : HL-DT-STDVDRAM GE20LU10 Adapter: 3 ID: 0

Read mode : Secure
Utilize accurate stream : Yes
Defeat audio cache : Yes
Make use of C2 pointers : No

Read offset correction : 667
Overread into Lead-In and Lead-Out : No
Fill up missing offset samples with silence : Yes
Delete leading and trailing silent blocks : No
Null samples used in CRC calculations : Yes
Used interface : Native Win32 interface for Win NT & 2000
Gap handling : Appended to previous track

Used output format : User Defined Encoder
Selected bitrate : 128 kBit/s
Quality : High
Add ID3 tag : No
Command line compressor : C:\Program Files\Exact Audio Copy\Flac\flac.exe
Additional command line options : -8 -V -T "ARTIST=%artist%" -T "TITLE=%title%" -T "ALBUM=%albumtitle%" -T "DATE=%year%" -T "TRACKNUMBER=%tracknr%" -T "TOTALTRACKS=%numtracks%" -T "GENRE=%genre%" -T "ALBUMARTIST=%albumartist%" -T "ALBUM ARTIST=%albumartist%" -T "COMMENT=EAC Secure Mode, Test & Copy, AccurateRip, FLAC -8" %source%


TOC of the extracted CD

Track | Start | Length | Start sector | End sector
––––––––––––––––––––––––––––-
1 | 0:00.00 | 6:57.48 | 0 | 31322
2 | 6:57.48 | 1:35.40 | 31323 | 38487
3 | 8:33.13 | 6:40.11 | 38488 | 68498
4 | 15:13.24 | 7:12.00 | 68499 | 100898
5 | 22:25.24 | 5:52.38 | 100899 | 127336
6 | 28:17.62 | 5:25.17 | 127337 | 151728
7 | 33:43.04 | 7:26.56 | 151729 | 185234
8 | 41:09.60 | 4:31.57 | 185235 | 205616
9 | 45:41.42 | 4:58.55 | 205617 | 228021


Track 1

Filename D:\EAC_FLAC\Various Artists - Masters Of Fusion The Definitive Collection\Prem Joshua - Shiva Moom\01 - Darbari NYC (Diamond Turban Remix).wav

Pre-gap length 0:00:02.00

Peak level 100.0 %
Extraction speed 1.1 X
Track quality 99.9 %
Test CRC F50F7785
Copy CRC F50F7785
Track not present in AccurateRip database
Copy OK

Track 2

Filename D:\EAC_FLAC\Various Artists - Masters Of Fusion The Definitive Collection\Prem Joshua - Shiva Moom\02 - Shiva Moon (Intro).wav

Pre-gap length 0:00:02.20

Peak level 77.7 %
Extraction speed 1.0 X
Track quality 100.0 %
Test CRC C54BDF62
Copy CRC C54BDF62
Track not present in AccurateRip database
Copy OK

Track 3

Filename D:\EAC_FLAC\Various Artists - Masters Of Fusion The Definitive Collection\Prem Joshua - Shiva Moom\03 - Shiva Moon (Moon Nectar Remix).wav

Peak level 100.0 %
Extraction speed 1.4 X
Track quality 100.0 %
Test CRC CBFAC616
Copy CRC CBFAC616
Track not present in AccurateRip database
Copy OK

Track 4

Filename D:\EAC_FLAC\Various Artists - Masters Of Fusion The Definitive Collection\Prem Joshua - Shiva Moom\04 - Tangerine Thumri (Orange Turban Mix).wav

Pre-gap length 0:00:02.20

Peak level 88.9 %
Extraction speed 1.6 X
Track quality 100.0 %
Test CRC E9A9B10C
Copy CRC E9A9B10C
Track not present in AccurateRip database
Copy OK

Track 5

Filename D:\EAC_FLAC\Various Artists - Masters Of Fusion The Definitive Collection\Prem Joshua - Shiva Moom\05 - Bolo Hari (Bombay Lounge Remix).wav

Pre-gap length 0:00:02.20

Peak level 100.0 %
Extraction speed 1.7 X
Track quality 100.0 %
Test CRC 331CDF70
Copy CRC 331CDF70
Track not present in AccurateRip database
Copy OK

Track 6

Filename D:\EAC_FLAC\Various Artists - Masters Of Fusion The Definitive Collection\Prem Joshua - Shiva Moom\06 - Tilang Tantra - (Temple Mix).wav

Pre-gap length 0:00:02.20

Peak level 100.0 %
Extraction speed 1.8 X
Track quality 100.0 %
Test CRC 45158DA5
Copy CRC 45158DA5
Track not present in AccurateRip database
Copy OK

Track 7

Filename D:\EAC_FLAC\Various Artists - Masters Of Fusion The Definitive Collection\Prem Joshua - Shiva Moom\07 - Saffron Dreams - (Spice Shop Remix).wav

Pre-gap length 0:00:02.19

Peak level 100.0 %
Extraction speed 2.0 X
Track quality 100.0 %
Test CRC E29BE849
Copy CRC E29BE849
Track not present in AccurateRip database
Copy OK

Track 8

Filename D:\EAC_FLAC\Various Artists - Masters Of Fusion The Definitive Collection\Prem Joshua - Shiva Moom\08 - Omar - (Purple Turban Mix).wav

Pre-gap length 0:00:02.20

Peak level 100.0 %
Extraction speed 2.0 X
Track quality 100.0 %
Test CRC 6A6DCE7B
Copy CRC 6A6DCE7B
Track not present in AccurateRip database
Copy OK

Track 9

Filename D:\EAC_FLAC\Various Artists - Masters Of Fusion The Definitive Collection\Prem Joshua - Shiva Moom\09 - Seventh Eclipse - (Timbuktu Remix).wav

Pre-gap length 0:00:02.20

Peak level 100.0 %
Extraction speed 2.1 X
Track quality 100.0 %
Test CRC DE571E64
Copy CRC DE571E64
Track not present in AccurateRip database
Copy OK


None of the tracks are present in the AccurateRip database

No errors occurred

End of status report

–– CUETools DB Plugin V2.1.3

[CTDB TOCID: Y8s9ym_1KKhelNoiqSWEJRHCig8-] disk not present in database, Submit result: Y8s9ym_1KKhelNoiqSWEJRHCig8- has been uploaded


==== Log checksum CEF254A1413763D49F0197C73B6D49A095027AB606040311ABB4043B1666D428 ====
Exact Audio Copy V1.0 beta 3 from 29. August 2011

EAC extraction logfile from 23. November 2013, 10:36

Pt. Hariprasad Chaurasia / Moon Magic

Used drive : HL-DT-STDVDRAM GE20LU10 Adapter: 3 ID: 0

Read mode : Secure
Utilize accurate stream : Yes
Defeat audio cache : Yes
Make use of C2 pointers : No

Read offset correction : 667
Overread into Lead-In and Lead-Out : No
Fill up missing offset samples with silence : Yes
Delete leading and trailing silent blocks : No
Null samples used in CRC calculations : Yes
Used interface : Native Win32 interface for Win NT & 2000
Gap handling : Appended to previous track

Used output format : User Defined Encoder
Selected bitrate : 128 kBit/s
Quality : High
Add ID3 tag : No
Command line compressor : C:\Program Files\Exact Audio Copy\Flac\flac.exe
Additional command line options : -8 -V -T "ARTIST=%artist%" -T "TITLE=%title%" -T "ALBUM=%albumtitle%" -T "DATE=%year%" -T "TRACKNUMBER=%tracknr%" -T "TOTALTRACKS=%numtracks%" -T "GENRE=%genre%" -T "ALBUMARTIST=%albumartist%" -T "ALBUM ARTIST=%albumartist%" -T "COMMENT=EAC Secure Mode, Test & Copy, AccurateRip, FLAC -8" %source%


TOC of the extracted CD

Track | Start | Length | Start sector | End sector
––––––––––––––––––––––––––––-
1 | 0:00.00 | 4:10.55 | 0 | 18804
2 | 4:10.55 | 6:30.42 | 18805 | 48096
3 | 10:41.22 | 3:18.35 | 48097 | 62981
4 | 13:59.57 | 3:11.45 | 62982 | 77351
5 | 17:11.27 | 3:06.23 | 77352 | 91324
6 | 20:17.50 | 4:08.30 | 91325 | 109954
7 | 24:26.05 | 6:03.07 | 109955 | 137186
8 | 30:29.12 | 3:33.70 | 137187 | 153231
9 | 34:03.07 | 3:40.50 | 153232 | 169781
10 | 37:43.57 | 4:22.45 | 169782 | 189476
11 | 42:06.27 | 6:08.28 | 189477 | 217104
12 | 48:14.55 | 4:23.37 | 217105 | 236866


Track 1

Filename D:\EAC_FLAC\Various Artists - Masters Of Fusion The Definitive Collection\Pt. Hariprasad Chaurasia & African Drums - Moon Magic\01 - Caravan to Timbuktu.wav

Pre-gap length 0:00:02.00

Peak level 100.0 %
Extraction speed 1.1 X
Track quality 100.0 %
Test CRC 3C532B7A
Copy CRC 3C532B7A
Track not present in AccurateRip database
Copy OK

Track 2

Filename D:\EAC_FLAC\Various Artists - Masters Of Fusion The Definitive Collection\Pt. Hariprasad Chaurasia & African Drums - Moon Magic\02 - Dead leaves.wav

Pre-gap length 0:00:03.05

Peak level 100.0 %
Extraction speed 1.4 X
Track quality 100.0 %
Test CRC DF5D8E30
Copy CRC DF5D8E30
Track not present in AccurateRip database
Copy OK

Track 3

Filename D:\EAC_FLAC\Various Artists - Masters Of Fusion The Definitive Collection\Pt. Hariprasad Chaurasia & African Drums - Moon Magic\03 - Love is the winner.wav

Pre-gap length 0:00:02.40

Peak level 100.0 %
Extraction speed 1.3 X
Track quality 100.0 %
Test CRC 2938C134
Copy CRC 2938C134
Track not present in AccurateRip database
Copy OK

Track 4

Filename D:\EAC_FLAC\Various Artists - Masters Of Fusion The Definitive Collection\Pt. Hariprasad Chaurasia & African Drums - Moon Magic\04 - Journey to the light within.wav

Pre-gap length 0:00:02.60

Peak level 100.0 %
Extraction speed 1.4 X
Track quality 100.0 %
Test CRC C491C914
Copy CRC C491C914
Track not present in AccurateRip database
Copy OK

Track 5

Filename D:\EAC_FLAC\Various Artists - Masters Of Fusion The Definitive Collection\Pt. Hariprasad Chaurasia & African Drums - Moon Magic\05 - Ranbow on the wings.wav

Pre-gap length 0:00:03.42

Peak level 88.9 %
Extraction speed 1.5 X
Track quality 100.0 %
Test CRC 957B2482
Copy CRC 957B2482
Track not present in AccurateRip database
Copy OK

Track 6

Filename D:\EAC_FLAC\Various Artists - Masters Of Fusion The Definitive Collection\Pt. Hariprasad Chaurasia & African Drums - Moon Magic\06 - Moon Magic.wav

Pre-gap length 0:00:01.50

Peak level 100.0 %
Extraction speed 1.6 X
Track quality 100.0 %
Test CRC 7E318BF4
Copy CRC 7E318BF4
Track not present in AccurateRip database
Copy OK

Track 7

Filename D:\EAC_FLAC\Various Artists - Masters Of Fusion The Definitive Collection\Pt. Hariprasad Chaurasia & African Drums - Moon Magic\07 - One World.wav

Pre-gap length 0:00:02.60

Peak level 73.5 %
Extraction speed 1.8 X
Track quality 100.0 %
Test CRC 2B186F8B
Copy CRC 2B186F8B
Track not present in AccurateRip database
Copy OK

Track 8

Filename D:\EAC_FLAC\Various Artists - Masters Of Fusion The Definitive Collection\Pt. Hariprasad Chaurasia & African Drums - Moon Magic\08 - No Fear.wav

Pre-gap length 0:00:02.32

Peak level 100.0 %
Extraction speed 1.8 X
Track quality 100.0 %
Test CRC 847C8AAE
Copy CRC 847C8AAE
Track not present in AccurateRip database
Copy OK

Track 9

Filename D:\EAC_FLAC\Various Artists - Masters Of Fusion The Definitive Collection\Pt. Hariprasad Chaurasia & African Drums - Moon Magic\09 - God is in you.wav

Pre-gap length 0:00:02.05

Peak level 98.3 %
Extraction speed 1.8 X
Track quality 100.0 %
Test CRC E44E8E1B
Copy CRC E44E8E1B
Track not present in AccurateRip database
Copy OK

Track 10

Filename D:\EAC_FLAC\Various Artists - Masters Of Fusion The Definitive Collection\Pt. Hariprasad Chaurasia & African Drums - Moon Magic\10 - Listen to the sound Listen to the silence.wav

Pre-gap length 0:00:02.45

Peak level 100.0 %
Extraction speed 1.7 X
Track quality 99.9 %
Test CRC DCC8C62F
Copy CRC DCC8C62F
Track not present in AccurateRip database
Copy OK

Track 11

Filename D:\EAC_FLAC\Various Artists - Masters Of Fusion The Definitive Collection\Pt. Hariprasad Chaurasia & African Drums - Moon Magic\11 - Flight of the eagle.wav

Pre-gap length 0:00:03.07

Peak level 76.3 %
Extraction speed 2.1 X
Track quality 100.0 %
Test CRC 8448F94A
Copy CRC 8448F94A
Track not present in AccurateRip database
Copy OK

Track 12

Filename D:\EAC_FLAC\Various Artists - Masters Of Fusion The Definitive Collection\Pt. Hariprasad Chaurasia & African Drums - Moon Magic\12 - Song to Madhu Babma, the marabu of senegal.wav

Pre-gap length 0:00:02.60

Peak level 100.0 %
Extraction speed 2.2 X
Track quality 100.0 %
Test CRC F945BDC4
Copy CRC F945BDC4
Track not present in AccurateRip database
Copy OK


None of the tracks are present in the AccurateRip database

No errors occurred

End of status report

–– CUETools DB Plugin V2.1.3

[CTDB TOCID: 9g.955ygUl.9k1KLQZweBB7E_PQ-] disk not present in database, Submit result: 9g.955ygUl.9k1KLQZweBB7E_PQ- has been uploaded


==== Log checksum F5C30036DE59914A586F43DEC5E031C191DB89CF7FB3E986294B300B9A05BCA8 ====
Exact Audio Copy V1.0 beta 3 from 29. August 2011

EAC extraction logfile from 23. November 2013, 13:09

Talvin Singh & Niladri Kumar / Together

Used drive : HL-DT-STDVDRAM GE20LU10 Adapter: 3 ID: 0

Read mode : Secure
Utilize accurate stream : Yes
Defeat audio cache : Yes
Make use of C2 pointers : No

Read offset correction : 667
Overread into Lead-In and Lead-Out : No
Fill up missing offset samples with silence : Yes
Delete leading and trailing silent blocks : No
Null samples used in CRC calculations : Yes
Used interface : Native Win32 interface for Win NT & 2000
Gap handling : Appended to previous track

Used output format : User Defined Encoder
Selected bitrate : 128 kBit/s
Quality : High
Add ID3 tag : No
Command line compressor : C:\Program Files\Exact Audio Copy\Flac\flac.exe
Additional command line options : -8 -V -T "ARTIST=%artist%" -T "TITLE=%title%" -T "ALBUM=%albumtitle%" -T "DATE=%year%" -T "TRACKNUMBER=%tracknr%" -T "TOTALTRACKS=%numtracks%" -T "GENRE=%genre%" -T "ALBUMARTIST=%albumartist%" -T "ALBUM ARTIST=%albumartist%" -T "COMMENT=EAC Secure Mode, Test & Copy, AccurateRip, FLAC -8" %source%


TOC of the extracted CD

Track | Start | Length | Start sector | End sector
––––––––––––––––––––––––––––-
1 | 0:00.00 | 5:55.65 | 0 | 26689
2 | 5:55.65 | 2:34.31 | 26690 | 38270
3 | 8:30.21 | 3:22.71 | 38271 | 53491
4 | 11:53.17 | 4:41.23 | 53492 | 74589
5 | 16:34.40 | 9:53.27 | 74590 | 119091
6 | 26:27.67 | 4:06.58 | 119092 | 137599
7 | 30:34.50 | 1:39.01 | 137600 | 145025
8 | 32:13.51 | 5:36.67 | 145026 | 170292
9 | 37:50.43 | 10:57.15 | 170293 | 219582
10 | 48:47.58 | 5:54.03 | 219583 | 246135


Track 1

Filename D:\EAC_FLAC\Various Artists - Masters Of Fusion The Definitive Collection\Niladhri Kumar & Talvin Singh - Together\01 - River.wav

Pre-gap length 0:00:02.00

Peak level 98.2 %
Extraction speed 1.1 X
Track quality 99.9 %
Test CRC 7814E1E3
Copy CRC 7814E1E3
Cannot be verified as accurate (confidence 6) [F56EB826], AccurateRip returned [DE080813] (AR v2)
Copy OK

Track 2

Filename D:\EAC_FLAC\Various Artists - Masters Of Fusion The Definitive Collection\Niladhri Kumar & Talvin Singh - Together\02 - Pink.wav

Peak level 92.8 %
Extraction speed 1.2 X
Track quality 100.0 %
Test CRC 17D66B9C
Copy CRC 17D66B9C
Cannot be verified as accurate (confidence 5) [52A187C9], AccurateRip returned [8F4246B1] (AR v2)
Copy OK

Track 3

Filename D:\EAC_FLAC\Various Artists - Masters Of Fusion The Definitive Collection\Niladhri Kumar & Talvin Singh - Together\03 - Mirror.wav

Peak level 96.7 %
Extraction speed 1.3 X
Track quality 100.0 %
Test CRC 43CC3CF9
Copy CRC 43CC3CF9
Cannot be verified as accurate (confidence 5) [6EB7F125], AccurateRip returned [5290830F] (AR v2)
Copy OK

Track 4

Filename D:\EAC_FLAC\Various Artists - Masters Of Fusion The Definitive Collection\Niladhri Kumar & Talvin Singh - Together\04 - Ananta.wav

Pre-gap length 0:00:02.62

Peak level 97.4 %
Extraction speed 1.5 X
Track quality 100.0 %
Test CRC 3CA7C20F
Copy CRC 3CA7C20F
Cannot be verified as accurate (confidence 5) [0A7A6678], AccurateRip returned [43F0DC74] (AR v2)
Copy OK

Track 5

Filename D:\EAC_FLAC\Various Artists - Masters Of Fusion The Definitive Collection\Niladhri Kumar & Talvin Singh - Together\05 - Together.wav

Peak level 98.2 %
Extraction speed 1.8 X
Track quality 100.0 %
Test CRC F8EED16F
Copy CRC F8EED16F
Cannot be verified as accurate (confidence 5) [77EC3AD1], AccurateRip returned [5B26A3E0] (AR v2)
Copy OK

Track 6

Filename D:\EAC_FLAC\Various Artists - Masters Of Fusion The Definitive Collection\Niladhri Kumar & Talvin Singh - Together\06 - Jogi.wav

Peak level 96.2 %
Extraction speed 1.8 X
Track quality 100.0 %
Test CRC C76A6C32
Copy CRC C76A6C32
Cannot be verified as accurate (confidence 5) [51116A7B], AccurateRip returned [5CA63332] (AR v2)
Copy OK

Track 7

Filename D:\EAC_FLAC\Various Artists - Masters Of Fusion The Definitive Collection\Niladhri Kumar & Talvin Singh - Together\07 - Play.wav

Pre-gap length 0:00:03.04

Peak level 95.7 %
Extraction speed 1.5 X
Track quality 100.0 %
Test CRC 7ACA58F7
Copy CRC 7ACA58F7
Cannot be verified as accurate (confidence 5) [E0B6B1F2], AccurateRip returned [2E8CE516] (AR v2)
Copy OK

Track 8

Filename D:\EAC_FLAC\Various Artists - Masters Of Fusion The Definitive Collection\Niladhri Kumar & Talvin Singh - Together\08 - The Bliss.wav

Peak level 94.5 %
Extraction speed 1.9 X
Track quality 100.0 %
Test CRC F8F6344F
Copy CRC F8F6344F
Cannot be verified as accurate (confidence 5) [B4B79AC3], AccurateRip returned [0CA6D663] (AR v2)
Copy OK

Track 9

Filename D:\EAC_FLAC\Various Artists - Masters Of Fusion The Definitive Collection\Niladhri Kumar & Talvin Singh - Together\09 - Threads.wav

Peak level 96.7 %
Extraction speed 2.2 X
Track quality 100.0 %
Test CRC 4A8E863E
Copy CRC 4A8E863E
Cannot be verified as accurate (confidence 5) [A85388E3], AccurateRip returned [FD373BC8] (AR v2)
Copy OK

Track 10

Filename D:\EAC_FLAC\Various Artists - Masters Of Fusion The Definitive Collection\Niladhri Kumar & Talvin Singh - Together\10 - Joy.wav

Peak level 95.2 %
Extraction speed 2.3 X
Track quality 100.0 %
Test CRC 96881D72
Copy CRC 96881D72
Cannot be verified as accurate (confidence 5) [EEFEB72E], AccurateRip returned [D00FAA91] (AR v2)
Copy OK


No tracks could be verified as accurate
You may have a different pressing from the one(s) in the database

No errors occurred

End of status report

–– CUETools DB Plugin V2.1.3

[CTDB TOCID: 5lED70TNdu9vydvjzL9kAZsz89w-] found, Submit result: 5lED70TNdu9vydvjzL9kAZsz89w- has been confirmed
[a440e969] (6/6) Accurately ripped


==== Log checksum E4BDE15EA8787EC435516C8BD40392411184DECFCD60A5FDC1C78EAF5A140FD9 ====
Exact Audio Copy V1.0 beta 3 from 29. August 2011

EAC extraction logfile from 23. November 2013, 14:47

Pt. Ajay Pohankar & Abhijit Pohankar / Thumri Funk

Used drive : HL-DT-STDVDRAM GE20LU10 Adapter: 3 ID: 0

Read mode : Secure
Utilize accurate stream : Yes
Defeat audio cache : Yes
Make use of C2 pointers : No

Read offset correction : 667
Overread into Lead-In and Lead-Out : No
Fill up missing offset samples with silence : Yes
Delete leading and trailing silent blocks : No
Null samples used in CRC calculations : Yes
Used interface : Native Win32 interface for Win NT & 2000
Gap handling : Appended to previous track

Used output format : User Defined Encoder
Selected bitrate : 128 kBit/s
Quality : High
Add ID3 tag : No
Command line compressor : C:\Program Files\Exact Audio Copy\Flac\flac.exe
Additional command line options : -8 -V -T "ARTIST=%artist%" -T "TITLE=%title%" -T "ALBUM=%albumtitle%" -T "DATE=%year%" -T "TRACKNUMBER=%tracknr%" -T "TOTALTRACKS=%numtracks%" -T "GENRE=%genre%" -T "ALBUMARTIST=%albumartist%" -T "ALBUM ARTIST=%albumartist%" -T "COMMENT=EAC Secure Mode, Test & Copy, AccurateRip, FLAC -8" %source%


TOC of the extracted CD

Track | Start | Length | Start sector | End sector
––––––––––––––––––––––––––––-
1 | 0:00.00 | 6:12.40 | 0 | 27939
2 | 6:12.40 | 5:38.01 | 27940 | 53290
3 | 11:50.41 | 4:54.02 | 53291 | 75342
4 | 16:44.43 | 6:36.32 | 75343 | 105074
5 | 23:21.00 | 5:08.17 | 105075 | 128191
6 | 28:29.17 | 4:21.71 | 128192 | 147837
7 | 32:51.13 | 6:00.70 | 147838 | 174907


Track 1

Filename D:\EAC_FLAC\Various Artists - Masters Of Fusion The Definitive Collection\Pt Ajay Pohankar & Abhijit Pohankar - Thumri Funk\01 - Ab Ke Sawan Ghar Aaja.wav

Pre-gap length 0:00:02.00

Peak level 97.9 %
Extraction speed 1.1 X
Track quality 100.0 %
Test CRC 79A69075
Copy CRC 79A69075
Accurately ripped (confidence 1) [82E6B80C] (AR v2)
Copy OK

Track 2

Filename D:\EAC_FLAC\Various Artists - Masters Of Fusion The Definitive Collection\Pt Ajay Pohankar & Abhijit Pohankar - Thumri Funk\02 - Naina More.wav

Peak level 97.9 %
Extraction speed 1.3 X
Track quality 100.0 %
Test CRC 3E19C9AD
Copy CRC 3E19C9AD
Accurately ripped (confidence 1) [1CBDF725] (AR v2)
Copy OK

Track 3

Filename D:\EAC_FLAC\Various Artists - Masters Of Fusion The Definitive Collection\Pt Ajay Pohankar & Abhijit Pohankar - Thumri Funk\03 - Tore Naino Ne Jadu.wav

Peak level 97.9 %
Extraction speed 1.4 X
Track quality 100.0 %
Test CRC 2151C20A
Copy CRC 2151C20A
Accurately ripped (confidence 1) [2FA2B255] (AR v2)
Copy OK

Track 4

Filename D:\EAC_FLAC\Various Artists - Masters Of Fusion The Definitive Collection\Pt Ajay Pohankar & Abhijit Pohankar - Thumri Funk\04 - Balamwa Tum Kya Jano.wav

Peak level 97.9 %
Extraction speed 1.4 X
Track quality 99.9 %
Test CRC 752E7A7D
Copy CRC 752E7A7D
Accurately ripped (confidence 1) [4E57EC4E] (AR v2)
Copy OK

Track 5

Filename D:\EAC_FLAC\Various Artists - Masters Of Fusion The Definitive Collection\Pt Ajay Pohankar & Abhijit Pohankar - Thumri Funk\05 - Yaad Piya Ki.wav

Peak level 97.9 %
Extraction speed 1.7 X
Track quality 100.0 %
Test CRC 6F561A34
Copy CRC 6F561A34
Accurately ripped (confidence 1) [8DF86D67] (AR v2)
Copy OK

Track 6

Filename D:\EAC_FLAC\Various Artists - Masters Of Fusion The Definitive Collection\Pt Ajay Pohankar & Abhijit Pohankar - Thumri Funk\06 - Ras Ke Bare Tore.wav

Peak level 86.9 %
Extraction speed 1.2 X
Track quality 99.8 %
Test CRC 0B30B8C8
Copy CRC 0B30B8C8
Accurately ripped (confidence 1) [103CF97B] (AR v2)
Copy OK

Track 7

Filename D:\EAC_FLAC\Various Artists - Masters Of Fusion The Definitive Collection\Pt Ajay Pohankar & Abhijit Pohankar - Thumri Funk\07 - Naina more.wav

Peak level 98.8 %
Extraction speed 1.9 X
Track quality 100.0 %
Test CRC 7D01C474
Copy CRC 7D01C474
Accurately ripped (confidence 1) [DC5C9E08] (AR v2)
Copy OK


All tracks accurately ripped

No errors occurred

End of status report

–– CUETools DB Plugin V2.1.3

[CTDB TOCID: PHGXOKFuZdhjjd3V8roUtEi6aEs-] disk not present in database, Submit result: PHGXOKFuZdhjjd3V8roUtEi6aEs- has been uploaded


==== Log checksum BD567844BD37A535BA299EFA5B6D9ED811D73D7FEB440B7188DF4D8686F39548 ====
Exact Audio Copy V1.0 beta 3 from 29. August 2011

EAC extraction logfile from 24. November 2013, 11:14

Ricky Kej / Fiery Drums

Used drive : hp DVDRAM GT30L Adapter: 0 ID: 1

Read mode : Secure
Utilize accurate stream : Yes
Defeat audio cache : Yes
Make use of C2 pointers : No

Read offset correction : 103
Overread into Lead-In and Lead-Out : No
Fill up missing offset samples with silence : Yes
Delete leading and trailing silent blocks : No
Null samples used in CRC calculations : Yes
Used interface : Native Win32 interface for Win NT & 2000
Gap handling : Appended to previous track

Used output format : User Defined Encoder
Selected bitrate : 256 kBit/s
Quality : High
Add ID3 tag : No
Command line compressor : C:\Program Files (x86)\Exact Audio Copy\Flac\flac.exe
Additional command line options : -8 -V -T "ARTIST=%artist%" -T "TITLE=%title%" -T "ALBUM=%albumtitle%" -T "DATE=%year%" -T "TRACKNUMBER=%tracknr%" -T "TOTALTRACKS=%numtracks%" -T "GENRE=%genre%" -T "ALBUMARTIST=%albumartist%" -T "ALBUM ARTIST=%albumartist%" -T "COMMENT=EAC Secure Mode, Test & Copy, AccurateRip, FLAC -8" %source%


TOC of the extracted CD

Track | Start | Length | Start sector | End sector
––––––––––––––––––––––––––––-
1 | 0:00.00 | 4:26.65 | 0 | 20014
2 | 4:26.65 | 3:45.02 | 20015 | 36891
3 | 8:11.67 | 6:04.28 | 36892 | 64219
4 | 14:16.20 | 5:35.02 | 64220 | 89346
5 | 19:51.22 | 5:12.56 | 89347 | 112802
6 | 25:04.03 | 5:55.12 | 112803 | 139439
7 | 30:59.15 | 5:08.44 | 139440 | 162583
8 | 36:07.59 | 4:51.20 | 162584 | 184428
9 | 40:59.04 | 6:18.15 | 184429 | 212793
10 | 47:17.19 | 4:13.11 | 212794 | 231779


Track 1

Filename C:\EAC\Ricky Kej - Fiery Drums\01 - Prance.wav

Pre-gap length 0:00:02.00

Peak level 100.0 %
Extraction speed 1.3 X
Track quality 100.0 %
Test CRC 4BE392F8
Copy CRC 4BE392F8
Track not present in AccurateRip database
Copy OK

Track 2

Filename C:\EAC\Ricky Kej - Fiery Drums\02 - Dub Bol.wav

Pre-gap length 0:00:02.00

Peak level 100.0 %
Extraction speed 1.4 X
Track quality 100.0 %
Test CRC 821C350D
Copy CRC 821C350D
Track not present in AccurateRip database
Copy OK

Track 3

Filename C:\EAC\Ricky Kej - Fiery Drums\03 - Dance of Fate.wav

Pre-gap length 0:00:02.00

Peak level 100.0 %
Extraction speed 1.6 X
Track quality 100.0 %
Test CRC AD694C3E
Copy CRC AD694C3E
Track not present in AccurateRip database
Copy OK

Track 4

Filename C:\EAC\Ricky Kej - Fiery Drums\04 - Temple Trance.wav

Pre-gap length 0:00:02.00

Peak level 100.0 %
Extraction speed 1.7 X
Track quality 100.0 %
Test CRC A076F9BE
Copy CRC A076F9BE
Track not present in AccurateRip database
Copy OK

Track 5

Filename C:\EAC\Ricky Kej - Fiery Drums\05 - African Idli.wav

Pre-gap length 0:00:02.00

Peak level 100.0 %
Extraction speed 1.7 X
Track quality 99.9 %
Test CRC 4A062F86
Copy CRC 4A062F86
Track not present in AccurateRip database
Copy OK

Track 6

Filename C:\EAC\Ricky Kej - Fiery Drums\06 - Arabian Sea.wav

Pre-gap length 0:00:02.00

Peak level 100.0 %
Extraction speed 2.0 X
Track quality 100.0 %
Test CRC 12699ACC
Copy CRC 12699ACC
Track not present in AccurateRip database
Copy OK

Track 7

Filename C:\EAC\Ricky Kej - Fiery Drums\07 - Madras State of Mind.wav

Pre-gap length 0:00:02.00

Peak level 100.0 %
Extraction speed 2.1 X
Track quality 100.0 %
Test CRC 9A4359B1
Copy CRC 9A4359B1
Track not present in AccurateRip database
Copy OK

Track 8

Filename C:\EAC\Ricky Kej - Fiery Drums\08 - South Indian Surprise.wav

Pre-gap length 0:00:02.00

Peak level 100.0 %
Extraction speed 2.2 X
Track quality 100.0 %
Test CRC 62939E85
Copy CRC 62939E85
Track not present in AccurateRip database
Copy OK

Track 9

Filename C:\EAC\Ricky Kej - Fiery Drums\09 - A Myth.wav

Pre-gap length 0:00:02.00

Peak level 100.0 %
Extraction speed 2.4 X
Track quality 100.0 %
Test CRC 03D7B163
Copy CRC 03D7B163
Track not present in AccurateRip database
Copy OK

Track 10

Filename C:\EAC\Ricky Kej - Fiery Drums\10 - Tandav.wav

Pre-gap length 0:00:02.00

Peak level 100.0 %
Extraction speed 1.9 X
Track quality 99.9 %
Test CRC 8A3BAEB3
Copy CRC 8A3BAEB3
Track not present in AccurateRip database
Copy OK


None of the tracks are present in the AccurateRip database

No errors occurred

End of status report

==== Log checksum E4715BE558FA9AC9DD0B139A6A8614B4137D3B00106D940F37EEC9FCE486EC0A ====
Exact Audio Copy V1.0 beta 3 from 29. August 2011

EAC extraction logfile from 24. November 2013, 10:35

Ravi Chary / Crossing

Used drive : HL-DT-STDVDRAM GE20LU10 Adapter: 3 ID: 0

Read mode : Secure
Utilize accurate stream : Yes
Defeat audio cache : Yes
Make use of C2 pointers : No

Read offset correction : 667
Overread into Lead-In and Lead-Out : No
Fill up missing offset samples with silence : Yes
Delete leading and trailing silent blocks : No
Null samples used in CRC calculations : Yes
Used interface : Native Win32 interface for Win NT & 2000
Gap handling : Appended to previous track

Used output format : User Defined Encoder
Selected bitrate : 128 kBit/s
Quality : High
Add ID3 tag : No
Command line compressor : C:\Program Files\Exact Audio Copy\Flac\flac.exe
Additional command line options : -8 -V -T "ARTIST=%artist%" -T "TITLE=%title%" -T "ALBUM=%albumtitle%" -T "DATE=%year%" -T "TRACKNUMBER=%tracknr%" -T "TOTALTRACKS=%numtracks%" -T "GENRE=%genre%" -T "ALBUMARTIST=%albumartist%" -T "ALBUM ARTIST=%albumartist%" -T "COMMENT=EAC Secure Mode, Test & Copy, AccurateRip, FLAC -8" %source%


TOC of the extracted CD

Track | Start | Length | Start sector | End sector
––––––––––––––––––––––––––––-
1 | 0:00.00 | 6:51.36 | 0 | 30860
2 | 6:51.36 | 6:04.74 | 30861 | 58234
3 | 12:56.35 | 8:22.28 | 58235 | 95912
4 | 21:18.63 | 5:50.06 | 95913 | 122168
5 | 27:08.69 | 6:21.21 | 122169 | 150764
6 | 33:30.15 | 12:26.72 | 150765 | 206786
7 | 45:57.12 | 6:36.26 | 206787 | 236512
8 | 52:33.38 | 4:46.60 | 236513 | 258022
9 | 57:20.23 | 7:50.46 | 258023 | 293318


Track 1

Filename D:\EAC_FLAC\Various Artists - Masters Of Fusion The Definitive Collection\Ravi Chary - Crossing\01 - Yogi.wav

Pre-gap length 0:00:02.00

Peak level 94.4 %
Extraction speed 1.2 X
Track quality 100.0 %
Test CRC A1E653AD
Copy CRC A1E653AD
Track not present in AccurateRip database
Copy OK

Track 2

Filename D:\EAC_FLAC\Various Artists - Masters Of Fusion The Definitive Collection\Ravi Chary - Crossing\02 - 5.5.wav

Pre-gap length 0:00:01.41

Peak level 94.4 %
Extraction speed 1.4 X
Track quality 100.0 %
Test CRC C9354B21
Copy CRC C9354B21
Track not present in AccurateRip database
Copy OK

Track 3

Filename D:\EAC_FLAC\Various Artists - Masters Of Fusion The Definitive Collection\Ravi Chary - Crossing\03 - Sadguru.wav

Pre-gap length 0:00:01.41

Peak level 94.4 %
Extraction speed 1.6 X
Track quality 100.0 %
Test CRC 831E43E9
Copy CRC 831E43E9
Track not present in AccurateRip database
Copy OK

Track 4

Filename D:\EAC_FLAC\Various Artists - Masters Of Fusion The Definitive Collection\Ravi Chary - Crossing\04 - Tree Of Souls.wav

Pre-gap length 0:00:01.41

Peak level 94.4 %
Extraction speed 1.7 X
Track quality 100.0 %
Test CRC CAC702FE
Copy CRC CAC702FE
Track not present in AccurateRip database
Copy OK

Track 5

Filename D:\EAC_FLAC\Various Artists - Masters Of Fusion The Definitive Collection\Ravi Chary - Crossing\05 - Synergy.wav

Pre-gap length 0:00:01.41

Peak level 94.4 %
Extraction speed 1.8 X
Track quality 100.0 %
Test CRC 485C6503
Copy CRC 485C6503
Track not present in AccurateRip database
Copy OK

Track 6

Filename D:\EAC_FLAC\Various Artists - Masters Of Fusion The Definitive Collection\Ravi Chary - Crossing\06 - Myra.wav

Pre-gap length 0:00:01.41

Peak level 94.4 %
Extraction speed 2.0 X
Track quality 99.9 %
Test CRC FDFB3A65
Copy CRC FDFB3A65
Track not present in AccurateRip database
Copy OK

Track 7

Filename D:\EAC_FLAC\Various Artists - Masters Of Fusion The Definitive Collection\Ravi Chary - Crossing\07 - Divine Sphere.wav

Pre-gap length 0:00:01.41

Peak level 94.4 %
Extraction speed 2.2 X
Track quality 100.0 %
Test CRC 7E3F7847
Copy CRC 7E3F7847
Track not present in AccurateRip database
Copy OK

Track 8

Filename D:\EAC_FLAC\Various Artists - Masters Of Fusion The Definitive Collection\Ravi Chary - Crossing\08 - Funk Jog.wav

Pre-gap length 0:00:01.41

Peak level 94.4 %
Extraction speed 1.9 X
Track quality 99.9 %
Test CRC 132F2E21
Copy CRC 132F2E21
Track not present in AccurateRip database
Copy OK

Track 9

Filename D:\EAC_FLAC\Various Artists - Masters Of Fusion The Definitive Collection\Ravi Chary - Crossing\09 - Twilight.wav

Pre-gap length 0:00:01.41

Peak level 94.4 %
Extraction speed 2.4 X
Track quality 100.0 %
Test CRC 24C1C8FD
Copy CRC 24C1C8FD
Track not present in AccurateRip database
Copy OK


None of the tracks are present in the AccurateRip database

No errors occurred

End of status report

–– CUETools DB Plugin V2.1.3

[CTDB TOCID: p66Bhvz.Ft.YFY.MG1yki0sg1T4-] disk not present in database, Submit result: p66Bhvz.Ft.YFY.MG1yki0sg1T4- has been uploaded


==== Log checksum 2EE6DAA7ADD726BDCE090AC34769F762A1D71939BFEB0D575F51AF4B8CFA5F13 ====
Exact Audio Copy V1.0 beta 3 from 29. August 2011

EAC extraction logfile from 24. November 2013, 14:16

Maya / Maya

Used drive : hp DVDRAM GT30L Adapter: 0 ID: 1

Read mode : Secure
Utilize accurate stream : Yes
Defeat audio cache : Yes
Make use of C2 pointers : No

Read offset correction : 103
Overread into Lead-In and Lead-Out : No
Fill up missing offset samples with silence : Yes
Delete leading and trailing silent blocks : No
Null samples used in CRC calculations : Yes
Used interface : Native Win32 interface for Win NT & 2000
Gap handling : Appended to previous track

Used output format : User Defined Encoder
Selected bitrate : 256 kBit/s
Quality : High
Add ID3 tag : No
Command line compressor : C:\Program Files (x86)\Exact Audio Copy\Flac\flac.exe
Additional command line options : -8 -V -T "ARTIST=%artist%" -T "TITLE=%title%" -T "ALBUM=%albumtitle%" -T "DATE=%year%" -T "TRACKNUMBER=%tracknr%" -T "TOTALTRACKS=%numtracks%" -T "GENRE=%genre%" -T "ALBUMARTIST=%albumartist%" -T "ALBUM ARTIST=%albumartist%" -T "COMMENT=EAC Secure Mode, Test & Copy, AccurateRip, FLAC -8" %source%


TOC of the extracted CD

Track | Start | Length | Start sector | End sector
––––––––––––––––––––––––––––-
1 | 0:00.00 | 8:18.19 | 0 | 37368
2 | 8:18.19 | 6:29.34 | 37369 | 66577
3 | 14:47.53 | 9:11.07 | 66578 | 107909
4 | 23:58.60 | 6:37.11 | 107910 | 137695
5 | 30:35.71 | 5:06.23 | 137696 | 160668
6 | 35:42.19 | 6:33.73 | 160669 | 190216
7 | 42:16.17 | 7:22.23 | 190217 | 223389


Track 1

Filename C:\EAC\Maya - Maya\01 - Oceans Spray.wav

Pre-gap length 0:00:02.00

Peak level 81.9 %
Extraction speed 1.4 X
Track quality 100.0 %
Test CRC 475B5967
Copy CRC 475B5967
Track not present in AccurateRip database
Copy OK

Track 2

Filename C:\EAC\Maya - Maya\02 - Move Along.wav

Pre-gap length 0:00:02.00

Peak level 86.4 %
Extraction speed 1.5 X
Track quality 99.9 %
Test CRC 27431622
Copy CRC 27431622
Track not present in AccurateRip database
Copy OK

Track 3

Filename C:\EAC\Maya - Maya\03 - Feel it.wav

Pre-gap length 0:00:02.00

Peak level 89.0 %
Extraction speed 1.8 X
Track quality 99.9 %
Test CRC 2CD2CFA5
Copy CRC 2CD2CFA5
Track not present in AccurateRip database
Copy OK

Track 4

Filename C:\EAC\Maya - Maya\04 - Power of 4.wav

Pre-gap length 0:00:02.00

Peak level 92.4 %
Extraction speed 2.0 X
Track quality 100.0 %
Test CRC 1F4E707E
Copy CRC 1F4E707E
Track not present in AccurateRip database
Copy OK

Track 5

Filename C:\EAC\Maya - Maya\05 - Bliss.wav

Pre-gap length 0:00:02.00

Peak level 74.4 %
Extraction speed 2.1 X
Track quality 100.0 %
Test CRC 0AC6030D
Copy CRC 0AC6030D
Track not present in AccurateRip database
Copy OK

Track 6

Filename C:\EAC\Maya - Maya\06 - Maya.wav

Pre-gap length 0:00:02.00

Peak level 81.6 %
Extraction speed 2.3 X
Track quality 100.0 %
Test CRC 8FF048B4
Copy CRC 8FF048B4
Track not present in AccurateRip database
Copy OK

Track 7

Filename C:\EAC\Maya - Maya\07 - Through Alps.wav

Pre-gap length 0:00:02.00

Peak level 79.1 %
Extraction speed 2.5 X
Track quality 100.0 %
Test CRC 1A8C8CE0
Copy CRC 1A8C8CE0
Track not present in AccurateRip database
Copy OK


None of the tracks are present in the AccurateRip database

No errors occurred

End of status report

==== Log checksum 6523FCB088B63251B71F716A5EF1CB03693B0CEF01B3C338028C8A2406849D32 ====
Exact Audio Copy V1.0 beta 3 from 29. August 2011

EAC extraction logfile from 24. November 2013, 19:06

Purbayan Chatterjee / Sitarscope

Used drive : hp DVDRAM GT30L Adapter: 0 ID: 1

Read mode : Secure
Utilize accurate stream : Yes
Defeat audio cache : Yes
Make use of C2 pointers : No

Read offset correction : 103
Overread into Lead-In and Lead-Out : No
Fill up missing offset samples with silence : Yes
Delete leading and trailing silent blocks : No
Null samples used in CRC calculations : Yes
Used interface : Native Win32 interface for Win NT & 2000
Gap handling : Appended to previous track

Used output format : User Defined Encoder
Selected bitrate : 256 kBit/s
Quality : High
Add ID3 tag : No
Command line compressor : C:\Program Files (x86)\Exact Audio Copy\Flac\flac.exe
Additional command line options : -8 -V -T "ARTIST=%artist%" -T "TITLE=%title%" -T "ALBUM=%albumtitle%" -T "DATE=%year%" -T "TRACKNUMBER=%tracknr%" -T "TOTALTRACKS=%numtracks%" -T "GENRE=%genre%" -T "ALBUMARTIST=%albumartist%" -T "ALBUM ARTIST=%albumartist%" -T "COMMENT=EAC Secure Mode, Test & Copy, AccurateRip, FLAC -8" %source%


TOC of the extracted CD

Track | Start | Length | Start sector | End sector
––––––––––––––––––––––––––––-
1 | 0:00.00 | 3:38.67 | 0 | 16416
2 | 3:38.67 | 4:06.32 | 16417 | 34898
3 | 7:45.24 | 3:39.71 | 34899 | 51394
4 | 11:25.20 | 4:11.48 | 51395 | 70267
5 | 15:36.68 | 5:20.03 | 70268 | 94270
6 | 20:56.71 | 3:57.36 | 94271 | 112081
7 | 24:54.32 | 3:15.66 | 112082 | 126772
8 | 28:10.23 | 3:07.45 | 126773 | 140842
9 | 31:17.68 | 4:09.37 | 140843 | 159554
10 | 35:27.30 | 5:52.26 | 159555 | 185980


Track 1

Filename C:\EAC\Prbhayan Chatterjee - Sitarscape\01 - Soul Mate.wav

Pre-gap length 0:00:02.00

Peak level 99.4 %
Extraction speed 1.2 X
Track quality 100.0 %
Test CRC 3FD232AF
Copy CRC 3FD232AF
Track not present in AccurateRip database
Copy OK

Track 2

Filename C:\EAC\Prbhayan Chatterjee - Sitarscape\02 - Sagar Kinare.wav

Peak level 99.4 %
Extraction speed 1.4 X
Track quality 100.0 %
Test CRC D6B8C8A2
Copy CRC D6B8C8A2
Track not present in AccurateRip database
Copy OK

Track 3

Filename C:\EAC\Prbhayan Chatterjee - Sitarscape\03 - Thundering Typhoons.wav

Peak level 97.7 %
Extraction speed 1.5 X
Track quality 100.0 %
Test CRC 3E28B3D8
Copy CRC 3E28B3D8
Track not present in AccurateRip database
Copy OK

Track 4

Filename C:\EAC\Prbhayan Chatterjee - Sitarscape\04 - Synphony No 40 (Mozart).wav

Peak level 99.4 %
Extraction speed 1.4 X
Track quality 99.9 %
Test CRC 9C4A4619
Copy CRC 9C4A4619
Track not present in AccurateRip database
Copy OK

Track 5

Filename C:\EAC\Prbhayan Chatterjee - Sitarscape\05 - Kya Yehi Pyaar Hai.wav

Peak level 99.4 %
Extraction speed 1.6 X
Track quality 99.9 %
Test CRC 2B0A592A
Copy CRC 2B0A592A
Track not present in AccurateRip database
Copy OK

Track 6

Filename C:\EAC\Prbhayan Chatterjee - Sitarscape\06 - Dance With The Clouds.wav

Peak level 99.4 %
Extraction speed 1.9 X
Track quality 100.0 %
Test CRC 7FD85DBA
Copy CRC 7FD85DBA
Track not present in AccurateRip database
Copy OK

Track 7

Filename C:\EAC\Prbhayan Chatterjee - Sitarscape\07 - No Waman No Cry.wav

Peak level 99.4 %
Extraction speed 1.6 X
Track quality 99.9 %
Test CRC 593EF1DB
Copy CRC 593EF1DB
Track not present in AccurateRip database
Copy OK

Track 8

Filename C:\EAC\Prbhayan Chatterjee - Sitarscape\08 - Waltz In Paradise.wav

Peak level 99.4 %
Extraction speed 1.9 X
Track quality 100.0 %
Test CRC 4366D8EE
Copy CRC 4366D8EE
Track not present in AccurateRip database
Copy OK

Track 9

Filename C:\EAC\Prbhayan Chatterjee - Sitarscape\09 - Red Rain.wav

Peak level 97.6 %
Extraction speed 2.1 X
Track quality 100.0 %
Test CRC B28C9D53
Copy CRC B28C9D53
Track not present in AccurateRip database
Copy OK

Track 10

Filename C:\EAC\Prbhayan Chatterjee - Sitarscape\10 - Chorono Dhorite (Original Composition By Rabndranath Tagore).wav

Peak level 97.6 %
Extraction speed 2.3 X
Track quality 100.0 %
Test CRC 64AA4986
Copy CRC 64AA4986
Track not present in AccurateRip database
Copy OK


None of the tracks are present in the AccurateRip database

No errors occurred

End of status report

==== Log checksum 22E82DC691D963EE02D9E22BA17E18E6820E1443F1EC121E5B79FA49E5A73A8C ====
Exact Audio Copy V1.0 beta 3 from 29. August 2011

EAC extraction logfile from 24. November 2013, 17:44

Susmit Sen / Depths of the Ocean

Used drive : HL-DT-STDVDRAM GE20LU10 Adapter: 3 ID: 0

Read mode : Secure
Utilize accurate stream : Yes
Defeat audio cache : Yes
Make use of C2 pointers : No

Read offset correction : 667
Overread into Lead-In and Lead-Out : No
Fill up missing offset samples with silence : Yes
Delete leading and trailing silent blocks : No
Null samples used in CRC calculations : Yes
Used interface : Native Win32 interface for Win NT & 2000
Gap handling : Appended to previous track

Used output format : User Defined Encoder
Selected bitrate : 128 kBit/s
Quality : High
Add ID3 tag : No
Command line compressor : C:\Program Files\Exact Audio Copy\Flac\flac.exe
Additional command line options : -8 -V -T "ARTIST=%artist%" -T "TITLE=%title%" -T "ALBUM=%albumtitle%" -T "DATE=%year%" -T "TRACKNUMBER=%tracknr%" -T "TOTALTRACKS=%numtracks%" -T "GENRE=%genre%" -T "ALBUMARTIST=%albumartist%" -T "ALBUM ARTIST=%albumartist%" -T "COMMENT=EAC Secure Mode, Test & Copy, AccurateRip, FLAC -8" %source%


TOC of the extracted CD

Track | Start | Length | Start sector | End sector
––––––––––––––––––––––––––––-
1 | 0:00.00 | 9:51.55 | 0 | 44379
2 | 9:51.55 | 11:25.30 | 44380 | 95784
3 | 21:17.10 | 10:10.25 | 95785 | 141559
4 | 31:27.35 | 10:51.05 | 141560 | 190389
5 | 42:18.40 | 8:18.14 | 190390 | 227753
6 | 50:36.54 | 6:47.41 | 227754 | 258319
7 | 57:24.20 | 2:44.41 | 258320 | 270660


Track 1

Filename D:\EAC_FLAC\Various Artists - Masters Of Fusion The Definitive Collection\Susmit Sen - Depths Of The Oceans\01 - Rejuvenation (feat. Asheem Chakravarty).wav

Pre-gap length 0:00:02.00

Peak level 99.9 %
Extraction speed 1.3 X
Track quality 100.0 %
Test CRC F222DBBD
Copy CRC F222DBBD
Accurately ripped (confidence 2) [B33CBF80] (AR v2)
Copy OK

Track 2

Filename D:\EAC_FLAC\Various Artists - Masters Of Fusion The Definitive Collection\Susmit Sen - Depths Of The Oceans\02 - City Lights (feat. Shubha Mudgal).wav

Pre-gap length 0:00:02.00

Peak level 99.9 %
Extraction speed 1.6 X
Track quality 100.0 %
Test CRC 5E51935B
Copy CRC 5E51935B
Accurately ripped (confidence 2) [0190BED3] (AR v2)
Copy OK

Track 3

Filename D:\EAC_FLAC\Various Artists - Masters Of Fusion The Definitive Collection\Susmit Sen - Depths Of The Oceans\03 - Depths of the Ocean (feat. Nitim Malik).wav

Pre-gap length 0:00:02.00

Peak level 99.9 %
Extraction speed 1.8 X
Track quality 100.0 %
Test CRC 95CC4D94
Copy CRC 95CC4D94
Accurately ripped (confidence 2) [2736A7B7] (AR v2)
Copy OK

Track 4

Filename D:\EAC_FLAC\Various Artists - Masters Of Fusion The Definitive Collection\Susmit Sen - Depths Of The Oceans\04 - Tribute (A one take solo guitar piece).wav

Pre-gap length 0:00:02.00

Peak level 99.9 %
Extraction speed 1.9 X
Track quality 99.9 %
Test CRC C0F89545
Copy CRC C0F89545
Accurately ripped (confidence 2) [822852EC] (AR v2)
Copy OK

Track 5

Filename D:\EAC_FLAC\Various Artists - Masters Of Fusion The Definitive Collection\Susmit Sen - Depths Of The Oceans\05 - Wild Epiphany (feat. Papon).wav

Pre-gap length 0:00:02.00

Peak level 99.9 %
Extraction speed 2.2 X
Track quality 100.0 %
Test CRC 843BD5E8
Copy CRC 843BD5E8
Accurately ripped (confidence 2) [8E49AF4D] (AR v2)
Copy OK

Track 6

Filename D:\EAC_FLAC\Various Artists - Masters Of Fusion The Definitive Collection\Susmit Sen - Depths Of The Oceans\06 - Intimacy (feat. Sari Roy).wav

Pre-gap length 0:00:02.00

Peak level 99.9 %
Extraction speed 2.2 X
Track quality 100.0 %
Test CRC C7AE7FFD
Copy CRC C7AE7FFD
Accurately ripped (confidence 2) [ADD77545] (AR v2)
Copy OK

Track 7

Filename D:\EAC_FLAC\Various Artists - Masters Of Fusion The Definitive Collection\Susmit Sen - Depths Of The Oceans\07 - Six String Salute A solo guitar rendition of the National Anthem).wav

Pre-gap length 0:00:02.00

Peak level 81.2 %
Extraction speed 2.1 X
Track quality 100.0 %
Test CRC BA8DACA5
Copy CRC BA8DACA5
Accurately ripped (confidence 1) [85BC5A9F] (AR v2)
Copy OK


All tracks accurately ripped

No errors occurred

End of status report

–– CUETools DB Plugin V2.1.3

[CTDB TOCID: 5tLhQzS58gQG6xTASlva1euwV7g-] found, Submit result: 5tLhQzS58gQG6xTASlva1euwV7g- has been confirmed
[f74afa6f] (3/3) Accurately ripped


==== Log checksum 45B1C92FB937726F0C49D4C531D9A289F26DF8444682159C38D7045E86378CB7 ====
Exact Audio Copy V1.0 beta 3 from 29. August 2011

EAC extraction logfile from 22. November 2013, 9:47

Ricky Kej / Mesmerizing Flute

Used drive : HL-DT-STDVDRAM GE20LU10 Adapter: 3 ID: 0

Read mode : Secure
Utilize accurate stream : Yes
Defeat audio cache : Yes
Make use of C2 pointers : No

Read offset correction : 667
Overread into Lead-In and Lead-Out : No
Fill up missing offset samples with silence : Yes
Delete leading and trailing silent blocks : No
Null samples used in CRC calculations : Yes
Used interface : Native Win32 interface for Win NT & 2000
Gap handling : Appended to previous track

Used output format : User Defined Encoder
Selected bitrate : 128 kBit/s
Quality : High
Add ID3 tag : No
Command line compressor : C:\Program Files\Exact Audio Copy\Flac\flac.exe
Additional command line options : -8 -V -T "ARTIST=%artist%" -T "TITLE=%title%" -T "ALBUM=%albumtitle%" -T "DATE=%year%" -T "TRACKNUMBER=%tracknr%" -T "TOTALTRACKS=%numtracks%" -T "GENRE=%genre%" -T "ALBUMARTIST=%albumartist%" -T "ALBUM ARTIST=%albumartist%" -T "COMMENT=EAC Secure Mode, Test & Copy, AccurateRip, FLAC -8" %source%


TOC of the extracted CD

Track | Start | Length | Start sector | End sector
––––––––––––––––––––––––––––-
1 | 0:00.00 | 4:50.52 | 0 | 21801
2 | 4:50.52 | 4:21.71 | 21802 | 41447
3 | 9:12.48 | 7:07.26 | 41448 | 73498
4 | 16:19.74 | 5:02.00 | 73499 | 96148
5 | 21:21.74 | 5:30.01 | 96149 | 120899
6 | 26:52.00 | 4:57.38 | 120900 | 143212
7 | 31:49.38 | 6:22.08 | 143213 | 171870
8 | 38:11.46 | 4:54.35 | 171871 | 193955
9 | 43:06.06 | 5:59.61 | 193956 | 220941
10 | 49:05.67 | 4:33.69 | 220942 | 241485


Track 1

Filename D:\EAC_FLAC\Various Artists - Masters Of Fusion The Definitive Collection\Ricky Kej - Mesmeriszing Flute (2011)\01 - Monsoon.wav

Pre-gap length 0:00:02.00

Peak level 100.0 %
Extraction speed 1.1 X
Track quality 100.0 %
Test CRC 7D092F44
Copy CRC 7D092F44
Accurately ripped (confidence 1) [1A26F86B] (AR v2)
Copy OK

Track 2

Filename D:\EAC_FLAC\Various Artists - Masters Of Fusion The Definitive Collection\Ricky Kej - Mesmeriszing Flute (2011)\02 - Without You.wav

Pre-gap length 0:00:02.00

Peak level 100.0 %
Extraction speed 1.1 X
Track quality 99.9 %
Test CRC 114577CC
Copy CRC 114577CC
Accurately ripped (confidence 1) [177075B0] (AR v2)
Copy OK

Track 3

Filename D:\EAC_FLAC\Various Artists - Masters Of Fusion The Definitive Collection\Ricky Kej - Mesmeriszing Flute (2011)\03 - The Ocean.wav

Pre-gap length 0:00:02.00

Peak level 100.0 %
Extraction speed 1.5 X
Track quality 100.0 %
Test CRC 49A4D40C
Copy CRC 49A4D40C
Accurately ripped (confidence 1) [E68723D1] (AR v2)
Copy OK

Track 4

Filename D:\EAC_FLAC\Various Artists - Masters Of Fusion The Definitive Collection\Ricky Kej - Mesmeriszing Flute (2011)\04 - Tu Hi Re (From the film Bombay).wav

Pre-gap length 0:00:02.00

Peak level 97.2 %
Extraction speed 1.6 X
Track quality 100.0 %
Test CRC 45CC4BEA
Copy CRC 45CC4BEA
Accurately ripped (confidence 1) [37A49BE3] (AR v2)
Copy OK

Track 5

Filename D:\EAC_FLAC\Various Artists - Masters Of Fusion The Definitive Collection\Ricky Kej - Mesmeriszing Flute (2011)\05 - A Love Story.wav

Pre-gap length 0:00:02.00

Peak level 100.0 %
Extraction speed 1.6 X
Track quality 99.9 %
Test CRC 4A454337
Copy CRC 4A454337
Accurately ripped (confidence 1) [BE0EFF58] (AR v2)
Copy OK

Track 6

Filename D:\EAC_FLAC\Various Artists - Masters Of Fusion The Definitive Collection\Ricky Kej - Mesmeriszing Flute (2011)\06 - A Taste Of Honey.wav

Pre-gap length 0:00:02.00

Peak level 100.0 %
Extraction speed 1.8 X
Track quality 100.0 %
Test CRC B09EFD77
Copy CRC B09EFD77
Accurately ripped (confidence 1) [2A6BA834] (AR v2)
Copy OK

Track 7

Filename D:\EAC_FLAC\Various Artists - Masters Of Fusion The Definitive Collection\Ricky Kej - Mesmeriszing Flute (2011)\07 - Making Up.wav

Pre-gap length 0:00:02.00

Peak level 100.0 %
Extraction speed 1.8 X
Track quality 99.9 %
Test CRC F2BC6FA0
Copy CRC F2BC6FA0
Accurately ripped (confidence 1) [D0AABEE3] (AR v2)
Copy OK

Track 8

Filename D:\EAC_FLAC\Various Artists - Masters Of Fusion The Definitive Collection\Ricky Kej - Mesmeriszing Flute (2011)\08 - The Longing.wav

Pre-gap length 0:00:02.00

Peak level 100.0 %
Extraction speed 1.8 X
Track quality 99.9 %
Test CRC B0B6445C
Copy CRC B0B6445C
Accurately ripped (confidence 1) [9AEF5A36] (AR v2)
Copy OK

Track 9

Filename D:\EAC_FLAC\Various Artists - Masters Of Fusion The Definitive Collection\Ricky Kej - Mesmeriszing Flute (2011)\09 - Missing You.wav

Pre-gap length 0:00:02.00

Peak level 74.4 %
Extraction speed 2.1 X
Track quality 100.0 %
Test CRC AB7E3C31
Copy CRC AB7E3C31
Accurately ripped (confidence 1) [96A987F1] (AR v2)
Copy OK

Track 10

Filename D:\EAC_FLAC\Various Artists - Masters Of Fusion The Definitive Collection\Ricky Kej - Mesmeriszing Flute (2011)\10 - Hothon Se Choo Lo Tum (A Tribute to Jagjit Singh).wav

Pre-gap length 0:00:02.00

Peak level 100.0 %
Extraction speed 2.0 X
Track quality 99.9 %
Test CRC 36D49D2C
Copy CRC 36D49D2C
Accurately ripped (confidence 1) [94DE68F5] (AR v2)
Copy OK


All tracks accurately ripped

No errors occurred

End of status report

–– CUETools DB Plugin V2.1.3

[CTDB TOCID: uDCxYVTtnrEZ6gBlgBQhrxW8Y3g-] found, Submit result: uDCxYVTtnrEZ6gBlgBQhrxW8Y3g- has been confirmed
[06d2340a] (2/2) Accurately ripped


==== Log checksum 014BA390A41DFB4D2B39D19731683217D415EE58F3438109BF3DD00CA7B5614E ====
Exact Audio Copy V1.0 beta 3 from 29. August 2011

EAC extraction logfile from 22. November 2013, 12:15

Variousn Artists / The Urban Grooves Project: India

Used drive : HL-DT-STDVDRAM GE20LU10 Adapter: 3 ID: 0

Read mode : Secure
Utilize accurate stream : Yes
Defeat audio cache : Yes
Make use of C2 pointers : No

Read offset correction : 667
Overread into Lead-In and Lead-Out : No
Fill up missing offset samples with silence : Yes
Delete leading and trailing silent blocks : No
Null samples used in CRC calculations : Yes
Used interface : Native Win32 interface for Win NT & 2000
Gap handling : Appended to previous track

Used output format : User Defined Encoder
Selected bitrate : 128 kBit/s
Quality : High
Add ID3 tag : No
Command line compressor : C:\Program Files\Exact Audio Copy\Flac\flac.exe
Additional command line options : -8 -V -T "ARTIST=%artist%" -T "TITLE=%title%" -T "ALBUM=%albumtitle%" -T "DATE=%year%" -T "TRACKNUMBER=%tracknr%" -T "TOTALTRACKS=%numtracks%" -T "GENRE=%genre%" -T "ALBUMARTIST=%albumartist%" -T "ALBUM ARTIST=%albumartist%" -T "COMMENT=EAC Secure Mode, Test & Copy, AccurateRip, FLAC -8" %source%


TOC of the extracted CD

Track | Start | Length | Start sector | End sector
––––––––––––––––––––––––––––-
1 | 0:00.00 | 7:14.68 | 0 | 32617
2 | 7:14.68 | 5:01.05 | 32618 | 55197
3 | 12:15.73 | 6:08.01 | 55198 | 82798
4 | 18:23.74 | 5:33.67 | 82799 | 107840
5 | 23:57.66 | 5:02.11 | 107841 | 130501
6 | 29:00.02 | 6:04.63 | 130502 | 157864
7 | 35:04.65 | 5:23.20 | 157865 | 182109
8 | 40:28.10 | 8:01.12 | 182110 | 218196
9 | 48:29.22 | 4:20.72 | 218197 | 237768
10 | 52:50.19 | 3:34.68 | 237769 | 253886
11 | 56:25.12 | 3:49.71 | 253887 | 271132
12 | 60:15.08 | 6:02.72 | 271133 | 298354


Track 1

Filename D:\EAC_FLAC\Various Artists - Masters Of Fusion The Definitive Collection\Various Artists - The Urban Grooves Project India\01 - Arani - White Flower.wav

Pre-gap length 0:00:02.00

Peak level 98.8 %
Extraction speed 1.1 X
Track quality 99.9 %
Test CRC F86CA14D
Copy CRC F86CA14D
Track not present in AccurateRip database
Copy OK

Track 2

Filename D:\EAC_FLAC\Various Artists - Masters Of Fusion The Definitive Collection\Various Artists - The Urban Grooves Project India\02 - Beenti - The Lost Ring.wav

Pre-gap length 0:00:02.00

Peak level 98.8 %
Extraction speed 1.3 X
Track quality 100.0 %
Test CRC F1A54712
Copy CRC F1A54712
Track not present in AccurateRip database
Copy OK

Track 3

Filename D:\EAC_FLAC\Various Artists - Masters Of Fusion The Definitive Collection\Various Artists - The Urban Grooves Project India\03 - Katyu Chukh - Call For Deliverance.wav

Pre-gap length 0:00:02.00

Peak level 98.8 %
Extraction speed 1.5 X
Track quality 100.0 %
Test CRC DF1816A6
Copy CRC DF1816A6
Track not present in AccurateRip database
Copy OK

Track 4

Filename D:\EAC_FLAC\Various Artists - Masters Of Fusion The Definitive Collection\Various Artists - The Urban Grooves Project India\04 - Dapyomas Bal Yaras - The Light Within.wav

Pre-gap length 0:00:02.00

Peak level 98.8 %
Extraction speed 1.6 X
Track quality 100.0 %
Test CRC F27209C2
Copy CRC F27209C2
Track not present in AccurateRip database
Copy OK

Track 5

Filename D:\EAC_FLAC\Various Artists - Masters Of Fusion The Definitive Collection\Various Artists - The Urban Grooves Project India\05 - Hridh Majhare - My Precious Love.wav

Pre-gap length 0:00:02.00

Peak level 98.8 %
Extraction speed 1.7 X
Track quality 100.0 %
Test CRC 63B4B73A
Copy CRC 63B4B73A
Track not present in AccurateRip database
Copy OK

Track 6

Filename D:\EAC_FLAC\Various Artists - Masters Of Fusion The Definitive Collection\Various Artists - The Urban Grooves Project India\06 - Deebanishi - Boatman's Lament.wav

Pre-gap length 0:00:02.00

Peak level 98.8 %
Extraction speed 1.7 X
Track quality 99.9 %
Test CRC CB5BE50B
Copy CRC CB5BE50B
Track not present in AccurateRip database
Copy OK

Track 7

Filename D:\EAC_FLAC\Various Artists - Masters Of Fusion The Definitive Collection\Various Artists - The Urban Grooves Project India\07 - Kala Shankala & Gora Rang - Wedding Songs.wav

Pre-gap length 0:00:02.00

Peak level 98.8 %
Extraction speed 1.9 X
Track quality 100.0 %
Test CRC 055C0066
Copy CRC 055C0066
Track not present in AccurateRip database
Copy OK

Track 8

Filename D:\EAC_FLAC\Various Artists - Masters Of Fusion The Definitive Collection\Various Artists - The Urban Grooves Project India\08 - Heer - A Ballad Of Undying Love.wav

Pre-gap length 0:00:02.00

Peak level 95.4 %
Extraction speed 2.1 X
Track quality 100.0 %
Test CRC 3F11C01E
Copy CRC 3F11C01E
Track not present in AccurateRip database
Copy OK

Track 9

Filename D:\EAC_FLAC\Various Artists - Masters Of Fusion The Definitive Collection\Various Artists - The Urban Grooves Project India\09 - Job Kurian - Kaythola Paaya Virichu (Malayalam Folk Song).wav

Pre-gap length 0:00:02.00

Peak level 87.1 %
Extraction speed 1.8 X
Track quality 99.9 %
Test CRC 6FD125BF
Copy CRC 6FD125BF
Track not present in AccurateRip database
Copy OK

Track 10

Filename D:\EAC_FLAC\Various Artists - Masters Of Fusion The Definitive Collection\Various Artists - The Urban Grooves Project India\10 - Chaitra HG - Balakrishnan Di (Tamil Folk Song).wav

Pre-gap length 0:00:02.00

Peak level 96.5 %
Extraction speed 2.1 X
Track quality 100.0 %
Test CRC 85A21A77
Copy CRC 85A21A77
Track not present in AccurateRip database
Copy OK

Track 11

Filename D:\EAC_FLAC\Various Artists - Masters Of Fusion The Definitive Collection\Various Artists - The Urban Grooves Project India\11 - Piyush Soni - Mhaka Naka Go (The Goan Cult Song).wav

Pre-gap length 0:00:02.00

Peak level 98.8 %
Extraction speed 2.1 X
Track quality 100.0 %
Test CRC EDC3B7E7
Copy CRC EDC3B7E7
Track not present in AccurateRip database
Copy OK

Track 12

Filename D:\EAC_FLAC\Various Artists - Masters Of Fusion The Definitive Collection\Various Artists - The Urban Grooves Project India\12 - Piyush Soni - Goa Massala Mix.wav

Pre-gap length 0:00:02.00

Peak level 98.8 %
Extraction speed 2.4 X
Track quality 100.0 %
Test CRC 81593868
Copy CRC 81593868
Track not present in AccurateRip database
Copy OK


None of the tracks are present in the AccurateRip database

No errors occurred

End of status report

–– CUETools DB Plugin V2.1.3

[CTDB TOCID: h.al73woU5fJMlpN4pRCpiSfE90-] disk not present in database, Submit result: h.al73woU5fJMlpN4pRCpiSfE90- has been uploaded


==== Log checksum 8A2B854EB3DE11362EFD91F93D72AA03CD9BE0B4F3BAD2BC0577EC499E2BE005 ====
Exact Audio Copy V1.0 beta 3 from 29. August 2011

EAC extraction logfile from 25. November 2013, 7:11

Various Artists / East Blends West

Used drive : hp DVDRAM GT30L Adapter: 0 ID: 1

Read mode : Secure
Utilize accurate stream : Yes
Defeat audio cache : Yes
Make use of C2 pointers : No

Read offset correction : 103
Overread into Lead-In and Lead-Out : No
Fill up missing offset samples with silence : Yes
Delete leading and trailing silent blocks : No
Null samples used in CRC calculations : Yes
Used interface : Native Win32 interface for Win NT & 2000
Gap handling : Appended to previous track

Used output format : User Defined Encoder
Selected bitrate : 256 kBit/s
Quality : High
Add ID3 tag : No
Command line compressor : C:\Program Files (x86)\Exact Audio Copy\Flac\flac.exe
Additional command line options : -8 -V -T "ARTIST=%artist%" -T "TITLE=%title%" -T "ALBUM=%albumtitle%" -T "DATE=%year%" -T "TRACKNUMBER=%tracknr%" -T "TOTALTRACKS=%numtracks%" -T "GENRE=%genre%" -T "ALBUMARTIST=%albumartist%" -T "ALBUM ARTIST=%albumartist%" -T "COMMENT=EAC Secure Mode, Test & Copy, AccurateRip, FLAC -8" %source%


TOC of the extracted CD

Track | Start | Length | Start sector | End sector
––––––––––––––––––––––––––––-
1 | 0:00.00 | 7:29.28 | 0 | 33702
2 | 7:29.28 | 6:34.17 | 33703 | 63269
3 | 14:03.45 | 6:40.18 | 63270 | 93287
4 | 20:43.63 | 5:54.73 | 93288 | 119910
5 | 26:38.61 | 6:12.67 | 119911 | 147877
6 | 32:51.53 | 7:04.28 | 147878 | 179705
7 | 39:56.06 | 2:38.28 | 179706 | 191583
8 | 42:34.34 | 6:45.42 | 191584 | 222000
9 | 49:20.01 | 7:19.02 | 222001 | 254927
10 | 56:39.03 | 6:55.30 | 254928 | 286082
11 | 63:34.33 | 7:05.28 | 286083 | 317985


Track 1

Filename C:\EAC\Various Artists - East Blends West\01 - Lokesh Anand - Swan Lake, Op. 20 - Scene, Act 2 - 10 (Tchaikovsky).wav

Pre-gap length 0:00:02.00

Peak level 95.1 %
Extraction speed 1.4 X
Track quality 100.0 %
Test CRC 697CF14A
Copy CRC 697CF14A
Track not present in AccurateRip database
Copy OK

Track 2

Filename C:\EAC\Various Artists - East Blends West\02 - Murad Ali Khan - Symphony 40 in G Minor, K 550 - Molto Allegro (Mozart).wav

Pre-gap length 0:00:02.00

Peak level 95.3 %
Extraction speed 1.6 X
Track quality 100.0 %
Test CRC 68559D6A
Copy CRC 68559D6A
Track not present in AccurateRip database
Copy OK

Track 3

Filename C:\EAC\Various Artists - East Blends West\03 - Sudhir Gautam - Fur Elise (Beethoven).wav

Pre-gap length 0:00:02.00

Peak level 95.4 %
Extraction speed 1.7 X
Track quality 100.0 %
Test CRC 6D36255D
Copy CRC 6D36255D
Track not present in AccurateRip database
Copy OK

Track 4

Filename C:\EAC\Various Artists - East Blends West\04 - Fateh Ali Khan - Serenade13 InG K525, Eine Kleine Nachtmusik-1 Allegro.wav

Pre-gap length 0:00:02.00

Peak level 95.8 %
Extraction speed 1.9 X
Track quality 100.0 %
Test CRC 37790C62
Copy CRC 37790C62
Track not present in AccurateRip database
Copy OK

Track 5

Filename C:\EAC\Various Artists - East Blends West\05 - Kiran Kumar Sharma - The Four Seasons, Spring, Op.8-1-1 Allegro (Vivaldi).wav

Pre-gap length 0:00:02.00

Peak level 95.9 %
Extraction speed 2.0 X
Track quality 100.0 %
Test CRC 0ACD5874
Copy CRC 0ACD5874
Track not present in AccurateRip database
Copy OK

Track 6

Filename C:\EAC\Various Artists - East Blends West\06 - Sharat Chandra Srivastava - Carmina Burana, O Fortuna (Orff).wav

Pre-gap length 0:00:02.00

Peak level 95.8 %
Extraction speed 2.2 X
Track quality 100.0 %
Test CRC 35EE6974
Copy CRC 35EE6974
Track not present in AccurateRip database
Copy OK

Track 7

Filename C:\EAC\Various Artists - East Blends West\07 - Sharat Chandra Srivastava - Symphony25 in GMinor K183-1 Allegro Con Brio.wav

Pre-gap length 0:00:02.00

Peak level 93.8 %
Extraction speed 1.7 X
Track quality 99.9 %
Test CRC 8C1C9DE1
Copy CRC 8C1C9DE1
Track not present in AccurateRip database
Copy OK

Track 8

Filename C:\EAC\Various Artists - East Blends West\08 - Neel Ranjan Mukherjee - Symphony No. 9 Ode To Joy (Beethoven).wav

Pre-gap length 0:00:02.00

Peak level 95.9 %
Extraction speed 2.4 X
Track quality 100.0 %
Test CRC 77178E57
Copy CRC 77178E57
Track not present in AccurateRip database
Copy OK

Track 9

Filename C:\EAC\Various Artists - East Blends West\09 - Vidushi Saraswati Rajagopalan - Piano Sonata No. 11 in A Major K331 (Mozart).wav

Pre-gap length 0:00:02.00

Peak level 94.4 %
Extraction speed 2.5 X
Track quality 100.0 %
Test CRC F6D3022E
Copy CRC F6D3022E
Track not present in AccurateRip database
Copy OK

Track 10

Filename C:\EAC\Various Artists - East Blends West\10 - G. Raghuraman - Peer Gynt - Prelude To Act 4 Morning (Grieg).wav

Pre-gap length 0:00:02.00

Peak level 94.9 %
Extraction speed 2.6 X
Track quality 100.0 %
Test CRC 28DA9956
Copy CRC 28DA9956
Track not present in AccurateRip database
Copy OK

Track 11

Filename C:\EAC\Various Artists - East Blends West\11 - Pt. Mukesh Sharma - Yumeji Theme - In The Mood For Love (Umebayashi).wav

Pre-gap length 0:00:02.00

Peak level 95.3 %
Extraction speed 2.7 X
Track quality 100.0 %
Test CRC 99A2724E
Copy CRC 99A2724E
Track not present in AccurateRip database
Copy OK


None of the tracks are present in the AccurateRip database

No errors occurred

End of status report

==== Log checksum ADCB6EE9C268FB29A1A186C5B02B4F517AB447D42A2A78789AE916D23623E46F ====
Exact Audio Copy V1.0 beta 3 from 29. August 2011

EAC extraction logfile from 22. November 2013, 13:43

Advaita / Grounded In Space

Used drive : HL-DT-STDVDRAM GE20LU10 Adapter: 3 ID: 0

Read mode : Secure
Utilize accurate stream : Yes
Defeat audio cache : Yes
Make use of C2 pointers : No

Read offset correction : 667
Overread into Lead-In and Lead-Out : No
Fill up missing offset samples with silence : Yes
Delete leading and trailing silent blocks : No
Null samples used in CRC calculations : Yes
Used interface : Native Win32 interface for Win NT & 2000
Gap handling : Appended to previous track

Used output format : User Defined Encoder
Selected bitrate : 128 kBit/s
Quality : High
Add ID3 tag : No
Command line compressor : C:\Program Files\Exact Audio Copy\Flac\flac.exe
Additional command line options : -8 -V -T "ARTIST=%artist%" -T "TITLE=%title%" -T "ALBUM=%albumtitle%" -T "DATE=%year%" -T "TRACKNUMBER=%tracknr%" -T "TOTALTRACKS=%numtracks%" -T "GENRE=%genre%" -T "ALBUMARTIST=%albumartist%" -T "ALBUM ARTIST=%albumartist%" -T "COMMENT=EAC Secure Mode, Test & Copy, AccurateRip, FLAC -8" %source%


TOC of the extracted CD

Track | Start | Length | Start sector | End sector
––––––––––––––––––––––––––––-
1 | 0:00.00 | 5:38.63 | 0 | 25412
2 | 5:38.63 | 4:31.50 | 25413 | 45787
3 | 10:10.38 | 5:28.07 | 45788 | 70394
4 | 15:38.45 | 5:05.25 | 70395 | 93294
5 | 20:43.70 | 5:17.44 | 93295 | 117113
6 | 26:01.39 | 7:06.48 | 117114 | 149111
7 | 33:08.12 | 7:43.19 | 149112 | 183855
8 | 40:51.31 | 5:16.13 | 183856 | 207568
9 | 46:07.44 | 3:45.58 | 207569 | 224501
10 | 49:53.27 | 6:17.15 | 224502 | 252791


Track 1

Filename D:\EAC_FLAC\Various Artists - Masters Of Fusion The Definitive Collection\Advaita - Grounded In Space\01 - Rasiya.wav

Pre-gap length 0:00:02.00

Peak level 99.9 %
Extraction speed 1.3 X
Track quality 100.0 %
Test CRC D0BB853F
Copy CRC D0BB853F
Track not present in AccurateRip database
Copy OK

Track 2

Filename D:\EAC_FLAC\Various Artists - Masters Of Fusion The Definitive Collection\Advaita - Grounded In Space\02 - Suspended.wav

Peak level 99.9 %
Extraction speed 1.4 X
Track quality 100.0 %
Test CRC 9D97B205
Copy CRC 9D97B205
Track not present in AccurateRip database
Copy OK

Track 3

Filename D:\EAC_FLAC\Various Artists - Masters Of Fusion The Definitive Collection\Advaita - Grounded In Space\03 - Miliha.wav

Pre-gap length 0:00:00.63

Peak level 98.3 %
Extraction speed 1.6 X
Track quality 100.0 %
Test CRC 41F514B1
Copy CRC 41F514B1
Track not present in AccurateRip database
Copy OK

Track 4

Filename D:\EAC_FLAC\Various Artists - Masters Of Fusion The Definitive Collection\Advaita - Grounded In Space\04 - Ghir Ghir.wav

Peak level 99.9 %
Extraction speed 1.7 X
Track quality 100.0 %
Test CRC 0866A6AB
Copy CRC 0866A6AB
Track not present in AccurateRip database
Copy OK

Track 5

Filename D:\EAC_FLAC\Various Artists - Masters Of Fusion The Definitive Collection\Advaita - Grounded In Space\05 - Drops of Earth.wav

Peak level 99.9 %
Extraction speed 1.8 X
Track quality 100.0 %
Test CRC BA5755C8
Copy CRC BA5755C8
Track not present in AccurateRip database
Copy OK

Track 6

Filename D:\EAC_FLAC\Various Artists - Masters Of Fusion The Definitive Collection\Advaita - Grounded In Space\06 - Gates Of Dawn.wav

Peak level 98.3 %
Extraction speed 2.0 X
Track quality 100.0 %
Test CRC F73373F6
Copy CRC F73373F6
Track not present in AccurateRip database
Copy OK

Track 7

Filename D:\EAC_FLAC\Various Artists - Masters Of Fusion The Definitive Collection\Advaita - Grounded In Space\07 - So Lost.wav

Peak level 98.3 %
Extraction speed 1.5 X
Track quality 99.8 %
Test CRC 0984F306
Copy CRC 0984F306
Track not present in AccurateRip database
Copy OK

Track 8

Filename D:\EAC_FLAC\Various Artists - Masters Of Fusion The Definitive Collection\Advaita - Grounded In Space\08 - Durga.wav

Pre-gap length 0:00:02.00

Peak level 99.8 %
Extraction speed 2.3 X
Track quality 100.0 %
Test CRC FED02EA2
Copy CRC FED02EA2
Track not present in AccurateRip database
Copy OK

Track 9

Filename D:\EAC_FLAC\Various Artists - Masters Of Fusion The Definitive Collection\Advaita - Grounded In Space\09 - Mere Yaar.wav

Pre-gap length 0:00:01.24

Peak level 99.1 %
Extraction speed 2.0 X
Track quality 99.9 %
Test CRC 416D2D19
Copy CRC 416D2D19
Track not present in AccurateRip database
Copy OK

Track 10

Filename D:\EAC_FLAC\Various Artists - Masters Of Fusion The Definitive Collection\Advaita - Grounded In Space\10 - Hansadhwani.wav

Pre-gap length 0:00:00.71

Peak level 99.9 %
Extraction speed 2.3 X
Track quality 99.9 %
Test CRC CFDCEF26
Copy CRC CFDCEF26
Track not present in AccurateRip database
Copy OK


None of the tracks are present in the AccurateRip database

No errors occurred

End of status report

–– CUETools DB Plugin V2.1.3

[CTDB TOCID: hrJh5cIhjrrBWrzqzh9b4GbzW9s-] found, Submit result: hrJh5cIhjrrBWrzqzh9b4GbzW9s- has been uploaded
[0839e36d] (1/2) Differs in 9 samples @36:40:30
[567f9851] (1/2) Differs in 175 samples @16:39:22
You can use CUETools to repair this rip.


==== Log checksum F37AE35F7EC54E539B30115D1A6BE0C7D3FF6ECD96A8308ED1D0C02D805D3547 ====



Various Artists - Masters Of Fusion - The Definitive Collection (2012) {16CD Set EMI 50999 624886 2 4}



===