Subcategories

VA - Now That's What I Call the 1990s: The Alternative Pop Collection (2010)

Posted By: delpotro
VA - Now That's What I Call the 1990s: The Alternative Pop Collection (2010)

VA - Now That's What I Call the 1990s: The Alternative Pop Collection (2010)
EAC Rip | FLAC (tracks+log+.cue) | 01:13:40 | 536 Mb
Pop Rock, Alternative Rock | Label: EMI Records

Now That’s What I Call the 1990s focuses on the decade’s second half, splitting its time between pop songs and the alternative music that followed in grunge’s footsteps. Pearl Jam and other hard-edged bands are absent from this compilation; instead, slicker groups like Live (“I Alone”) and Collective Soul (“Shine”) represent the wave of mainstream rock that swept through the Clinton era, with Everclear (“Father of Mine”) and Sublime (“What I Got”) thrown in for good measure. Des’ree’s “You Gotta Be” and New Radicals’ “You Get What You Give” help anchor the album’s pop side, while the inclusion of Edwin McCain’s “I’ll Be” is a reminder that the decade also spawned many an omnipresent wedding song. Ignoring grunge, Euro-dance, and teen pop makes this a narrow-minded compilation, but for those who like the aforementioned songs, Now That's What I Call the 1990s is an easy way to get them all in one place.
Tracklist:
1. New Radicals - You Get What You Give (04:40)
2. Spin Doctors - Two Princes (04:15)
3. Barenaked Ladies - One Week (02:49)
4. Meredith Brooks - Bitch (04:13)
5. Sheryl Crow - If It Makes You Happy (04:31)
6. Joan Osborne - One Of Us (04:16)
7. Lisa Loeb - Stay (I Missed You) (03:04)
8. Desree - You Gotta Be (04:06)
9. Duran Duran - Ordinary World (04:40)
10. Shawn Mullins - Lullabye (04:33)
11. Edwin McCain - Ill Be (04:27)
12. Tonic - If You Could Only See (04:23)
13. Vertical Horizon Everything You Want (04:16)
14. Everclear - Father Of Mine (03:53)
15. Live - I Alone (03:51)
16. Collective Soul - Shine (05:07)
17. Blind Melon - No Rain (03:36)
18. Sublime - What I Got (02:49)

Exact Audio Copy V1.0 beta 3 from 29. August 2011

EAC extraction logfile from 23. May 2012, 21:54

Various Artists / NOW That's What I Call the 1990s

Used drive : ASUS DRW-2014L1T Adapter: 1 ID: 0

Read mode : Secure
Utilize accurate stream : Yes
Defeat audio cache : Yes
Make use of C2 pointers : No

Read offset correction : 6
Overread into Lead-In and Lead-Out : No
Fill up missing offset samples with silence : Yes
Delete leading and trailing silent blocks : No
Null samples used in CRC calculations : Yes
Used interface : Native Win32 interface for Win NT & 2000
Gap handling : Appended to previous track

Used output format : User Defined Encoder
Selected bitrate : 1024 kBit/s
Quality : High
Add ID3 tag : No
Command line compressor : C:\Program Files (x86)\Exact Audio Copy\Flac\flac.exe
Additional command line options : -8 -V -T "ARTIST=%artist%" -T "TITLE=%title%" -T "ALBUM=%albumtitle%" -T "DATE=%year%" -T "TRACKNUMBER=%tracknr%" -T "GENRE=%genre%" -T "PERFORMER=%albuminterpret%" -T "COMPOSER=%composer%" %haslyrics%–tag-from-file=LYRICS="%lyricsfile%"%haslyrics% -T "ALBUMARTIST=%albumartist%" -T "DISCNUMBER=%cdnumber%" -T "TOTALDISCS=%totalcds%" -T "TOTALTRACKS=%numtracks%" -T "COMMENT=%comment%" %source% -o %dest%


TOC of the extracted CD

Track | Start | Length | Start sector | End sector
––––––––––––––––––––––––––––-
1 | 0:00.00 | 4:40.56 | 0 | 21055
2 | 4:40.56 | 4:15.70 | 21056 | 40250
3 | 8:56.51 | 2:49.21 | 40251 | 52946
4 | 11:45.72 | 4:13.23 | 52947 | 71944
5 | 15:59.20 | 4:31.57 | 71945 | 92326
6 | 20:31.02 | 4:16.58 | 92327 | 111584
7 | 24:47.60 | 3:04.73 | 111585 | 125457
8 | 27:52.58 | 4:06.45 | 125458 | 143952
9 | 31:59.28 | 4:40.71 | 143953 | 165023
10 | 36:40.24 | 4:33.24 | 165024 | 185522
11 | 41:13.48 | 4:27.65 | 185523 | 205612
12 | 45:41.38 | 4:23.04 | 205613 | 225341
13 | 50:04.42 | 4:16.64 | 225342 | 244605
14 | 54:21.31 | 3:53.42 | 244606 | 262122
15 | 58:14.73 | 3:51.67 | 262123 | 279514
16 | 62:06.65 | 5:07.27 | 279515 | 302566
17 | 67:14.17 | 3:36.37 | 302567 | 318803
18 | 70:50.54 | 2:49.46 | 318804 | 331524


Track 1

Filename d:\wave dumps\01 - New Radicals - You Get What You Give.wav

Pre-gap length 0:00:02.00

Peak level 99.8 %
Extraction speed 3.0 X
Track quality 100.0 %
Test CRC 6FEC8212
Copy CRC 6FEC8212
Accurately ripped (confidence 5) [C94FD5A2] (AR v2)
Copy OK

Track 2

Filename d:\wave dumps\02 - Spin Doctors - Two Princes.wav

Peak level 100.0 %
Extraction speed 1.9 X
Track quality 99.9 %
Test CRC 532CDCE3
Copy CRC 532CDCE3
Accurately ripped (confidence 5) [D7E8274A] (AR v2)
Copy OK

Track 3

Filename d:\wave dumps\03 - Barenaked Ladies - One Week.wav

Peak level 100.0 %
Extraction speed 1.8 X
Track quality 99.9 %
Test CRC 931D6EDD
Copy CRC 931D6EDD
Accurately ripped (confidence 5) [23781312] (AR v2)
Copy OK

Track 4

Filename d:\wave dumps\04 - Meredith Brooks - Bitch.wav

Peak level 100.0 %
Extraction speed 2.2 X
Track quality 99.9 %
Test CRC FD0E2214
Copy CRC FD0E2214
Accurately ripped (confidence 5) [1FC5A4E4] (AR v2)
Copy OK

Track 5

Filename d:\wave dumps\05 - Sheryl Crow - If It Makes You Happy.wav

Peak level 99.4 %
Extraction speed 4.0 X
Track quality 100.0 %
Test CRC 09C0B3C6
Copy CRC 09C0B3C6
Accurately ripped (confidence 4) [E79CEB0D] (AR v2)
Copy OK

Track 6

Filename d:\wave dumps\06 - Joan Osborne - One Of Us.wav

Peak level 100.0 %
Extraction speed 4.2 X
Track quality 100.0 %
Test CRC FE7658B6
Copy CRC FE7658B6
Accurately ripped (confidence 4) [6481A3F2] (AR v2)
Copy OK

Track 7

Filename d:\wave dumps\07 - Lisa Loeb - Stay (I Missed You).wav

Peak level 100.0 %
Extraction speed 4.1 X
Track quality 100.0 %
Test CRC E9D4A727
Copy CRC E9D4A727
Accurately ripped (confidence 5) [CAD37D04] (AR v2)
Copy OK

Track 8

Filename d:\wave dumps\08 - Des'ree - You Gotta Be.wav

Peak level 100.0 %
Extraction speed 4.5 X
Track quality 100.0 %
Test CRC B7C9F248
Copy CRC B7C9F248
Accurately ripped (confidence 4) [CAF1790F] (AR v2)
Copy OK

Track 9

Filename d:\wave dumps\09 - Duran Duran - Ordinary World.wav

Peak level 100.0 %
Extraction speed 4.8 X
Track quality 100.0 %
Test CRC C4ADEFEF
Copy CRC C4ADEFEF
Accurately ripped (confidence 5) [134E2624] (AR v2)
Copy OK

Track 10

Filename d:\wave dumps\10 - Shawn Mullins - Lullaby.wav

Peak level 98.8 %
Extraction speed 4.9 X
Track quality 100.0 %
Test CRC 6020B144
Copy CRC 6020B144
Accurately ripped (confidence 4) [BC55D419] (AR v2)
Copy OK

Track 11

Filename d:\wave dumps\11 - Edwin McCain - I'll Be.wav

Peak level 98.8 %
Extraction speed 5.1 X
Track quality 100.0 %
Test CRC 7F1AE980
Copy CRC 7F1AE980
Accurately ripped (confidence 4) [D916D97C] (AR v2)
Copy OK

Track 12

Filename d:\wave dumps\12 - Tonic - If You Could Only See.wav

Peak level 97.7 %
Extraction speed 5.3 X
Track quality 100.0 %
Test CRC 1473BA11
Copy CRC 1473BA11
Accurately ripped (confidence 5) [CEB26D69] (AR v2)
Copy OK

Track 13

Filename d:\wave dumps\13 - Vertical Horizon - Everything You Want.wav

Peak level 100.0 %
Extraction speed 5.5 X
Track quality 100.0 %
Test CRC 7CBAD4A2
Copy CRC 7CBAD4A2
Accurately ripped (confidence 4) [2541AAF4] (AR v2)
Copy OK

Track 14

Filename d:\wave dumps\14 - Everclear - Father Of Mine.wav

Suspicious position 0:03:33

Peak level 100.0 %
Extraction speed 1.5 X
Track quality 99.7 %
Test CRC A7A3D42D
Copy CRC A7A3D42D
Accurately ripped (confidence 5) [5F8BEB42] (AR v2)
Copy finished

Track 15

Filename d:\wave dumps\15 - Live - I Alone.wav

Peak level 100.0 %
Extraction speed 5.6 X
Track quality 100.0 %
Test CRC 198F0DE9
Copy CRC 198F0DE9
Accurately ripped (confidence 5) [E2EE6EDF] (AR v2)
Copy OK

Track 16

Filename d:\wave dumps\16 - Collective Soul - Shine.wav

Peak level 100.0 %
Extraction speed 6.0 X
Track quality 100.0 %
Test CRC 52374BF4
Copy CRC 52374BF4
Accurately ripped (confidence 5) [F12B9461] (AR v2)
Copy OK

Track 17

Filename d:\wave dumps\17 - Blind Melon - No Rain.wav

Peak level 99.8 %
Extraction speed 5.8 X
Track quality 100.0 %
Test CRC 45418B1A
Copy CRC 45418B1A
Accurately ripped (confidence 4) [8FFEA9A2] (AR v2)
Copy OK

Track 18

Filename d:\wave dumps\18 - Sublime - What I Got.wav

Peak level 100.0 %
Extraction speed 3.9 X
Track quality 100.0 %
Test CRC AD9DC7D7
Copy CRC AD9DC7D7
Accurately ripped (confidence 2) [D8FC21E3] (AR v2)
Copy OK


All tracks accurately ripped

There were errors

End of status report

==== Log checksum 90B046166A074AF4B6DC06F702CFE4600229EAAC921489F5D7ED93722DE244C7 ====

Thanks to the Original ripper Creator !