Subcategories

VA - Original Album Series: German Rock Classics (2015)

Posted By: delpotro
VA - Original Album Series: German Rock Classics (2015)

VA - Original Album Series: German Rock Classics (2015)
EAC Rip | FLAC (tracks+log+.cue) | Scans included | 03:53:23 | 1,5 Gb
Classic Rock, Blues Rock, Progressive Rock | Label: Warner Music Group Germany

Warner Music Group Germany are proud to present Original Album Series: German Rock Classics. Udo Lindenberg, Das Dritte Ohr, Interzone, The Boots, Kin Ping Meh. All the albums were remastered in 2015.
Tracklist:
CD 1: Udo Lindenberg - Lindenberg (1971)

VA - Original Album Series: German Rock Classics (2015)

1. Good Life City (Bonus Track - Single A-Side) (2:58)
2. It Is Allright Again (3:10)
3. We've Had Our Time (4:07)
4. Paradise Now (9:01)
5. Stardance (2:16)
6. We Could Be Friends (4:44)
7. The Children Of Your Children Won't Even Know Your Name (11:38)


CD 2: Das Dritte Ohr - Zahltag (1980)

VA - Original Album Series: German Rock Classics (2015)

1. Zahltag (4:34)
2. Wenn die Sonne sinkt (3:18)
3. Rita Rita (7:41)
4. Mordwest-Stadt (4:05)
5. Maibock (3:35)
6. Kalte Wut (4:44)
7. Bleib weg (3:34)
8. Schwarzer Wurm (5:41)
9. Disco Fuzzies (3:28)
Bonus Tracks:
10. Starvin' Traveller (4:17)
11. Sippin' Time (2:43)
12. Yo-Yo Woman (4:46)


CD 3: Interzone - Interzone (1981)

VA - Original Album Series: German Rock Classics (2015)

1. Hintermänner (4:00)
2. Blues (3:14)
3. Kinderlied (3:31)
4. Blnw (2:51)
5. Jobs (2:51)
6. Rita & Klaus (3:22)
7. Dilettanten des wunders (3:27)
8. Die lebendigen + die toten (4:18)
9. Liebeslied (4:04)
10. Glotze (4:00)
11. Karl (3:59)


CD 4: The Boots - Here Are The Boots (1965)

VA - Original Album Series: German Rock Classics (2015)

1. She's About A Mover (2:46)
2. Mama Keep Your Big Mouth Shut (3:12)
3. Gloria (3:29)
4. It Ain't Necessarily So (2:28)
5. Got Love If You Want It (2:42)
6. But You Never Do It, Babe (2:32)
7. Enchanted Sea (4:03)
8. Baby, Please Don't Go (2:34)
9. Whatcha Gonna Do About It (2:21)
10. When I Loved Her (2:18)
11. Jump Back Baby (1:41)
12. Dimples (2:56)
13. Boogie Children (3:33)
14. Walkin' In The Sand (3:24)
Bonus Tracks:
15. In The Midnight Hour (2:29)
16. Watch Your Step (2:56)
17. One More Time (2:49)
18. I Wish You Would (2:47)


CD 5: Kin Ping Meh - Virtues & Sins (1974)

VA - Original Album Series: German Rock Classics (2015)

1. Good Time Gracie (3:31)
2. Your're A Liar (7:25)
3. Night-Time Glider (5:41)
4. When Summer's Gone (5:39)
5. Whisky Flyer (5:46)
6. Rich Kid Blues (6:55)
7. Living Your Lies (5:41)
8. Virtue And Sins (4:27)
Bonus Tracks:
9. Me And I (3:23)
10. Blue Horizon (3:04)


Exact Audio Copy V1.0 beta 3 from 29. August 2011
EAC extraction logfile from 26. August 2017, 10:49
Udo Lindenberg / Lindenberg
Used drive : _NEC DVD_RW ND-3540A Adapter: 1 ID: 0
Read mode : Secure
Utilize accurate stream : Yes
Defeat audio cache : Yes
Make use of C2 pointers : No
Read offset correction : 48
Overread into Lead-In and Lead-Out : No
Fill up missing offset samples with silence : Yes
Delete leading and trailing silent blocks : No
Null samples used in CRC calculations : Yes
Used interface : Native Win32 interface for Win NT & 2000
Gap handling : Appended to previous track
Used output format : User Defined Encoder
Selected bitrate : 1024 kBit/s
Quality : High
Add ID3 tag : Yes
Command line compressor : C:\Program Files (x86)\Exact Audio Copy\FLAC\FLAC.EXE
Additional command line options : -6 -V -T "ARTIST=%artist%" -T "TITLE=%title%" -T "ALBUM=%albumtitle%" -T "DATE=%year%" -T "TRACKNUMBER=%tracknr%" -T "GENRE=%genre%" -T "COMMENT=%comment%" %hascover%–picture="%coverfile%"%hascover% %source% -o %dest%
TOC of the extracted CD
Track | Start | Length | Start sector | End sector
––––––––––––––––––––––––––––-
1 | 0:00.00 | 2:58.00 | 0 | 13349
2 | 2:58.00 | 3:10.27 | 13350 | 27626
3 | 6:08.27 | 4:07.05 | 27627 | 46156
4 | 10:15.32 | 9:01.10 | 46157 | 86741
5 | 19:16.42 | 2:16.63 | 86742 | 97004
6 | 21:33.30 | 4:44.72 | 97005 | 118376
7 | 26:18.27 | 11:38.23 | 118377 | 170749
Track 1
Filename F:\Music\olaf_alien\German Rock Classics Original Album Series 5CD boxset (2015, Warner Music)\Udo Lindenberg - Lindenberg (1971)\01 - Good Life City (Bonus Track - Single A-Side).wav
Pre-gap length 0:00:02.00
Peak level 97.0 %
Extraction speed 4.0 X
Track quality 100.0 %
Test CRC 685CFE56
Copy CRC 685CFE56
Accurately ripped (confidence 2) [D6F547C1] (AR v2)
Copy OK
Track 2
Filename F:\Music\olaf_alien\German Rock Classics Original Album Series 5CD boxset (2015, Warner Music)\Udo Lindenberg - Lindenberg (1971)\02 - It Is Allright Again.wav
Pre-gap length 0:00:01.55
Peak level 90.8 %
Extraction speed 4.3 X
Track quality 100.0 %
Test CRC 016A9607
Copy CRC 016A9607
Accurately ripped (confidence 2) [099C16C1] (AR v2)
Copy OK
Track 3
Filename F:\Music\olaf_alien\German Rock Classics Original Album Series 5CD boxset (2015, Warner Music)\Udo Lindenberg - Lindenberg (1971)\03 - We've Had Our Time.wav
Pre-gap length 0:00:01.52
Peak level 98.1 %
Extraction speed 4.9 X
Track quality 100.0 %
Test CRC 257CD2A1
Copy CRC 257CD2A1
Accurately ripped (confidence 2) [D0503A8F] (AR v2)
Copy OK
Track 4
Filename F:\Music\olaf_alien\German Rock Classics Original Album Series 5CD boxset (2015, Warner Music)\Udo Lindenberg - Lindenberg (1971)\04 - Paradise Now.wav
Pre-gap length 0:00:01.50
Peak level 100.0 %
Extraction speed 5.4 X
Track quality 99.9 %
Test CRC 4D030371
Copy CRC 4D030371
Accurately ripped (confidence 2) [333E626B] (AR v2)
Copy OK
Track 5
Filename F:\Music\olaf_alien\German Rock Classics Original Album Series 5CD boxset (2015, Warner Music)\Udo Lindenberg - Lindenberg (1971)\05 - Stardance.wav
Pre-gap length 0:00:01.50
Peak level 80.2 %
Extraction speed 5.4 X
Track quality 100.0 %
Test CRC 34D184C2
Copy CRC 34D184C2
Accurately ripped (confidence 2) [DFBB4DCF] (AR v2)
Copy OK
Track 6
Filename F:\Music\olaf_alien\German Rock Classics Original Album Series 5CD boxset (2015, Warner Music)\Udo Lindenberg - Lindenberg (1971)\06 - We Could Be Friends.wav
Pre-gap length 0:00:01.55
Peak level 96.8 %
Extraction speed 6.3 X
Track quality 100.0 %
Test CRC 077CB596
Copy CRC 077CB596
Accurately ripped (confidence 2) [6A2040E1] (AR v2)
Copy OK
Track 7
Filename F:\Music\olaf_alien\German Rock Classics Original Album Series 5CD boxset (2015, Warner Music)\Udo Lindenberg - Lindenberg (1971)\07 - The Children Of Your Children Won't Even Know Your Name.wav
Pre-gap length 0:00:01.52
Peak level 100.0 %
Extraction speed 7.3 X
Track quality 100.0 %
Test CRC B2FF56E7
Copy CRC B2FF56E7
Accurately ripped (confidence 2) [4FB946C3] (AR v2)
Copy OK
All tracks accurately ripped
No errors occurred
End of status report
–– CUETools DB Plugin V2.1.4
[CTDB TOCID: 06_T6jAzTLm.t3gyLaEZrghWDQs-] found
Submit result: 06_T6jAzTLm.t3gyLaEZrghWDQs- has been confirmed
Track | CTDB Status
1 | (35/35) Accurately ripped
2 | (35/35) Accurately ripped
3 | (35/35) Accurately ripped
4 | (34/35) Accurately ripped
5 | (35/35) Accurately ripped
6 | (35/35) Accurately ripped
7 | (34/35) Accurately ripped
==== Log checksum DF70853D2DA27FAACCC994811615CD38E0C30168B3D4633C0B134D792B1B2CBA ====

Exact Audio Copy V1.0 beta 3 from 29. August 2011
EAC extraction logfile from 27. August 2017, 0:26
Das Dritte Ohr / Zahltag
Used drive : _NEC DVD_RW ND-3540A Adapter: 1 ID: 0
Read mode : Secure
Utilize accurate stream : Yes
Defeat audio cache : Yes
Make use of C2 pointers : No
Read offset correction : 48
Overread into Lead-In and Lead-Out : No
Fill up missing offset samples with silence : Yes
Delete leading and trailing silent blocks : No
Null samples used in CRC calculations : Yes
Used interface : Native Win32 interface for Win NT & 2000
Gap handling : Appended to previous track
Used output format : User Defined Encoder
Selected bitrate : 1024 kBit/s
Quality : High
Add ID3 tag : Yes
Command line compressor : C:\Program Files (x86)\Exact Audio Copy\FLAC\FLAC.EXE
Additional command line options : -6 -V -T "ARTIST=%artist%" -T "TITLE=%title%" -T "ALBUM=%albumtitle%" -T "DATE=%year%" -T "TRACKNUMBER=%tracknr%" -T "GENRE=%genre%" -T "COMMENT=%comment%" %hascover%–picture="%coverfile%"%hascover% %source% -o %dest%
TOC of the extracted CD
Track | Start | Length | Start sector | End sector
––––––––––––––––––––––––––––-
1 | 0:00.00 | 4:34.12 | 0 | 20561
2 | 4:34.12 | 3:18.48 | 20562 | 35459
3 | 7:52.60 | 7:41.57 | 35460 | 70091
4 | 15:34.42 | 4:05.68 | 70092 | 88534
5 | 19:40.35 | 3:35.57 | 88535 | 104716
6 | 23:16.17 | 4:44.40 | 104717 | 126056
7 | 28:00.57 | 3:34.65 | 126057 | 142171
8 | 31:35.47 | 5:41.53 | 142172 | 167799
9 | 37:17.25 | 3:28.50 | 167800 | 183449
10 | 40:46.00 | 4:17.20 | 183450 | 202744
11 | 45:03.20 | 2:43.52 | 202745 | 215021
12 | 47:46.72 | 4:46.45 | 215022 | 236516
Track 1
Filename F:\Music\olaf_alien\German Rock Classics Original Album Series 5CD boxset (2015, Warner Music)\Das Dritte Ohr - Zahltag (1980)\01 - Zahltag.wav
Pre-gap length 0:00:02.00
Peak level 98.0 %
Extraction speed 4.3 X
Track quality 100.0 %
Test CRC D9FBCBBE
Copy CRC D9FBCBBE
Accurately ripped (confidence 2) [C2F64AAC] (AR v2)
Copy OK
Track 2
Filename F:\Music\olaf_alien\German Rock Classics Original Album Series 5CD boxset (2015, Warner Music)\Das Dritte Ohr - Zahltag (1980)\02 - Wenn die Sonne sinkt.wav
Pre-gap length 0:00:01.47
Peak level 98.4 %
Extraction speed 4.6 X
Track quality 100.0 %
Test CRC 819D6291
Copy CRC 819D6291
Accurately ripped (confidence 2) [A325182B] (AR v2)
Copy OK
Track 3
Filename F:\Music\olaf_alien\German Rock Classics Original Album Series 5CD boxset (2015, Warner Music)\Das Dritte Ohr - Zahltag (1980)\03 - Rita Rita.wav
Pre-gap length 0:00:01.48
Peak level 99.2 %
Extraction speed 5.5 X
Track quality 100.0 %
Test CRC 406696A5
Copy CRC 406696A5
Accurately ripped (confidence 2) [8A4B0F9E] (AR v2)
Copy OK
Track 4
Filename F:\Music\olaf_alien\German Rock Classics Original Album Series 5CD boxset (2015, Warner Music)\Das Dritte Ohr - Zahltag (1980)\04 - Mordwest-Stadt.wav
Pre-gap length 0:00:01.50
Peak level 98.0 %
Extraction speed 5.7 X
Track quality 100.0 %
Test CRC 86484682
Copy CRC 86484682
Accurately ripped (confidence 2) [9D2B4CE6] (AR v2)
Copy OK
Track 5
Filename F:\Music\olaf_alien\German Rock Classics Original Album Series 5CD boxset (2015, Warner Music)\Das Dritte Ohr - Zahltag (1980)\05 - Maibock.wav
Pre-gap length 0:00:01.50
Peak level 98.0 %
Extraction speed 4.9 X
Track quality 99.9 %
Test CRC 2FBEB4B6
Copy CRC 2FBEB4B6
Accurately ripped (confidence 2) [C6C0550F] (AR v2)
Copy OK
Track 6
Filename F:\Music\olaf_alien\German Rock Classics Original Album Series 5CD boxset (2015, Warner Music)\Das Dritte Ohr - Zahltag (1980)\06 - Kalte Wut.wav
Pre-gap length 0:00:01.47
Peak level 98.0 %
Extraction speed 5.5 X
Track quality 99.9 %
Test CRC 6651FD84
Copy CRC 6651FD84
Accurately ripped (confidence 2) [1E95D71F] (AR v2)
Copy OK
Track 7
Filename F:\Music\olaf_alien\German Rock Classics Original Album Series 5CD boxset (2015, Warner Music)\Das Dritte Ohr - Zahltag (1980)\07 - Bleib weg.wav
Pre-gap length 0:00:01.47
Peak level 98.3 %
Extraction speed 6.4 X
Track quality 100.0 %
Test CRC EF79C0ED
Copy CRC EF79C0ED
Accurately ripped (confidence 2) [420B4F82] (AR v2)
Copy OK
Track 8
Filename F:\Music\olaf_alien\German Rock Classics Original Album Series 5CD boxset (2015, Warner Music)\Das Dritte Ohr - Zahltag (1980)\08 - Schwarzer Wurm.wav
Pre-gap length 0:00:01.47
Peak level 98.1 %
Extraction speed 7.1 X
Track quality 100.0 %
Test CRC 9AED1526
Copy CRC 9AED1526
Accurately ripped (confidence 2) [A5756D0C] (AR v2)
Copy OK
Track 9
Filename F:\Music\olaf_alien\German Rock Classics Original Album Series 5CD boxset (2015, Warner Music)\Das Dritte Ohr - Zahltag (1980)\09 - Disco Fuzzies.wav
Pre-gap length 0:00:01.48
Peak level 98.1 %
Extraction speed 6.9 X
Track quality 100.0 %
Test CRC 1143E4B8
Copy CRC 1143E4B8
Accurately ripped (confidence 2) [5D0F5836] (AR v2)
Copy OK
Track 10
Filename F:\Music\olaf_alien\German Rock Classics Original Album Series 5CD boxset (2015, Warner Music)\Das Dritte Ohr - Zahltag (1980)\10 - Starvin Traveller.wav
Pre-gap length 0:00:01.48
Peak level 99.1 %
Extraction speed 6.2 X
Track quality 99.9 %
Test CRC E0812634
Copy CRC E0812634
Accurately ripped (confidence 2) [D40B8839] (AR v2)
Copy OK
Track 11
Filename F:\Music\olaf_alien\German Rock Classics Original Album Series 5CD boxset (2015, Warner Music)\Das Dritte Ohr - Zahltag (1980)\11 - Sippin' Time.wav
Pre-gap length 0:00:01.48
Peak level 99.2 %
Extraction speed 5.4 X
Track quality 99.9 %
Test CRC 8DFB99E5
Copy CRC 8DFB99E5
Accurately ripped (confidence 2) [A9C37EFA] (AR v2)
Copy OK
Track 12
Filename F:\Music\olaf_alien\German Rock Classics Original Album Series 5CD boxset (2015, Warner Music)\Das Dritte Ohr - Zahltag (1980)\12 - Yo-Yo Woman.wav
Pre-gap length 0:00:00.47
Peak level 98.7 %
Extraction speed 7.7 X
Track quality 100.0 %
Test CRC 7E952676
Copy CRC 7E952676
Accurately ripped (confidence 2) [E1B08186] (AR v2)
Copy OK
All tracks accurately ripped
No errors occurred
End of status report
–– CUETools DB Plugin V2.1.4
[CTDB TOCID: .2ClDu_tVTSKW2JXrgkmPvibfjk-] found
Submit result: .2ClDu_tVTSKW2JXrgkmPvibfjk- has been confirmed
Track | CTDB Status
1 | (25/26) Accurately ripped
2 | (25/26) Accurately ripped
3 | (25/26) Accurately ripped
4 | (25/26) Accurately ripped
5 | (25/26) Accurately ripped
6 | (25/26) Accurately ripped
7 | (25/26) Accurately ripped
8 | (25/26) Accurately ripped
9 | (25/26) Accurately ripped
10 | (25/26) Accurately ripped
11 | (25/26) Accurately ripped
12 | (25/26) Accurately ripped
==== Log checksum 012BAED8EDEFA8F3356938BF76B353DE671D255CFF7AFB7F378C5FD23EEB86E7 ====

Exact Audio Copy V1.0 beta 3 from 29. August 2011
EAC extraction logfile from 27. August 2017, 23:40
Interzone / Interzone
Used drive : _NEC DVD_RW ND-3540A Adapter: 1 ID: 0
Read mode : Secure
Utilize accurate stream : Yes
Defeat audio cache : Yes
Make use of C2 pointers : No
Read offset correction : 48
Overread into Lead-In and Lead-Out : No
Fill up missing offset samples with silence : Yes
Delete leading and trailing silent blocks : No
Null samples used in CRC calculations : Yes
Used interface : Native Win32 interface for Win NT & 2000
Gap handling : Appended to previous track
Used output format : User Defined Encoder
Selected bitrate : 1024 kBit/s
Quality : High
Add ID3 tag : Yes
Command line compressor : C:\Program Files (x86)\Exact Audio Copy\FLAC\FLAC.EXE
Additional command line options : -6 -V -T "ARTIST=%artist%" -T "TITLE=%title%" -T "ALBUM=%albumtitle%" -T "DATE=%year%" -T "TRACKNUMBER=%tracknr%" -T "GENRE=%genre%" -T "COMMENT=%comment%" %hascover%–picture="%coverfile%"%hascover% %source% -o %dest%
TOC of the extracted CD
Track | Start | Length | Start sector | End sector
––––––––––––––––––––––––––––-
1 | 0:00.00 | 4:00.57 | 0 | 18056
2 | 4:00.57 | 3:14.70 | 18057 | 32676
3 | 7:15.52 | 3:31.08 | 32677 | 48509
4 | 10:46.60 | 2:51.20 | 48510 | 61354
5 | 13:38.05 | 2:51.20 | 61355 | 74199
6 | 16:29.25 | 3:22.72 | 74200 | 89421
7 | 19:52.22 | 3:27.10 | 89422 | 104956
8 | 23:19.32 | 4:18.60 | 104957 | 124366
9 | 27:38.17 | 4:04.48 | 124367 | 142714
10 | 31:42.65 | 4:00.17 | 142715 | 160731
11 | 35:43.07 | 3:59.25 | 160732 | 178681
Track 1
Filename F:\Music\olaf_alien\German Rock Classics Original Album Series 5CD boxset (2015, Warner Music)\Interzone - Interzone (1981)\01 - Hintermanner.wav
Pre-gap length 0:00:02.00
Peak level 100.0 %
Extraction speed 4.1 X
Track quality 100.0 %
Test CRC 44481587
Copy CRC 44481587
Accurately ripped (confidence 3) [DFDF67C5] (AR v2)
Copy OK
Track 2
Filename F:\Music\olaf_alien\German Rock Classics Original Album Series 5CD boxset (2015, Warner Music)\Interzone - Interzone (1981)\02 - Blues.wav
Pre-gap length 0:00:00.50
Peak level 100.0 %
Extraction speed 4.4 X
Track quality 100.0 %
Test CRC 0E226AD7
Copy CRC 0E226AD7
Accurately ripped (confidence 3) [C01D3AC1] (AR v2)
Copy OK
Track 3
Filename F:\Music\olaf_alien\German Rock Classics Original Album Series 5CD boxset (2015, Warner Music)\Interzone - Interzone (1981)\03 - Kinderlied.wav
Peak level 88.9 %
Extraction speed 4.8 X
Track quality 100.0 %
Test CRC A1C1B324
Copy CRC A1C1B324
Accurately ripped (confidence 3) [3696C437] (AR v2)
Copy OK
Track 4
Filename F:\Music\olaf_alien\German Rock Classics Original Album Series 5CD boxset (2015, Warner Music)\Interzone - Interzone (1981)\04 - Blnw.wav
Pre-gap length 0:00:00.28
Peak level 100.0 %
Extraction speed 4.9 X
Track quality 100.0 %
Test CRC 369DD256
Copy CRC 369DD256
Accurately ripped (confidence 3) [6F8CC53E] (AR v2)
Copy OK
Track 5
Filename F:\Music\olaf_alien\German Rock Classics Original Album Series 5CD boxset (2015, Warner Music)\Interzone - Interzone (1981)\05 - Jobs.wav
Pre-gap length 0:00:00.35
Peak level 92.1 %
Extraction speed 5.1 X
Track quality 100.0 %
Test CRC F5F3B835
Copy CRC F5F3B835
Accurately ripped (confidence 3) [0597B0C8] (AR v2)
Copy OK
Track 6
Filename F:\Music\olaf_alien\German Rock Classics Original Album Series 5CD boxset (2015, Warner Music)\Interzone - Interzone (1981)\06 - Rita & Klaus.wav
Peak level 100.0 %
Extraction speed 5.5 X
Track quality 100.0 %
Test CRC 57BEF164
Copy CRC 57BEF164
Accurately ripped (confidence 3) [B5247F38] (AR v2)
Copy OK
Track 7
Filename F:\Music\olaf_alien\German Rock Classics Original Album Series 5CD boxset (2015, Warner Music)\Interzone - Interzone (1981)\07 - Dilettanten des wunders.wav
Pre-gap length 0:00:04.67
Peak level 93.6 %
Extraction speed 4.7 X
Track quality 99.9 %
Test CRC 0D82AFCA
Copy CRC 0D82AFCA
Accurately ripped (confidence 3) [0C75DF3D] (AR v2)
Copy OK
Track 8
Filename F:\Music\olaf_alien\German Rock Classics Original Album Series 5CD boxset (2015, Warner Music)\Interzone - Interzone (1981)\08 - Die lebendigen + die toten.wav
Pre-gap length 0:00:01.45
Peak level 99.1 %
Extraction speed 6.3 X
Track quality 100.0 %
Test CRC AC18D896
Copy CRC AC18D896
Accurately ripped (confidence 3) [6E4CEA40] (AR v2)
Copy OK
Track 9
Filename F:\Music\olaf_alien\German Rock Classics Original Album Series 5CD boxset (2015, Warner Music)\Interzone - Interzone (1981)\09 - Liebeslied.wav
Pre-gap length 0:00:01.27
Peak level 100.0 %
Extraction speed 6.5 X
Track quality 100.0 %
Test CRC 6DDDEE8E
Copy CRC 6DDDEE8E
Accurately ripped (confidence 3) [111909CA] (AR v2)
Copy OK
Track 10
Filename F:\Music\olaf_alien\German Rock Classics Original Album Series 5CD boxset (2015, Warner Music)\Interzone - Interzone (1981)\10 - Glotze.wav
Pre-gap length 0:00:02.53
Peak level 100.0 %
Extraction speed 6.7 X
Track quality 100.0 %
Test CRC 7DF2F05C
Copy CRC 7DF2F05C
Accurately ripped (confidence 3) [C9CA573B] (AR v2)
Copy OK
Track 11
Filename F:\Music\olaf_alien\German Rock Classics Original Album Series 5CD boxset (2015, Warner Music)\Interzone - Interzone (1981)\11 - Karl.wav
Peak level 95.5 %
Extraction speed 6.9 X
Track quality 100.0 %
Test CRC 1574F611
Copy CRC 1574F611
Accurately ripped (confidence 3) [F29C18F9] (AR v2)
Copy OK
All tracks accurately ripped
No errors occurred
End of status report
–– CUETools DB Plugin V2.1.4
[CTDB TOCID: aPokh0Z72jjbafURkpg6n03md9A-] found
Submit result: aPokh0Z72jjbafURkpg6n03md9A- has been confirmed
Track | CTDB Status
1 | (50/52) Accurately ripped
2 | (51/52) Accurately ripped
3 | (51/52) Accurately ripped
4 | (51/52) Accurately ripped
5 | (51/52) Accurately ripped
6 | (50/52) Accurately ripped
7 | (50/52) Accurately ripped
8 | (51/52) Accurately ripped
9 | (51/52) Accurately ripped
10 | (51/52) Accurately ripped
11 | (45/52) Accurately ripped, or (1/52) differs in 10368 samples @03:58:74-03:59:12
==== Log checksum E01D61924305EDDFA13EFDEC9E6981F313DE80E0B16B553CD264A8F7655BFE13 ====

Exact Audio Copy V1.0 beta 3 from 29. August 2011
EAC extraction logfile from 26. August 2017, 23:52
Boots / Here Are The Boots
Used drive : _NEC DVD_RW ND-3540A Adapter: 1 ID: 0
Read mode : Secure
Utilize accurate stream : Yes
Defeat audio cache : Yes
Make use of C2 pointers : No
Read offset correction : 48
Overread into Lead-In and Lead-Out : No
Fill up missing offset samples with silence : Yes
Delete leading and trailing silent blocks : No
Null samples used in CRC calculations : Yes
Used interface : Native Win32 interface for Win NT & 2000
Gap handling : Appended to previous track
Used output format : User Defined Encoder
Selected bitrate : 1024 kBit/s
Quality : High
Add ID3 tag : Yes
Command line compressor : C:\Program Files (x86)\Exact Audio Copy\FLAC\FLAC.EXE
Additional command line options : -6 -V -T "ARTIST=%artist%" -T "TITLE=%title%" -T "ALBUM=%albumtitle%" -T "DATE=%year%" -T "TRACKNUMBER=%tracknr%" -T "GENRE=%genre%" -T "COMMENT=%comment%" %hascover%–picture="%coverfile%"%hascover% %source% -o %dest%
TOC of the extracted CD
Track | Start | Length | Start sector | End sector
––––––––––––––––––––––––––––-
1 | 0:00.00 | 2:46.65 | 0 | 12514
2 | 2:46.65 | 3:12.07 | 12515 | 26921
3 | 5:58.72 | 3:29.65 | 26922 | 42661
4 | 9:28.62 | 2:28.33 | 42662 | 53794
5 | 11:57.20 | 2:42.65 | 53795 | 66009
6 | 14:40.10 | 2:32.10 | 66010 | 77419
7 | 17:12.20 | 4:03.45 | 77420 | 95689
8 | 21:15.65 | 2:34.57 | 95690 | 107296
9 | 23:50.47 | 2:21.60 | 107297 | 117931
10 | 26:12.32 | 2:18.70 | 117932 | 128351
11 | 28:31.27 | 1:41.33 | 128352 | 135959
12 | 30:12.60 | 2:56.70 | 135960 | 149229
13 | 33:09.55 | 3:33.45 | 149230 | 165249
14 | 36:43.25 | 3:24.40 | 165250 | 180589
15 | 40:07.65 | 2:29.22 | 180590 | 191786
16 | 42:37.12 | 2:56.33 | 191787 | 205019
17 | 45:33.45 | 2:49.27 | 205020 | 217721
18 | 48:22.72 | 2:47.48 | 217722 | 230294
Track 1
Filename F:\Music\olaf_alien\German Rock Classics Original Album Series 5CD boxset (2015, Warner Music)\The Boots - Here Are The Boots (1965)\01 - She's About A Mover.wav
Pre-gap length 0:00:02.00
Peak level 85.6 %
Extraction speed 3.8 X
Track quality 100.0 %
Test CRC F2987FD9
Copy CRC F2987FD9
Accurately ripped (confidence 2) [3C6886F3] (AR v2)
Copy OK
Track 2
Filename F:\Music\olaf_alien\German Rock Classics Original Album Series 5CD boxset (2015, Warner Music)\The Boots - Here Are The Boots (1965)\02 - Mama Keep Your Big Mouth Shut.wav
Pre-gap length 0:00:01.58
Peak level 91.5 %
Extraction speed 4.3 X
Track quality 100.0 %
Test CRC D641189B
Copy CRC D641189B
Accurately ripped (confidence 2) [967F9164] (AR v2)
Copy OK
Track 3
Filename F:\Music\olaf_alien\German Rock Classics Original Album Series 5CD boxset (2015, Warner Music)\The Boots - Here Are The Boots (1965)\03 - Gloria.wav
Pre-gap length 0:00:01.57
Peak level 83.4 %
Extraction speed 4.7 X
Track quality 100.0 %
Test CRC D8C0CCEF
Copy CRC D8C0CCEF
Accurately ripped (confidence 2) [65C5F5E0] (AR v2)
Copy OK
Track 4
Filename F:\Music\olaf_alien\German Rock Classics Original Album Series 5CD boxset (2015, Warner Music)\The Boots - Here Are The Boots (1965)\04 - It Ain't Necessarily So.wav
Pre-gap length 0:00:01.57
Peak level 77.7 %
Extraction speed 4.6 X
Track quality 100.0 %
Test CRC FD22340F
Copy CRC FD22340F
Accurately ripped (confidence 2) [E5771ADA] (AR v2)
Copy OK
Track 5
Filename F:\Music\olaf_alien\German Rock Classics Original Album Series 5CD boxset (2015, Warner Music)\The Boots - Here Are The Boots (1965)\05 - Got Love If You Want It.wav
Pre-gap length 0:00:01.58
Peak level 83.9 %
Extraction speed 5.0 X
Track quality 100.0 %
Test CRC 3980B94A
Copy CRC 3980B94A
Accurately ripped (confidence 2) [DB086425] (AR v2)
Copy OK
Track 6
Filename F:\Music\olaf_alien\German Rock Classics Original Album Series 5CD boxset (2015, Warner Music)\The Boots - Here Are The Boots (1965)\06 - But You Never Do It, Babe.wav
Pre-gap length 0:00:01.30
Peak level 79.1 %
Extraction speed 5.1 X
Track quality 100.0 %
Test CRC 85FE3AEE
Copy CRC 85FE3AEE
Accurately ripped (confidence 2) [1FDD28A9] (AR v2)
Copy OK
Track 7
Filename F:\Music\olaf_alien\German Rock Classics Original Album Series 5CD boxset (2015, Warner Music)\The Boots - Here Are The Boots (1965)\07 - Enchanted Sea.wav
Pre-gap length 0:00:01.58
Peak level 81.5 %
Extraction speed 5.8 X
Track quality 100.0 %
Test CRC 69C431B7
Copy CRC 69C431B7
Accurately ripped (confidence 2) [239FEA62] (AR v2)
Copy OK
Track 8
Filename F:\Music\olaf_alien\German Rock Classics Original Album Series 5CD boxset (2015, Warner Music)\The Boots - Here Are The Boots (1965)\08 - Baby, Please Don't Go.wav
Pre-gap length 0:00:01.58
Peak level 82.1 %
Extraction speed 5.6 X
Track quality 100.0 %
Test CRC 3B7B7264
Copy CRC 3B7B7264
Accurately ripped (confidence 2) [BE6CD04F] (AR v2)
Copy OK
Track 9
Filename F:\Music\olaf_alien\German Rock Classics Original Album Series 5CD boxset (2015, Warner Music)\The Boots - Here Are The Boots (1965)\09 - Whatcha Gonna Do About It.wav
Pre-gap length 0:00:01.57
Peak level 78.9 %
Extraction speed 5.7 X
Track quality 100.0 %
Test CRC 934A6918
Copy CRC 934A6918
Accurately ripped (confidence 2) [4A607202] (AR v2)
Copy OK
Track 10
Filename F:\Music\olaf_alien\German Rock Classics Original Album Series 5CD boxset (2015, Warner Music)\The Boots - Here Are The Boots (1965)\10 - When I Loved Her.wav
Pre-gap length 0:00:01.57
Peak level 89.3 %
Extraction speed 5.8 X
Track quality 100.0 %
Test CRC 204AF363
Copy CRC 204AF363
Accurately ripped (confidence 2) [C1D04FA6] (AR v2)
Copy OK
Track 11
Filename F:\Music\olaf_alien\German Rock Classics Original Album Series 5CD boxset (2015, Warner Music)\The Boots - Here Are The Boots (1965)\11 - Jump Back Baby.wav
Pre-gap length 0:00:01.57
Peak level 95.3 %
Extraction speed 5.4 X
Track quality 100.0 %
Test CRC 53107D41
Copy CRC 53107D41
Accurately ripped (confidence 2) [65BDF0F5] (AR v2)
Copy OK
Track 12
Filename F:\Music\olaf_alien\German Rock Classics Original Album Series 5CD boxset (2015, Warner Music)\The Boots - Here Are The Boots (1965)\12 - Dimples.wav
Pre-gap length 0:00:01.58
Peak level 85.2 %
Extraction speed 5.0 X
Track quality 99.9 %
Test CRC DA775387
Copy CRC DA775387
Accurately ripped (confidence 2) [5B477BC0] (AR v2)
Copy OK
Track 13
Filename F:\Music\olaf_alien\German Rock Classics Original Album Series 5CD boxset (2015, Warner Music)\The Boots - Here Are The Boots (1965)\13 - Boogie Children.wav
Pre-gap length 0:00:01.58
Peak level 89.3 %
Extraction speed 6.7 X
Track quality 100.0 %
Test CRC BF44FA95
Copy CRC BF44FA95
Accurately ripped (confidence 2) [5E84B7BE] (AR v2)
Copy OK
Track 14
Filename F:\Music\olaf_alien\German Rock Classics Original Album Series 5CD boxset (2015, Warner Music)\The Boots - Here Are The Boots (1965)\14 - Walkin' In The Sand.wav
Pre-gap length 0:00:01.58
Peak level 86.6 %
Extraction speed 5.6 X
Track quality 99.9 %
Test CRC DCD0904B
Copy CRC DCD0904B
Accurately ripped (confidence 2) [31AAE31B] (AR v2)
Copy OK
Track 15
Filename F:\Music\olaf_alien\German Rock Classics Original Album Series 5CD boxset (2015, Warner Music)\The Boots - Here Are The Boots (1965)\15 - In The Midnight Hour.wav
Pre-gap length 0:00:01.58
Peak level 97.4 %
Extraction speed 6.6 X
Track quality 100.0 %
Test CRC 2948DF93
Copy CRC 2948DF93
Accurately ripped (confidence 2) [5F20C037] (AR v2)
Copy OK
Track 16
Filename F:\Music\olaf_alien\German Rock Classics Original Album Series 5CD boxset (2015, Warner Music)\The Boots - Here Are The Boots (1965)\16 - Watch Your Step.wav
Pre-gap length 0:00:01.57
Peak level 93.0 %
Extraction speed 7.0 X
Track quality 100.0 %
Test CRC 90865E32
Copy CRC 90865E32
Accurately ripped (confidence 2) [1A5131B8] (AR v2)
Copy OK
Track 17
Filename F:\Music\olaf_alien\German Rock Classics Original Album Series 5CD boxset (2015, Warner Music)\The Boots - Here Are The Boots (1965)\17 - One More Time.wav
Pre-gap length 0:00:01.58
Peak level 91.0 %
Extraction speed 7.0 X
Track quality 100.0 %
Test CRC A988FFC2
Copy CRC A988FFC2
Accurately ripped (confidence 2) [A814A0ED] (AR v2)
Copy OK
Track 18
Filename F:\Music\olaf_alien\German Rock Classics Original Album Series 5CD boxset (2015, Warner Music)\The Boots - Here Are The Boots (1965)\18 - I Wish You Would.wav
Peak level 100.0 %
Extraction speed 5.6 X
Track quality 99.9 %
Test CRC B8E65897
Copy CRC B8E65897
Accurately ripped (confidence 2) [32D88193] (AR v2)
Copy OK
All tracks accurately ripped
No errors occurred
End of status report
–– CUETools DB Plugin V2.1.4
[CTDB TOCID: ZZF4Pm_s47snKP1h91sGQ7NVqMo-] found
Submit result: ZZF4Pm_s47snKP1h91sGQ7NVqMo- has been confirmed
Track | CTDB Status
1 | (19/19) Accurately ripped
2 | (19/19) Accurately ripped
3 | (19/19) Accurately ripped
4 | (19/19) Accurately ripped
5 | (19/19) Accurately ripped
6 | (19/19) Accurately ripped
7 | (19/19) Accurately ripped
8 | (19/19) Accurately ripped
9 | (18/19) Accurately ripped, or (1/19) differs in 543 samples @01:18:26-01:18:27,01:18:41-01:18:42,01:18:56-01:18:57,01:18:71-01:18:72,01:19:11-01:19:12,01:19:26,01:25:29,01:25:44,01:26:74
10 | (19/19) Accurately ripped
11 | (19/19) Accurately ripped
12 | (19/19) Accurately ripped
13 | (18/19) Accurately ripped, or (1/19) differs in 4241 samples @01:39:63,01:41:29,01:42:38,01:42:55,01:43:63,01:44:38,01:50:22,01:50:39,01:50:55-01:50:56,01:50:72-01:50:73,01:51:13-01:51:15,01:51:30-01:51:31,01:51:47-01:51:48,01:51:64-01:51:65,01:52:05-01:52:06,01:52:22-01:52:23,01:52:39-01:52:40,01:52:55-01:52:57,01:52:72-01:52:73,01:53:14-01:53:15,01:53:30-01:53:32,01:53:47-01:53:48,01:53:64,01:54:23,01:54:39-01:54:40,02:01:67,02:02:08,02:02:25,02:02:41-02:02:42,02:02:58-02:02:59,02:03:00-02:03:01,02:03:16-02:03:18,02:03:33-02:03:34,02:03:50-02:03:51,02:03:67-02:03:68,02:04:08-02:04:10,02:04:25-02:04:26,02:04:42-02:04:43,02:04:59,02:05:00-02:05:01,02:05:17-02:05:18,02:05:34,02:05:51,02:06:60,02:07:01
14 | (19/19) Accurately ripped
15 | (19/19) Accurately ripped
16 | (19/19) Accurately ripped
17 | (19/19) Accurately ripped
18 | (18/19) Accurately ripped
==== Log checksum 14650C60B85ED48FBFE0EC29455986B96F3CFF1B1D303A2A0C8F27C3A81397F6 ====

Exact Audio Copy V1.0 beta 3 from 29. August 2011
EAC extraction logfile from 26. August 2017, 10:33
Kin Ping Meh / Virtues & Sins
Used drive : _NEC DVD_RW ND-3540A Adapter: 1 ID: 0
Read mode : Secure
Utilize accurate stream : Yes
Defeat audio cache : Yes
Make use of C2 pointers : No
Read offset correction : 48
Overread into Lead-In and Lead-Out : No
Fill up missing offset samples with silence : Yes
Delete leading and trailing silent blocks : No
Null samples used in CRC calculations : Yes
Used interface : Native Win32 interface for Win NT & 2000
Gap handling : Appended to previous track
Used output format : User Defined Encoder
Selected bitrate : 1024 kBit/s
Quality : High
Add ID3 tag : Yes
Command line compressor : C:\Program Files (x86)\Exact Audio Copy\FLAC\FLAC.EXE
Additional command line options : -6 -V -T "ARTIST=%artist%" -T "TITLE=%title%" -T "ALBUM=%albumtitle%" -T "DATE=%year%" -T "TRACKNUMBER=%tracknr%" -T "GENRE=%genre%" -T "COMMENT=%comment%" %hascover%–picture="%coverfile%"%hascover% %source% -o %dest%
TOC of the extracted CD
Track | Start | Length | Start sector | End sector
––––––––––––––––––––––––––––-
1 | 0:00.00 | 3:33.42 | 0 | 16016
2 | 3:33.42 | 7:25.25 | 16017 | 49416
3 | 10:58.67 | 5:44.35 | 49417 | 75251
4 | 16:43.27 | 5:40.43 | 75252 | 100794
5 | 22:23.70 | 5:48.02 | 100795 | 126896
6 | 28:11.72 | 6:58.10 | 126897 | 158256
7 | 35:10.07 | 5:43.68 | 158257 | 184049
8 | 40:54.00 | 4:33.12 | 184050 | 204536
9 | 45:27.12 | 3:25.33 | 204537 | 219944
10 | 48:52.45 | 3:07.67 | 219945 | 234036
Track 1
Filename F:\Music\olaf_alien\German Rock Classics Original Album Series 5CD boxset (2015, Warner Music)\Kin Ping Meh - Virtues & Sins (1974)\01 - Good Time Gracie.wav
Pre-gap length 0:00:02.00
Peak level 95.8 %
Extraction speed 4.0 X
Track quality 100.0 %
Test CRC 3F8ADE05
Copy CRC 3F8ADE05
Accurately ripped (confidence 3) [002C7F6D] (AR v2)
Copy OK
Track 2
Filename F:\Music\olaf_alien\German Rock Classics Original Album Series 5CD boxset (2015, Warner Music)\Kin Ping Meh - Virtues & Sins (1974)\02 - You're a Liar.wav
Pre-gap length 0:00:02.22
Peak level 95.8 %
Extraction speed 5.0 X
Track quality 100.0 %
Test CRC B38A81FE
Copy CRC B38A81FE
Accurately ripped (confidence 3) [2FFE5FD4] (AR v2)
Copy OK
Track 3
Filename F:\Music\olaf_alien\German Rock Classics Original Album Series 5CD boxset (2015, Warner Music)\Kin Ping Meh - Virtues & Sins (1974)\03 - Night-Time Glider.wav
Peak level 95.8 %
Extraction speed 5.6 X
Track quality 100.0 %
Test CRC 9D3E10E9
Copy CRC 9D3E10E9
Accurately ripped (confidence 3) [22D10216] (AR v2)
Copy OK
Track 4
Filename F:\Music\olaf_alien\German Rock Classics Original Album Series 5CD boxset (2015, Warner Music)\Kin Ping Meh - Virtues & Sins (1974)\04 - When Summer's Gone.wav
Pre-gap length 0:00:02.47
Peak level 95.8 %
Extraction speed 6.1 X
Track quality 100.0 %
Test CRC C7A61DE2
Copy CRC C7A61DE2
Accurately ripped (confidence 2) [A6817608] (AR v2)
Copy OK
Track 5
Filename F:\Music\olaf_alien\German Rock Classics Original Album Series 5CD boxset (2015, Warner Music)\Kin Ping Meh - Virtues & Sins (1974)\05 - Whisky Flyer.wav
Pre-gap length 0:00:01.68
Peak level 95.8 %
Extraction speed 6.5 X
Track quality 100.0 %
Test CRC B42C5EB2
Copy CRC B42C5EB2
Accurately ripped (confidence 3) [36887B7A] (AR v2)
Copy OK
Track 6
Filename F:\Music\olaf_alien\German Rock Classics Original Album Series 5CD boxset (2015, Warner Music)\Kin Ping Meh - Virtues & Sins (1974)\06 - Rich Kid Blues.wav
Pre-gap length 0:00:01.55
Peak level 95.8 %
Extraction speed 7.1 X
Track quality 100.0 %
Test CRC 6A7C4B02
Copy CRC 6A7C4B02
Accurately ripped (confidence 3) [786AE508] (AR v2)
Copy OK
Track 7
Filename F:\Music\olaf_alien\German Rock Classics Original Album Series 5CD boxset (2015, Warner Music)\Kin Ping Meh - Virtues & Sins (1974)\07 - Living Your Lies.wav
Pre-gap length 0:00:02.45
Peak level 95.8 %
Extraction speed 7.3 X
Track quality 100.0 %
Test CRC 51B7B95A
Copy CRC 51B7B95A
Accurately ripped (confidence 3) [BF704EE2] (AR v2)
Copy OK
Track 8
Filename F:\Music\olaf_alien\German Rock Classics Original Album Series 5CD boxset (2015, Warner Music)\Kin Ping Meh - Virtues & Sins (1974)\08 - Virtue And Sin.wav
Pre-gap length 0:00:02.58
Peak level 95.7 %
Extraction speed 7.4 X
Track quality 100.0 %
Test CRC DEBE31C2
Copy CRC DEBE31C2
Accurately ripped (confidence 3) [69A5BEAE] (AR v2)
Copy OK
Track 9
Filename F:\Music\olaf_alien\German Rock Classics Original Album Series 5CD boxset (2015, Warner Music)\Kin Ping Meh - Virtues & Sins (1974)\09 - Me And I.wav
Pre-gap length 0:00:05.57
Peak level 95.8 %
Extraction speed 7.3 X
Track quality 100.0 %
Test CRC 50F03A8D
Copy CRC 50F03A8D
Accurately ripped (confidence 3) [878D2ACA] (AR v2)
Copy OK
Track 10
Filename F:\Music\olaf_alien\German Rock Classics Original Album Series 5CD boxset (2015, Warner Music)\Kin Ping Meh - Virtues & Sins (1974)\10 - Blue Horizon.wav
Pre-gap length 0:00:01.58
Peak level 97.7 %
Extraction speed 5.9 X
Track quality 99.9 %
Test CRC C02FCA50
Copy CRC C02FCA50
Accurately ripped (confidence 3) [AC6F7BA4] (AR v2)
Copy OK
All tracks accurately ripped
No errors occurred
End of status report
–– CUETools DB Plugin V2.1.4
[CTDB TOCID: .V8pYjsZXzrVu8DRfW7FG3j0DZU-] found
Submit result: .V8pYjsZXzrVu8DRfW7FG3j0DZU- has been confirmed
Track | CTDB Status
1 | (18/18) Accurately ripped
2 | (18/18) Accurately ripped
3 | (18/18) Accurately ripped
4 | (18/18) Accurately ripped
5 | (18/18) Accurately ripped
6 | (18/18) Accurately ripped
7 | (18/18) Accurately ripped
8 | (18/18) Accurately ripped
9 | (18/18) Accurately ripped
10 | (17/18) Accurately ripped
==== Log checksum 051F9661C2964708E0196EB430D7FC978A9667698F49C050B3D4675E98AA2C4E ====


VA - Original Album Series: German Rock Classics (2015)

Thanks to the Original ripper Olaf_alien !