Subcategories

Various Artists - Swamp Pop By The Bayou: Let's Get Together Tonight (2017) {Ace Records CDCHD 1499}

Posted By: ruskaval
Various Artists - Swamp Pop By The Bayou: Let's Get Together Tonight (2017) {Ace Records CDCHD 1499}

Various Artists - Swamp Pop By The Bayou: Let's Get Together Tonight (2017) {Ace Records CDCHD 1499}
EAC rip (secure mode) | FLAC (tracks)+CUE+LOG -> 242 Mb | MP3 @320 -> 158 Mb
Full Artwork @ 300 dpi (png) -> 53 Mb | 5% repair rar
© 2017 Ace Records | CDCHD 1499
Rock ’n’ Roll / Swamp Pop / Oldies / Cajun / Zydeco / Rhythm & Blues

The buckle-polishers and skirt-swirlers are back! Presenting 28 rare goodies from Louisiana and South East Texas.

The variant of rock’n’roll that emanated from the Gulf Coast of South Louisiana and South East Texas in the 1950s-60s is as evocative of the area as chicken gumbo, crawfish étouffée and red beans and rice. The youthful Cajuns of the period threw themselves into r’n’r like teenagers across the globe, but had additional influences, not just the hillbilly and blues that created rockabilly, but the ethnic music of their parents and, most telling, the R&B sounds carried over the airwaves from New Orleans. In time, largely through the writings of Englishman John Broven, the music they created would become known as swamp pop, and the town of Ville Platte would claim the title of Swamp Pop Capital Of The World, host a Hall Of Fame dedicated to the genre and, each Mardi Gras, hold a reunion of swamp pop performers which culminates in a concert at the town’s civic centre.

Various Artists - Swamp Pop By The Bayou: Let's Get Together Tonight (2017) {Ace Records CDCHD 1499}


This third journey into swamp pop territory includes giants of the genre Jivin’ Gene, Rod Bernard and Warren Storm, plus artists such as Gene Terry, Vince Anthony and Doug Ardoin who have knocked on fame’s door without quite breaking through, but still achieved cult status. The collection also features early recordings by blues legend Johnny Winter (under the alias Texas Guitar Slim) and rockabilly icon Rocket Morgan, who both demonstrate a gift for this regional music. There are 10 tracks from J.D. Miller’s studio in Crowley, six from Eddie Shuler’s Goldband label in Lake Charles, three from Jake Graffagnino’s Carl imprint in Opelousas and offerings from Floyd Soileau’s operation in Ville Platte, Hilton McCrory’s set-up in Morgan City and Mira Smith’s in Shreveport. From across the state line inSE Texas, we have dipped into the vaults of Huey Meaux, plus others from the studios of Pappy Daily, Diamond Jim Wheeler and Bill Hall.

The culture of South Louisiana is steeped in backbreaking toil, followed by any excuse for a party. Every small town has its own festival, generally based on the local food. The music of the area is designed for dancing and forms a part of the people’s DNA. The same can be said for those just across the Sabine River inSE Texas, who share a cultural background, including the love of music and a good time. So turn the clock back 50+ years, transport yourself to the steamy heat of a South Louisiana night and let the music of this 17th release in the “By The Bayou” series wash over you.
Various Artists - Swamp Pop By The Bayou: Let's Get Together Tonight (2017) {Ace Records CDCHD 1499}


Personnel & tracklist:
01 - Rocket Morgan - What Ya' Gonna Do
02 - Hal Young & The Electras - I'll Be Coming Home To You
03 - Gene Terry & His Down Beats - Never Let Her Go
04 - Warren Storm - Jailhouse Blues
05 - Robert Owens & The Owens Singers - I'm Too Tired To Rock
06 - Rod Bernard - Play A Song For My Baby
07 - Chuck Hullier - Do You Take Me For A Fool
08 - Warren Storm - I've Got My Heart In My Hand
09 - Texas Guitar Slim aka Johnny Winter - Crazie Babie
10 - Rocket Morgan - I Know It's A Sin
11 - Charlotte Hunter - Now Is The Time
12 - Jay Randall & The Electras - Walking Alone
13 - Hal Young & The Electras - I'm Falling For You Darling
14 - Rocket Morgan - This Life I Live
15 - Warren Storm - If You Don't Want Me
16 - Sidney Ester & The Dreamers - Let Me Walk With You
17 - Rod Bernard - Let's Get Together Tonight
18 - Ken Lindsey - I Got Loaded
19 - Charles Page & The Rockin' Aces - Searching For Love
20 - Gabe Dean - Where Should I Go
21 - Merton Thibodeaux - The Snake
22 - Jivin' Gene - Go On, Go On
23 - Amery Lynn - Want To Go Home
24 - Doug Ardoin & The Boogie Kings - Love Lost
25 - Everett Daigle & The Tune Tones - Lonely Street
26 - Vince Anthony & The Blue Notes - Lucy Lou
27 - Rocket Morgan - It's Too Late
28 - Warren Storm - Thank You So Much

Exact Audio Copy V1.3 from 2. September 2016

EAC extraction logfile from 22. June 2017, 21:52

Various Artists / Swamp Pop By The Bayou: Let's Get Together Tonight

Used drive : TSSTcorpCDDVDW SH-224BB Adapter: 1 ID: 0

Read mode : Secure
Utilize accurate stream : Yes
Defeat audio cache : Yes
Make use of C2 pointers : No

Read offset correction : 6
Overread into Lead-In and Lead-Out : No
Fill up missing offset samples with silence : Yes
Delete leading and trailing silent blocks : No
Null samples used in CRC calculations : Yes
Used interface : Native Win32 interface for Win NT & 2000
Gap handling : Appended to previous track

Used output format : User Defined Encoder
Selected bitrate : 768 kBit/s
Quality : High
Add ID3 tag : No
Command line compressor : C:\Program Files (x86)\Exact Audio Copy\Flac\flac.exe
Additional command line options : -8 -V -T "ARTIST=%artist%" -T "TITLE=%title%" -T "ALBUM=%albumtitle%" -T "DATE=%year%" -T "TRACKNUMBER=%tracknr%" -T "TOTALTRACKS=%numtracks%" -T "GENRE=%genre%" -T "ALBUMARTIST=%albumartist%" -T "ALBUM ARTIST=%albumartist%" -T "COMMENT=EAC Secure Mode, Test & Copy, AccurateRip, FLAC -8" %source%


TOC of the extracted CD

Track | Start | Length | Start sector | End sector
––––––––––––––––––––––––––––-
1 | 0:00.00 | 2:10.50 | 0 | 9799
2 | 2:10.50 | 2:39.05 | 9800 | 21729
3 | 4:49.55 | 2:26.32 | 21730 | 32711
4 | 7:16.12 | 2:33.64 | 32712 | 44250
5 | 9:50.01 | 2:20.70 | 44251 | 54820
6 | 12:10.71 | 2:03.71 | 54821 | 64116
7 | 14:14.67 | 2:47.33 | 64117 | 76674
8 | 17:02.25 | 2:20.24 | 76675 | 87198
9 | 19:22.49 | 2:06.00 | 87199 | 96648
10 | 21:28.49 | 2:02.08 | 96649 | 105806
11 | 23:30.57 | 2:19.43 | 105807 | 116274
12 | 25:50.25 | 2:25.65 | 116275 | 127214
13 | 28:16.15 | 2:43.21 | 127215 | 139460
14 | 30:59.36 | 2:38.64 | 139461 | 151374
15 | 33:38.25 | 2:51.09 | 151375 | 164208
16 | 36:29.34 | 1:59.18 | 164209 | 173151
17 | 38:28.52 | 1:56.16 | 173152 | 181867
18 | 40:24.68 | 2:19.61 | 181868 | 192353
19 | 42:44.54 | 2:47.46 | 192354 | 204924
20 | 45:32.25 | 2:23.25 | 204925 | 215674
21 | 47:55.50 | 2:44.74 | 215675 | 228048
22 | 50:40.49 | 2:15.30 | 228049 | 238203
23 | 52:56.04 | 2:29.41 | 238204 | 249419
24 | 55:25.45 | 2:40.73 | 249420 | 261492
25 | 58:06.43 | 2:32.38 | 261493 | 272930
26 | 60:39.06 | 2:34.26 | 272931 | 284506
27 | 63:13.32 | 2:10.72 | 284507 | 294328
28 | 65:24.29 | 2:10.59 | 294329 | 304137


Track 1

Filename C:\Rips\Various Artists - Swamp Pop By The Bayou Let's Get Together Tonight (2017) [FLAC]\01 - Rocket Morgan - What Ya' Gonna Do.wav

Pre-gap length 0:00:02.00

Peak level 95.4 %
Extraction speed 1.7 X
Track quality 100.0 %
Test CRC 4A62E0CC
Copy CRC 4A62E0CC
Track not present in AccurateRip database
Copy OK

Track 2

Filename C:\Rips\Various Artists - Swamp Pop By The Bayou Let's Get Together Tonight (2017) [FLAC]\02 - Hal Young & The Electras - I'll Be Coming Home To You.wav

Pre-gap length 0:00:02.00

Peak level 69.1 %
Extraction speed 1.8 X
Track quality 100.0 %
Test CRC 27210AD3
Copy CRC 27210AD3
Track not present in AccurateRip database
Copy OK

Track 3

Filename C:\Rips\Various Artists - Swamp Pop By The Bayou Let's Get Together Tonight (2017) [FLAC]\03 - Gene Terry & His Down Beats - Never Let Her Go.wav

Pre-gap length 0:00:02.13

Peak level 95.5 %
Extraction speed 1.6 X
Track quality 99.9 %
Test CRC 0D5DC99C
Copy CRC 0D5DC99C
Track not present in AccurateRip database
Copy OK

Track 4

Filename C:\Rips\Various Artists - Swamp Pop By The Bayou Let's Get Together Tonight (2017) [FLAC]\04 - Warren Storm - Jailhouse Blues.wav

Pre-gap length 0:00:02.04

Peak level 89.7 %
Extraction speed 2.0 X
Track quality 100.0 %
Test CRC 9FDE05B8
Copy CRC 9FDE05B8
Track not present in AccurateRip database
Copy OK

Track 5

Filename C:\Rips\Various Artists - Swamp Pop By The Bayou Let's Get Together Tonight (2017) [FLAC]\05 - Robert Owens & The Owens Singers - I'm Too Tired To Rock.wav

Pre-gap length 0:00:01.72

Peak level 66.2 %
Extraction speed 2.1 X
Track quality 100.0 %
Test CRC EC9FDF7E
Copy CRC EC9FDF7E
Track not present in AccurateRip database
Copy OK

Track 6

Filename C:\Rips\Various Artists - Swamp Pop By The Bayou Let's Get Together Tonight (2017) [FLAC]\06 - Rod Bernard - Play A Song For My Baby.wav

Pre-gap length 0:00:01.58

Peak level 75.0 %
Extraction speed 2.1 X
Track quality 100.0 %
Test CRC D6DECCD2
Copy CRC D6DECCD2
Track not present in AccurateRip database
Copy OK

Track 7

Filename C:\Rips\Various Artists - Swamp Pop By The Bayou Let's Get Together Tonight (2017) [FLAC]\07 - Chuck Hullier - Do You Take Me For A Fool.wav

Pre-gap length 0:00:01.55

Peak level 85.7 %
Extraction speed 2.3 X
Track quality 100.0 %
Test CRC 55C42D6C
Copy CRC 55C42D6C
Track not present in AccurateRip database
Copy OK

Track 8

Filename C:\Rips\Various Artists - Swamp Pop By The Bayou Let's Get Together Tonight (2017) [FLAC]\08 - Warren Storm - I've Got My Heart In My Hand.wav

Pre-gap length 0:00:01.70

Peak level 95.5 %
Extraction speed 2.3 X
Track quality 100.0 %
Test CRC F85BC65E
Copy CRC F85BC65E
Track not present in AccurateRip database
Copy OK

Track 9

Filename C:\Rips\Various Artists - Swamp Pop By The Bayou Let's Get Together Tonight (2017) [FLAC]\09 - Texas Guitar Slim aka Johnny Winter - Crazie Babie.wav

Pre-gap length 0:00:01.64

Peak level 71.3 %
Extraction speed 2.4 X
Track quality 100.0 %
Test CRC C8B047EC
Copy CRC C8B047EC
Track not present in AccurateRip database
Copy OK

Track 10

Filename C:\Rips\Various Artists - Swamp Pop By The Bayou Let's Get Together Tonight (2017) [FLAC]\10 - Rocket Morgan - I Know It's A Sin.wav

Pre-gap length 0:00:02.03

Peak level 91.5 %
Extraction speed 2.3 X
Track quality 100.0 %
Test CRC 0E1B19BE
Copy CRC 0E1B19BE
Track not present in AccurateRip database
Copy OK

Track 11

Filename C:\Rips\Various Artists - Swamp Pop By The Bayou Let's Get Together Tonight (2017) [FLAC]\11 - Charlotte Hunter - Now Is The Time.wav

Pre-gap length 0:00:02.09

Peak level 76.3 %
Extraction speed 2.6 X
Track quality 100.0 %
Test CRC B972D2A1
Copy CRC B972D2A1
Track not present in AccurateRip database
Copy OK

Track 12

Filename C:\Rips\Various Artists - Swamp Pop By The Bayou Let's Get Together Tonight (2017) [FLAC]\12 - Jay Randall & The Electras - Walking Alone.wav

Pre-gap length 0:00:02.11

Peak level 67.9 %
Extraction speed 2.7 X
Track quality 100.0 %
Test CRC AF173ABF
Copy CRC AF173ABF
Track not present in AccurateRip database
Copy OK

Track 13

Filename C:\Rips\Various Artists - Swamp Pop By The Bayou Let's Get Together Tonight (2017) [FLAC]\13 - Hal Young & The Electras - I'm Falling For You Darling.wav

Pre-gap length 0:00:01.51

Peak level 62.3 %
Extraction speed 2.8 X
Track quality 100.0 %
Test CRC 6A47AA0C
Copy CRC 6A47AA0C
Track not present in AccurateRip database
Copy OK

Track 14

Filename C:\Rips\Various Artists - Swamp Pop By The Bayou Let's Get Together Tonight (2017) [FLAC]\14 - Rocket Morgan - This Life I Live.wav

Pre-gap length 0:00:01.39

Peak level 95.5 %
Extraction speed 2.7 X
Track quality 100.0 %
Test CRC A4BDAE64
Copy CRC A4BDAE64
Track not present in AccurateRip database
Copy OK

Track 15

Filename C:\Rips\Various Artists - Swamp Pop By The Bayou Let's Get Together Tonight (2017) [FLAC]\15 - Warren Storm - If You Don't Want Me.wav

Pre-gap length 0:00:01.52

Peak level 79.6 %
Extraction speed 2.9 X
Track quality 100.0 %
Test CRC 9BE86111
Copy CRC 9BE86111
Track not present in AccurateRip database
Copy OK

Track 16

Filename C:\Rips\Various Artists - Swamp Pop By The Bayou Let's Get Together Tonight (2017) [FLAC]\16 - Sidney Ester & The Dreamers - Let Me Walk With You.wav

Pre-gap length 0:00:02.16

Peak level 91.2 %
Extraction speed 2.7 X
Track quality 100.0 %
Test CRC 6C046D99
Copy CRC 6C046D99
Track not present in AccurateRip database
Copy OK

Track 17

Filename C:\Rips\Various Artists - Swamp Pop By The Bayou Let's Get Together Tonight (2017) [FLAC]\17 - Rod Bernard - Let's Get Together Tonight.wav

Pre-gap length 0:00:02.06

Peak level 65.7 %
Extraction speed 2.1 X
Track quality 99.9 %
Test CRC 7F1845F7
Copy CRC 7F1845F7
Track not present in AccurateRip database
Copy OK

Track 18

Filename C:\Rips\Various Artists - Swamp Pop By The Bayou Let's Get Together Tonight (2017) [FLAC]\18 - Ken Lindsey - I Got Loaded.wav

Pre-gap length 0:00:02.23

Peak level 68.4 %
Extraction speed 2.7 X
Track quality 100.0 %
Test CRC B6603B67
Copy CRC B6603B67
Track not present in AccurateRip database
Copy OK

Track 19

Filename C:\Rips\Various Artists - Swamp Pop By The Bayou Let's Get Together Tonight (2017) [FLAC]\19 - Charles Page & The Rockin' Aces - Searching For Love.wav

Pre-gap length 0:00:02.18

Peak level 95.5 %
Extraction speed 2.5 X
Track quality 99.9 %
Test CRC 3CFB9C75
Copy CRC 3CFB9C75
Track not present in AccurateRip database
Copy OK

Track 20

Filename C:\Rips\Various Artists - Swamp Pop By The Bayou Let's Get Together Tonight (2017) [FLAC]\20 - Gabe Dean - Where Should I Go.wav

Pre-gap length 0:00:01.73

Peak level 77.4 %
Extraction speed 2.7 X
Track quality 100.0 %
Test CRC 24D17B50
Copy CRC 24D17B50
Track not present in AccurateRip database
Copy OK

Track 21

Filename C:\Rips\Various Artists - Swamp Pop By The Bayou Let's Get Together Tonight (2017) [FLAC]\21 - Merton Thibodeaux - The Snake.wav

Pre-gap length 0:00:01.69

Peak level 95.5 %
Extraction speed 2.6 X
Track quality 99.9 %
Test CRC F15B44CE
Copy CRC F15B44CE
Track not present in AccurateRip database
Copy OK

Track 22

Filename C:\Rips\Various Artists - Swamp Pop By The Bayou Let's Get Together Tonight (2017) [FLAC]\22 - Jivin' Gene - Go On, Go On.wav

Pre-gap length 0:00:01.32

Peak level 59.1 %
Extraction speed 2.8 X
Track quality 100.0 %
Test CRC 2F5C4849
Copy CRC 2F5C4849
Track not present in AccurateRip database
Copy OK

Track 23

Filename C:\Rips\Various Artists - Swamp Pop By The Bayou Let's Get Together Tonight (2017) [FLAC]\23 - Amery Lynn - Want To Go Home.wav

Pre-gap length 0:00:02.13

Peak level 76.6 %
Extraction speed 3.0 X
Track quality 100.0 %
Test CRC 9AD9CA9C
Copy CRC 9AD9CA9C
Track not present in AccurateRip database
Copy OK

Track 24

Filename C:\Rips\Various Artists - Swamp Pop By The Bayou Let's Get Together Tonight (2017) [FLAC]\24 - Doug Ardoin & The Boogie Kings - Love Lost.wav

Pre-gap length 0:00:01.68

Peak level 95.5 %
Extraction speed 2.8 X
Track quality 99.9 %
Test CRC 727EB4C5
Copy CRC 727EB4C5
Track not present in AccurateRip database
Copy OK

Track 25

Filename C:\Rips\Various Artists - Swamp Pop By The Bayou Let's Get Together Tonight (2017) [FLAC]\25 - Everett Daigle & The Tune Tones - Lonely Street.wav

Pre-gap length 0:00:01.61

Peak level 95.5 %
Extraction speed 3.2 X
Track quality 100.0 %
Test CRC 75B6B72F
Copy CRC 75B6B72F
Track not present in AccurateRip database
Copy OK

Track 26

Filename C:\Rips\Various Artists - Swamp Pop By The Bayou Let's Get Together Tonight (2017) [FLAC]\26 - Vince Anthony & The Blue Notes - Lucy Lou.wav

Pre-gap length 0:00:02.01

Peak level 70.4 %
Extraction speed 2.8 X
Track quality 99.9 %
Test CRC 8070949B
Copy CRC 8070949B
Track not present in AccurateRip database
Copy OK

Track 27

Filename C:\Rips\Various Artists - Swamp Pop By The Bayou Let's Get Together Tonight (2017) [FLAC]\27 - Rocket Morgan - It's Too Late.wav

Pre-gap length 0:00:02.11

Peak level 95.5 %
Extraction speed 3.3 X
Track quality 100.0 %
Test CRC 18B5180F
Copy CRC 18B5180F
Track not present in AccurateRip database
Copy OK

Track 28

Filename C:\Rips\Various Artists - Swamp Pop By The Bayou Let's Get Together Tonight (2017) [FLAC]\28 - Warren Storm - Thank You So Much.wav

Pre-gap length 0:00:02.00

Peak level 93.1 %
Extraction speed 2.7 X
Track quality 99.9 %
Test CRC 84EE2AE0
Copy CRC 84EE2AE0
Track not present in AccurateRip database
Copy OK


None of the tracks are present in the AccurateRip database

No errors occurred

End of status report

–– CUETools DB Plugin V2.1.6

[CTDB TOCID: 8qwUYb0ZNQTe1FvbtNTSULw0mhY-] found
Submit result: 8qwUYb0ZNQTe1FvbtNTSULw0mhY- has been confirmed
Track | CTDB Status
1 | (1/1) Accurately ripped
2 | (1/1) Accurately ripped
3 | (1/1) Accurately ripped
4 | (1/1) Accurately ripped
5 | (1/1) Accurately ripped
6 | (1/1) Accurately ripped
7 | (1/1) Accurately ripped
8 | (1/1) Accurately ripped
9 | (1/1) Accurately ripped
10 | (1/1) Accurately ripped
11 | (1/1) Accurately ripped
12 | (1/1) Accurately ripped
13 | (1/1) Accurately ripped
14 | (1/1) Accurately ripped
15 | (1/1) Accurately ripped
16 | (1/1) Accurately ripped
17 | (1/1) Accurately ripped
18 | (1/1) Accurately ripped
19 | (1/1) Accurately ripped
20 | (1/1) Accurately ripped
21 | (1/1) Accurately ripped
22 | (1/1) Accurately ripped
23 | (1/1) Accurately ripped
24 | (1/1) Accurately ripped
25 | (1/1) Accurately ripped
26 | (1/1) Accurately ripped
27 | (1/1) Accurately ripped
28 | (1/1) Accurately ripped


==== Log checksum D7BB6D27D04B1AD11132A4413F5AD44718AD353B170B09E30C69083DC149A0BE ====


Various Artists - Swamp Pop By The Bayou: Let's Get Together Tonight (2017) {Ace Records CDCHD 1499}

Various Artists - Swamp Pop By The Bayou: Let's Get Together Tonight (2017) {Ace Records CDCHD 1499}


see more By The Bayou Series…

NEXT -> more By The Bayou Series on the way…


===