Subcategories

VA - Take What You Need: UK Covers Of Bob Dylan Songs 1964-69 (2017)

Posted By: delpotro
VA - Take What You Need: UK Covers Of Bob Dylan Songs 1964-69 (2017)

VA - Take What You Need: UK Covers Of Bob Dylan Songs 1964-69 ) (2017)
EAC Rip | FLAC (tracks+log+.cue) | Artwork included | 01:14:42 | 374 Mb
Folk, Singer-Songwriter | Label: ACE Records

Classic Bob Dylan songs interpreted by British artists drawn from the 60s pop, folk, beat and underground scenes.

Bob Dylan’s long and meaningful association with Britain stretched back to the year of his low-key debut, “Bob Dylan”, in 1962 and his first visit to London that December. Once the USA succumbed to Beatlemania in February 1964, Dylan knew it was as crucial for him to make it in Britain as it had been for the Beatles to conquer America. He teetered outside the mainstream for almost two years until his heavily promoted, Beatles-endorsed UK visit of May 1964 propelled 1963’s breakthrough album, “Freewheelin’”, and follow-up, “The Times They Are A-Changin’”, into the UK charts. Only now did British artists cautiously begin covering Dylan songs; “Take What You Need” features the Fairies’ remarkable folk-beat take on ‘Don’t Think Twice, It’s All Right’ and Marianne Faithfull’s baroque ‘Blowin’ in the Wind’.

When Dylan returned to play eight sell-out dates in Britain the following year his fame trajectory rocketed. The shows were entirely acoustic but the electrically charged “Bringing It All Back Home” was already out and the blistering ‘Subterranean Homesick Blues’ was the second of his five pop hits in 1965. All his albums suddenly crashed into the charts. “Bringing It All Back Home” brushed aside “Freewheelin’” from the top spot in mid-May, with “The Times They Are A-Changin’” and “Another Side Of Bob Dylan” also in the Top 10. His self-titled debut even reached #13. As “Take What You Need” testifies, whether coming from the world of folk (the Three City Four, Julie Felix, Alex Campbell) or pop (Chad & Jeremy, Noel Harrison, Alan Price), there was now a rush to pillage these albums. Only Manfred Mann found the winning formula though; the playful ‘If You Gotta Go, Go Now’, a then unreleased Dylan song, was one of four of their hits from his repertoire.

Dylanmania may have subsided but the “Basement Tapes”, an extraordinary mix of joyous, throwaway songs and solemn classics, offered real pay dirt once they began circulating in 1968; our selection features Boz’s overwrought ‘I Shall Be Released’, Country Fever’s affecting reading of ‘Tears Of Rage’, and the Tim Rice-produced ‘Million Dollar Bash’ by the Mixed Bag. Unsurprisingly, Dylan’s pared-down, country approach permeated “John Wesley Harding” and “Nashville Skyline”. From these, “Take What You Need” includes the Alan Bown’s rousing treatment of ‘All Along the Watchtower’, Julie Driscoll/Brian Auger & the Trinity’s pulsating ‘I Am A Lonesome Hobo’ and Sandie Shaw’s singularly sedate ‘Lay Lady Lay’. Five decades on, many of the songs here are now standards but never again was there such a concentrated rush to record songs by the greatest and most mercurial of American artists.
Tracklist:
01 - The Fairies - Dont Think Twice Its All Right
02 - Marianne Faithfull - Blowin In The Wind
03 - The Three City Four - Oxford Town
04 - The Ian Campbell Folk Group - The Times They Are A Changin
05 - Mannfred Mann - If You Gotta Go Go Now
06 - The Cops N Robbers - Its All Over Now Baby Blue
07 - Chad & Jeremy - Mr Tambourine Man
08 - Noel Harrison - Love Minus Zero No Limit
09 - Julie Felix - One Too Many Mornings
10 - The Picadilly Line - Visions Of Johanna
11 - Alex Campbell - Tom Thumbs Blues
12 - The Alan Price Set - To Ramona
13 - The Factotums - Absolutely Sweet Marie
14 - The Alan Bown - All Along The Watchtower
15 - Boz - I Shall Be Released
16 - Julie Driscoll Brian Auger & Trinity - I Am A Lonesome Hobo
17 - Fairport Covention - Ill Keep It With Mine
18 - The Mixed Bag - Million Dollar Bash
19 - Cliff Aungier - Down Along The Cove
20 - Country Fever - Tears Of Rage
21 - Joe Cocker - Just Like A Women
22 - Sandie Shaw - Lay Lady Lay

Exact Audio Copy V1.2 from 12. August 2016

EAC extraction logfile from 13. February 2018, 14:49

Various / Take What You Need (UK Covers Of Bob Dylan Songs 1964-69)

Used drive : HL-DT-STDVD+-RW GU90N Adapter: 1 ID: 1

Read mode : Secure
Utilize accurate stream : Yes
Defeat audio cache : Yes
Make use of C2 pointers : No

Read offset correction : 102
Overread into Lead-In and Lead-Out : No
Fill up missing offset samples with silence : Yes
Delete leading and trailing silent blocks : No
Null samples used in CRC calculations : Yes
Used interface : Native Win32 interface for Win NT & 2000
Gap handling : Appended to previous track

Used output format : User Defined Encoder
Selected bitrate : 1024 kBit/s
Quality : High
Add ID3 tag : No
Command line compressor : C:\Program Files (x86)\Exact Audio Copy\Flac\flac.exe
Additional command line options : -8 -V -T "ARTIST=%artist%" -T "TITLE=%title%" -T "ALBUM=%albumtitle%" -T "DATE=%year%" -T "TRACKNUMBER=%tracknr%" -T "GENRE=%genre%" -T "PERFORMER=%albuminterpret%" -T "COMPOSER=%composer%" %haslyrics%–tag-from-file=LYRICS="%lyricsfile%"%haslyrics% -T "ALBUMARTIST=%albumartist%" -T "DISCNUMBER=%cdnumber%" -T "TOTALDISCS=%totalcds%" -T "TOTALTRACKS=%numtracks%" -T "COMMENT=%comment%" %source% -o %dest%


TOC of the extracted CD

Track | Start | Length | Start sector | End sector
––––––––––––––––––––––––––––-
1 | 0:00.00 | 2:52.62 | 0 | 12961
2 | 2:52.62 | 3:07.30 | 12962 | 27016
3 | 6:00.17 | 1:37.53 | 27017 | 34344
4 | 7:37.70 | 3:06.25 | 34345 | 48319
5 | 10:44.20 | 2:32.23 | 48320 | 59742
6 | 13:16.43 | 3:37.72 | 59743 | 76089
7 | 16:54.40 | 2:24.72 | 76090 | 86961
8 | 19:19.37 | 2:25.04 | 86962 | 97840
9 | 21:44.41 | 2:03.06 | 97841 | 107071
10 | 23:47.47 | 6:10.13 | 107072 | 134834
11 | 29:57.60 | 4:05.48 | 134835 | 153257
12 | 34:03.33 | 3:08.11 | 153258 | 167368
13 | 37:11.44 | 3:01.00 | 167369 | 180943
14 | 40:12.44 | 3:08.54 | 180944 | 195097
15 | 43:21.23 | 2:48.60 | 195098 | 207757
16 | 46:10.08 | 4:03.16 | 207758 | 225998
17 | 50:13.24 | 5:53.04 | 225999 | 252477
18 | 56:06.28 | 2:35.56 | 252478 | 264158
19 | 58:42.09 | 2:50.12 | 264159 | 276920
20 | 61:32.21 | 4:02.28 | 276921 | 295098
21 | 65:34.49 | 5:19.03 | 295099 | 319026
22 | 70:53.52 | 3:48.55 | 319027 | 336181


Track 1

Filename C:\Users\ian\Desktop\VA -Take What You Need UK Covers Of Bob Dylan Songs 1964-69 (2017) [FLAC]\01 - The Fairies - Dont Think Twice Its All Right.wav

Pre-gap length 0:00:02.00

Peak level 94.3 %
Extraction speed 1.2 X
Track quality 100.0 %
Test CRC 5D7A19FB
Copy CRC 5D7A19FB
Copy OK

Track 2

Filename C:\Users\ian\Desktop\VA -Take What You Need UK Covers Of Bob Dylan Songs 1964-69 (2017) [FLAC]\02 - Marianne Faithfull - Blowin In The Wind.wav

Pre-gap length 0:00:01.81

Peak level 95.4 %
Extraction speed 1.3 X
Track quality 100.0 %
Test CRC 8F67F8BD
Copy CRC 8F67F8BD
Copy OK

Track 3

Filename C:\Users\ian\Desktop\VA -Take What You Need UK Covers Of Bob Dylan Songs 1964-69 (2017) [FLAC]\03 - The Three City Four - Oxford Town.wav

Pre-gap length 0:00:02.01

Peak level 95.3 %
Extraction speed 1.2 X
Track quality 100.0 %
Test CRC FE3CB629
Copy CRC FE3CB629
Copy OK

Track 4

Filename C:\Users\ian\Desktop\VA -Take What You Need UK Covers Of Bob Dylan Songs 1964-69 (2017) [FLAC]\04 - The Ian Campbell Folk Group - The Times They Are A Changin.wav

Pre-gap length 0:00:02.00

Peak level 95.4 %
Extraction speed 1.4 X
Track quality 100.0 %
Test CRC 0A0CD56E
Copy CRC 0A0CD56E
Copy OK

Track 5

Filename C:\Users\ian\Desktop\VA -Take What You Need UK Covers Of Bob Dylan Songs 1964-69 (2017) [FLAC]\05 - Mannfred Mann - If You Gotta Go Go Now.wav

Pre-gap length 0:00:01.97

Peak level 95.4 %
Extraction speed 1.5 X
Track quality 100.0 %
Test CRC 581F5979
Copy CRC 581F5979
Copy OK

Track 6

Filename C:\Users\ian\Desktop\VA -Take What You Need UK Covers Of Bob Dylan Songs 1964-69 (2017) [FLAC]\06 - The Cops N Robbers - Its All Over Now Baby Blue.wav

Pre-gap length 0:00:01.97

Peak level 95.4 %
Extraction speed 1.6 X
Track quality 100.0 %
Test CRC 9FE08A5F
Copy CRC 9FE08A5F
Copy OK

Track 7

Filename C:\Users\ian\Desktop\VA -Take What You Need UK Covers Of Bob Dylan Songs 1964-69 (2017) [FLAC]\07 - Chad & Jeremy - Mr Tambourine Man.wav

Pre-gap length 0:00:01.76

Peak level 94.6 %
Extraction speed 1.6 X
Track quality 100.0 %
Test CRC 0A72FB11
Copy CRC 0A72FB11
Copy OK

Track 8

Filename C:\Users\ian\Desktop\VA -Take What You Need UK Covers Of Bob Dylan Songs 1964-69 (2017) [FLAC]\08 - Noel Harrison - Love Minus Zero No Limit.wav

Pre-gap length 0:00:02.10

Peak level 95.4 %
Extraction speed 1.4 X
Track quality 99.9 %
Test CRC 86C04B70
Copy CRC 86C04B70
Copy OK

Track 9

Filename C:\Users\ian\Desktop\VA -Take What You Need UK Covers Of Bob Dylan Songs 1964-69 (2017) [FLAC]\09 - Julie Felix - One Too Many Mornings.wav

Pre-gap length 0:00:01.77

Peak level 95.4 %
Extraction speed 1.6 X
Track quality 100.0 %
Test CRC 9A666E20
Copy CRC 9A666E20
Copy OK

Track 10

Filename C:\Users\ian\Desktop\VA -Take What You Need UK Covers Of Bob Dylan Songs 1964-69 (2017) [FLAC]\10 - The Picadilly Line - Visions Of Johanna.wav

Pre-gap length 0:00:01.74

Peak level 95.4 %
Extraction speed 1.9 X
Track quality 99.9 %
Test CRC 16979F45
Copy CRC 16979F45
Copy OK

Track 11

Filename C:\Users\ian\Desktop\VA -Take What You Need UK Covers Of Bob Dylan Songs 1964-69 (2017) [FLAC]\11 - Alex Campbell - Tom Thumbs Blues.wav

Pre-gap length 0:00:01.50

Peak level 95.4 %
Extraction speed 2.1 X
Track quality 100.0 %
Test CRC 4D3EED6D
Copy CRC 4D3EED6D
Copy OK

Track 12

Filename C:\Users\ian\Desktop\VA -Take What You Need UK Covers Of Bob Dylan Songs 1964-69 (2017) [FLAC]\12 - The Alan Price Set - To Ramona.wav

Pre-gap length 0:00:02.04

Peak level 67.6 %
Extraction speed 2.0 X
Track quality 100.0 %
Test CRC 95E11AA6
Copy CRC 95E11AA6
Copy OK

Track 13

Filename C:\Users\ian\Desktop\VA -Take What You Need UK Covers Of Bob Dylan Songs 1964-69 (2017) [FLAC]\13 - The Factotums - Absolutely Sweet Marie.wav

Pre-gap length 0:00:02.01

Peak level 95.4 %
Extraction speed 2.1 X
Track quality 100.0 %
Test CRC 39040D78
Copy CRC 39040D78
Copy OK

Track 14

Filename C:\Users\ian\Desktop\VA -Take What You Need UK Covers Of Bob Dylan Songs 1964-69 (2017) [FLAC]\14 - The Alan Bown - All Along The Watchtower.wav

Pre-gap length 0:00:01.96

Peak level 95.2 %
Extraction speed 2.2 X
Track quality 100.0 %
Test CRC 5EE0D536
Copy CRC 5EE0D536
Copy OK

Track 15

Filename C:\Users\ian\Desktop\VA -Take What You Need UK Covers Of Bob Dylan Songs 1964-69 (2017) [FLAC]\15 - Boz - I Shall Be Released.wav

Pre-gap length 0:00:01.81

Peak level 95.4 %
Extraction speed 2.2 X
Track quality 100.0 %
Test CRC 93EC34B7
Copy CRC 93EC34B7
Copy OK

Track 16

Filename C:\Users\ian\Desktop\VA -Take What You Need UK Covers Of Bob Dylan Songs 1964-69 (2017) [FLAC]\16 - Julie Driscoll Brian Auger & Trinity - I Am A Lonesome Hobo.wav

Pre-gap length 0:00:02.45

Peak level 95.4 %
Extraction speed 2.4 X
Track quality 100.0 %
Test CRC 3364F893
Copy CRC 3364F893
Copy OK

Track 17

Filename C:\Users\ian\Desktop\VA -Take What You Need UK Covers Of Bob Dylan Songs 1964-69 (2017) [FLAC]\17 - Fairport Covention - Ill Keep It With Mine.wav

Pre-gap length 0:00:02.01

Peak level 95.4 %
Extraction speed 2.6 X
Track quality 100.0 %
Test CRC C859D57D
Copy CRC C859D57D
Copy OK

Track 18

Filename C:\Users\ian\Desktop\VA -Take What You Need UK Covers Of Bob Dylan Songs 1964-69 (2017) [FLAC]\18 - The Mixed Bag - Million Dollar Bash.wav

Pre-gap length 0:00:01.98

Peak level 95.4 %
Extraction speed 2.3 X
Track quality 100.0 %
Test CRC 3ED9AE00
Copy CRC 3ED9AE00
Copy OK

Track 19

Filename C:\Users\ian\Desktop\VA -Take What You Need UK Covers Of Bob Dylan Songs 1964-69 (2017) [FLAC]\19 - Cliff Aungier - Down Along The Cove.wav

Pre-gap length 0:00:01.88

Peak level 95.2 %
Extraction speed 2.4 X
Track quality 100.0 %
Test CRC D499323E
Copy CRC D499323E
Copy OK

Track 20

Filename C:\Users\ian\Desktop\VA -Take What You Need UK Covers Of Bob Dylan Songs 1964-69 (2017) [FLAC]\20 - Country Fever - Tears Of Rage.wav

Pre-gap length 0:00:01.90

Peak level 95.4 %
Extraction speed 2.3 X
Track quality 99.9 %
Test CRC F2C06D92
Copy CRC F2C06D92
Copy OK

Track 21

Filename C:\Users\ian\Desktop\VA -Take What You Need UK Covers Of Bob Dylan Songs 1964-69 (2017) [FLAC]\21 - Jioe Cocker - Just Like A Women.wav

Pre-gap length 0:00:02.14

Peak level 95.4 %
Extraction speed 2.5 X
Track quality 99.9 %
Test CRC E3086EC8
Copy CRC E3086EC8
Copy OK

Track 22

Filename C:\Users\ian\Desktop\VA -Take What You Need UK Covers Of Bob Dylan Songs 1964-69 (2017) [FLAC]\22 - Sandie Shaw - Lay Lady Lay.wav

Pre-gap length 0:00:02.41

Peak level 95.4 %
Extraction speed 2.4 X
Track quality 99.9 %
Test CRC D3CE9107
Copy CRC D3CE9107
Copy OK

No errors occurred

End of status report

–– CUETools DB Plugin V2.1.6

[CTDB TOCID: zdvbTZjorBQ0kNH4.dwJ8MRqX2g-] found
Submit result: zdvbTZjorBQ0kNH4.dwJ8MRqX2g- has been confirmed
Track | CTDB Status
1 | (4/4) Accurately ripped
2 | (4/4) Accurately ripped
3 | (4/4) Accurately ripped
4 | (4/4) Accurately ripped
5 | (4/4) Accurately ripped
6 | (4/4) Accurately ripped
7 | (4/4) Accurately ripped
8 | (4/4) Accurately ripped
9 | (4/4) Accurately ripped
10 | (4/4) Accurately ripped
11 | (4/4) Accurately ripped
12 | (4/4) Accurately ripped
13 | (4/4) Accurately ripped
14 | (4/4) Accurately ripped
15 | (4/4) Accurately ripped
16 | (4/4) Accurately ripped
17 | (4/4) Accurately ripped
18 | (4/4) Accurately ripped
19 | (4/4) Accurately ripped
20 | (4/4) Accurately ripped
21 | (4/4) Accurately ripped
22 | (4/4) Accurately ripped


==== Log checksum 4C854BA42254F222204A9225442B4A6FAFB91E79D63EC20D7397D235E7D8EC6A ====

Thanks to the Original ripper billm !