Subcategories

Various Artists - The Best Of Lloyd Charmers (50 Top Reggae Tunes) (2016) {2CD Trojan Records}

Posted By: ruskaval
Various Artists - The Best Of Lloyd Charmers (50 Top Reggae Tunes) (2016)  {2CD Trojan Records}

Various Artists - The Best Of Lloyd Charmers (50 Top Reggae Tunes) (2016) {2CD Trojan Records}
EAC rip (secure mode) | FLAC (tracks)+CUE+LOG -> 624 Mb | MP3 @320 -> 366 Mb
Full Artwork @ 300 dpi (jpg) -> 71 Mb | 5% repair rar
© 2016 Trojan Records / BMG / Sanctuary Records | TJDCD540
Reggae / Roots Reggae

After a successful career as a vocalist in the Charmers and Uniques vocal groups, Lloyd ‘Charmers’ Tyrell made his mark as one of Jamaica’s most influential record producers.
From 1969 to 1973, he produced and released an array of local hits on his Splash Records label, featuring himself along with some of the island’s leading performers, most notably Ken Boothe, Bob Andy and BB Seaton.

Various Artists - The Best Of Lloyd Charmers (50 Top Reggae Tunes) (2016)  {2CD Trojan Records}


The best of these works were subsequently gathered on the two Trojan vinyl LPs that comprise this deluxe 2CD set: ‘The Best Of Lloyd Charmers’ and ‘Lloyd Charmers In Session’.
First issued in 1973 and 1974, respectively, these two highly collectable albums both finally make their CD debut on this stunning 2CD set.
Various Artists - The Best Of Lloyd Charmers (50 Top Reggae Tunes) (2016)  {2CD Trojan Records}


personnel & tracklist:
CD1

01 - Lloyd Charmers & The Hippy Boys - Cloudburst
02 - Lloyd Charmers - One Big Unhappy Family
03 - Lloyd Charmers & The Hippy Boys - Look-Ka-Py-Py
04 - The Charmers - The Sweeter She Is
05 - Lloyd Charmers - Colour Him, Father
06 - Lloyd Charmers - Oh Me Oh My
07 - Lloyd Charmers & Hortense Ellis - I'm Gone
08 - 'Bongo' Tony Binns - Love I Madly
09 - The Conscious Minds - Africa Is Paradise
10 - The Charmers - I Can't Get Next To You
11 - Lloyd Charmers - One Woman
12 - 'Bongo' Tony Binns - Humpty Dumpty
13 - Lloydie & The Lowbites - Birth Control
14 - Lloyd Charmers - Dollars And Bonds
15 - Bobby Blue - Going In Circles
16 - Lloyd Charmers - Big Five
17 - 'Bongo' Tony Binns - Musical Shower
18 - Dave Barker & The Charmers - I've Gotta Get A Message To You
19 - Lloyd Charmers - Soul Of England
20 - The Charmers - Skinhead Train
21 - Karl Walker & The Charmers - Music Talk
22 - 'Bongo' Tony Binns - Ever Strong
23 - Lloyd Charmers - Shaft
24 - Guts McGeorge - Blue Moon
25 - Lloyd Charmers & Karl Walker - Ready Talk
26 - Lloyd Charmers - Reggae In Wonderland

CD2
01 - Lloyd Charmers - Play Me
02 - Lloyd Charmers - Save Their Souls
03 - The Messengers - Thula Thula
04 - B.B. Seaton - A Lover's Quarrel
05 - B.B. Seaton - I'll Be Your Shelter
06 - The Messengers - Smiling Faces Sometimes
07 - The Messengers - Sherry
08 - The Now Generation - Mother Mary
09 - Lloyd Charmers - Loving Her Was Easier
10 - Lloyd Charmers - I'm Gonna Love You Just A Little More
11 - Busty Brown - Just As Long As You Need Me
12 - Bobby Blue - Doggone Right
13 - Busty Brown - I Love You Madly
14 - Lloyd Charmers - Going In Circles
15 - Bob Andy - Since I Lost My Baby
16 - Bob Andy - Baby I Need Your Loving
17 - Dave Barker & The Charmers - Just My Imagination
18 - The Chosen Few - Stoned In Love
19 - Scotty - Salvation Train
20 - Lloyd Charmers - Have I Sinned
21 - The Chosen Few - Children Of The Night
22 - Ken Parker - Take A Message To Mary
23 - Lloyd Charmers & Hortense Ellis - You Are Everything
24 - The Chosen Few - It's Too Late

Exact Audio Copy V1.3 from 2. September 2016

EAC extraction logfile from 9. November 2016, 14:51

Various Artists / The Best Of Lloyd Charmers (50 Top Reggae Tunes) CD1

Used drive : TSSTcorpCDDVDW SN-208DN Adapter: 1 ID: 0

Read mode : Secure
Utilize accurate stream : Yes
Defeat audio cache : Yes
Make use of C2 pointers : No

Read offset correction : 6
Overread into Lead-In and Lead-Out : No
Fill up missing offset samples with silence : Yes
Delete leading and trailing silent blocks : No
Null samples used in CRC calculations : Yes
Used interface : Native Win32 interface for Win NT & 2000
Gap handling : Appended to previous track

Used output format : User Defined Encoder
Selected bitrate : 128 kBit/s
Quality : High
Add ID3 tag : No
Command line compressor : C:\Program Files (x86)\Exact Audio Copy\Flac\flac.exe
Additional command line options : -8 -V -T "ARTIST=%artist%" -T "TITLE=%title%" -T "ALBUM=%albumtitle%" -T "DATE=%year%" -T "TRACKNUMBER=%tracknr%" -T "TOTALTRACKS=%numtracks%" -T "GENRE=%genre%" -T "ALBUMARTIST=%albumartist%" -T "ALBUM ARTIST=%albumartist%" -T "COMMENT=EAC Secure Mode, Test & Copy, AccurateRip, FLAC -8" %source%


TOC of the extracted CD

Track | Start | Length | Start sector | End sector
––––––––––––––––––––––––––––-
1 | 0:00.00 | 3:10.27 | 0 | 14276
2 | 3:10.27 | 2:47.48 | 14277 | 26849
3 | 5:58.00 | 2:42.02 | 26850 | 39001
4 | 8:40.02 | 3:18.25 | 39002 | 53876
5 | 11:58.27 | 3:16.01 | 53877 | 68577
6 | 15:14.28 | 3:09.47 | 68578 | 82799
7 | 18:24.00 | 2:17.02 | 82800 | 93076
8 | 20:41.02 | 3:27.32 | 93077 | 108633
9 | 24:08.34 | 3:15.33 | 108634 | 123291
10 | 27:23.67 | 2:44.11 | 123292 | 135602
11 | 30:08.03 | 3:14.39 | 135603 | 150191
12 | 33:22.42 | 2:17.01 | 150192 | 160467
13 | 35:39.43 | 2:49.00 | 160468 | 173142
14 | 38:28.43 | 2:43.73 | 173143 | 185440
15 | 41:12.41 | 3:22.44 | 185441 | 200634
16 | 44:35.10 | 2:13.72 | 200635 | 210681
17 | 46:49.07 | 3:52.41 | 210682 | 228122
18 | 50:41.48 | 2:54.35 | 228123 | 241207
19 | 53:36.08 | 2:41.24 | 241208 | 253306
20 | 56:17.32 | 2:37.51 | 253307 | 265132
21 | 58:55.08 | 3:11.31 | 265133 | 279488
22 | 62:06.39 | 2:48.35 | 279489 | 292123
23 | 64:54.74 | 4:35.43 | 292124 | 312791
24 | 69:30.42 | 3:00.32 | 312792 | 326323
25 | 72:30.74 | 3:12.10 | 326324 | 340733
26 | 75:43.09 | 3:03.33 | 340734 | 354491


Track 1

Filename C:\addisisgodflac\01 - Lloyd Charmers & The Hippy Boys - Cloudburst.wav

Pre-gap length 0:00:02.00

Peak level 97.7 %
Extraction speed 1.2 X
Track quality 100.0 %
Test CRC 110642D3
Copy CRC 110642D3
Cannot be verified as accurate (confidence 1) [88208D4D], AccurateRip returned [AEB53DC2] (AR v2)
Copy OK

Track 2

Filename C:\addisisgodflac\02 - Lloyd Charmers - One Big Unhappy Family.wav

Pre-gap length 0:00:01.72

Peak level 97.7 %
Extraction speed 1.1 X
Track quality 99.9 %
Test CRC 66553DD0
Copy CRC 66553DD0
Accurately ripped (confidence 1) [22030ACE] (AR v2)
Copy OK

Track 3

Filename C:\addisisgodflac\03 - Lloyd Charmers & The Hippy Boys - Look-Ka-Py-Py.wav

Pre-gap length 0:00:02.27

Peak level 97.7 %
Extraction speed 1.1 X
Track quality 99.9 %
Test CRC 9D8CA2E6
Copy CRC 9D8CA2E6
Accurately ripped (confidence 1) [79AB762E] (AR v2)
Copy OK

Track 4

Filename C:\addisisgodflac\04 - The Charmers - The Sweeter She Is.wav

Pre-gap length 0:00:02.00

Peak level 94.3 %
Extraction speed 1.5 X
Track quality 100.0 %
Test CRC 0641F683
Copy CRC 0641F683
Accurately ripped (confidence 1) [7223E781] (AR v2)
Copy OK

Track 5

Filename C:\addisisgodflac\05 - Lloyd Charmers - Colour Him, Father.wav

Pre-gap length 0:00:02.00

Peak level 97.7 %
Extraction speed 1.5 X
Track quality 100.0 %
Test CRC 6019CA1B
Copy CRC 6019CA1B
Accurately ripped (confidence 1) [9CC2D4D7] (AR v2)
Copy OK

Track 6

Filename C:\addisisgodflac\06 - Lloyd Charmers - Oh Me Oh My.wav

Pre-gap length 0:00:01.71

Peak level 97.7 %
Extraction speed 1.6 X
Track quality 100.0 %
Test CRC FFB4662A
Copy CRC FFB4662A
Accurately ripped (confidence 1) [EBDC3D5D] (AR v2)
Copy OK

Track 7

Filename C:\addisisgodflac\07 - Lloyd Charmers & Hortense Ellis - I'm Gone.wav

Pre-gap length 0:00:01.72

Peak level 97.7 %
Extraction speed 1.6 X
Track quality 100.0 %
Test CRC E6085A72
Copy CRC E6085A72
Accurately ripped (confidence 1) [E9A199DD] (AR v2)
Copy OK

Track 8

Filename C:\addisisgodflac\08 - 'Bongo' Tony Binns - Love I Madly.wav

Pre-gap length 0:00:02.01

Peak level 97.7 %
Extraction speed 1.7 X
Track quality 100.0 %
Test CRC C8127D9C
Copy CRC C8127D9C
Accurately ripped (confidence 1) [992D1805] (AR v2)
Copy OK

Track 9

Filename C:\addisisgodflac\09 - The Conscious Minds - Africa Is Paradise.wav

Pre-gap length 0:00:01.70

Peak level 97.7 %
Extraction speed 1.8 X
Track quality 100.0 %
Test CRC D43C1895
Copy CRC D43C1895
Accurately ripped (confidence 1) [4F4A07CA] (AR v2)
Copy OK

Track 10

Filename C:\addisisgodflac\10 - The Charmers - I Can't Get Next To You.wav

Pre-gap length 0:00:02.00

Peak level 80.2 %
Extraction speed 1.8 X
Track quality 100.0 %
Test CRC 725A9A2B
Copy CRC 725A9A2B
Accurately ripped (confidence 1) [20846748] (AR v2)
Copy OK

Track 11

Filename C:\addisisgodflac\11 - Lloyd Charmers - One Woman.wav

Pre-gap length 0:00:02.17

Peak level 97.7 %
Extraction speed 1.6 X
Track quality 99.9 %
Test CRC 8DC7451C
Copy CRC 8DC7451C
Accurately ripped (confidence 1) [B19A5336] (AR v2)
Copy OK

Track 12

Filename C:\addisisgodflac\12 - 'Bongo' Tony Binns - Humpty Dumpty.wav

Pre-gap length 0:00:01.74

Peak level 83.1 %
Extraction speed 1.8 X
Track quality 100.0 %
Test CRC EEE6691C
Copy CRC EEE6691C
Accurately ripped (confidence 1) [4D92EED4] (AR v2)
Copy OK

Track 13

Filename C:\addisisgodflac\13 - Lloydie & The Lowbites - Birth Control.wav

Pre-gap length 0:00:01.68

Peak level 77.5 %
Extraction speed 1.6 X
Track quality 99.9 %
Test CRC D02B3797
Copy CRC D02B3797
Accurately ripped (confidence 1) [F532206C] (AR v2)
Copy OK

Track 14

Filename C:\addisisgodflac\14 - Lloyd Charmers - Dollars And Bonds.wav

Pre-gap length 0:00:01.71

Peak level 77.5 %
Extraction speed 1.6 X
Track quality 99.9 %
Test CRC BD7A7D48
Copy CRC BD7A7D48
Accurately ripped (confidence 1) [7D8F4BC2] (AR v2)
Copy OK

Track 15

Filename C:\addisisgodflac\15 - Bobby Blue - Going In Circles.wav

Pre-gap length 0:00:01.70

Peak level 80.2 %
Extraction speed 2.1 X
Track quality 100.0 %
Test CRC AA7B4018
Copy CRC AA7B4018
Accurately ripped (confidence 1) [BAB681A2] (AR v2)
Copy OK

Track 16

Filename C:\addisisgodflac\16 - Lloyd Charmers - Big Five.wav

Pre-gap length 0:00:02.01

Peak level 80.2 %
Extraction speed 2.0 X
Track quality 100.0 %
Test CRC 6E28919E
Copy CRC 6E28919E
Accurately ripped (confidence 1) [E5F4A515] (AR v2)
Copy OK

Track 17

Filename C:\addisisgodflac\17 - 'Bongo' Tony Binns - Musical Shower.wav

Pre-gap length 0:00:02.11

Peak level 97.7 %
Extraction speed 2.2 X
Track quality 100.0 %
Test CRC F6C1FBA5
Copy CRC F6C1FBA5
Accurately ripped (confidence 1) [973E0978] (AR v2)
Copy OK

Track 18

Filename C:\addisisgodflac\18 - Dave Barker & The Charmers - I've Gotta Get A Message To You.wav

Pre-gap length 0:00:01.68

Peak level 97.7 %
Extraction speed 2.2 X
Track quality 100.0 %
Test CRC 1EF6D457
Copy CRC 1EF6D457
Accurately ripped (confidence 1) [6C58B6B7] (AR v2)
Copy OK

Track 19

Filename C:\addisisgodflac\19 - Lloyd Charmers - Soul Of England.wav

Pre-gap length 0:00:02.01

Peak level 97.7 %
Extraction speed 1.8 X
Track quality 99.9 %
Test CRC 805B0C27
Copy CRC 805B0C27
Accurately ripped (confidence 1) [A922AE5F] (AR v2)
Copy OK

Track 20

Filename C:\addisisgodflac\20 - The Charmers - Skinhead Train.wav

Pre-gap length 0:00:02.04

Peak level 95.4 %
Extraction speed 1.8 X
Track quality 99.9 %
Test CRC 6368E3DC
Copy CRC 6368E3DC
Accurately ripped (confidence 1) [97777092] (AR v2)
Copy OK

Track 21

Filename C:\addisisgodflac\21 - Karl Walker & The Charmers - Music Talk.wav

Pre-gap length 0:00:01.71

Peak level 68.2 %
Extraction speed 2.3 X
Track quality 100.0 %
Test CRC 727D0893
Copy CRC 727D0893
Accurately ripped (confidence 1) [616727EF] (AR v2)
Copy OK

Track 22

Filename C:\addisisgodflac\22 - 'Bongo' Tony Binns - Ever Strong.wav

Pre-gap length 0:00:01.71

Peak level 97.7 %
Extraction speed 2.3 X
Track quality 100.0 %
Test CRC 0936A039
Copy CRC 0936A039
Accurately ripped (confidence 1) [8188030B] (AR v2)
Copy OK

Track 23

Filename C:\addisisgodflac\23 - Lloyd Charmers - Shaft.wav

Pre-gap length 0:00:01.72

Peak level 74.0 %
Extraction speed 2.3 X
Track quality 99.9 %
Test CRC 9EC3D3F3
Copy CRC 9EC3D3F3
Accurately ripped (confidence 1) [E5EF95ED] (AR v2)
Copy OK

Track 24

Filename C:\addisisgodflac\24 - Guts McGeorge - Blue Moon.wav

Pre-gap length 0:00:02.05

Peak level 86.9 %
Extraction speed 2.4 X
Track quality 100.0 %
Test CRC BFD341ED
Copy CRC BFD341ED
Accurately ripped (confidence 1) [192243DB] (AR v2)
Copy OK

Track 25

Filename C:\addisisgodflac\25 - Lloyd Charmers & Karl Walker - Ready Talk.wav

Pre-gap length 0:00:02.14

Peak level 82.1 %
Extraction speed 2.5 X
Track quality 100.0 %
Test CRC BA7D043C
Copy CRC BA7D043C
Accurately ripped (confidence 1) [B36F109B] (AR v2)
Copy OK

Track 26

Filename C:\addisisgodflac\26 - Lloyd Charmers - Reggae In Wonderland.wav

Pre-gap length 0:00:01.73

Peak level 83.0 %
Extraction speed 2.5 X
Track quality 100.0 %
Test CRC C946A090
Copy CRC C946A090
Accurately ripped (confidence 1) [029D10B7] (AR v2)
Copy OK


25 track(s) accurately ripped
1 track(s) could not be verified as accurate

Some tracks could not be verified as accurate

No errors occurred

End of status report

–– CUETools DB Plugin V2.1.6

[CTDB TOCID: yL7p5KY.T.SFAsBF9M0iAOONn.Y-] found
Submit result: yL7p5KY.T.SFAsBF9M0iAOONn.Y- has been confirmed
Track | CTDB Status
1 | (1/1) Accurately ripped
2 | (1/1) Accurately ripped
3 | (1/1) Accurately ripped
4 | (1/1) Accurately ripped
5 | (1/1) Accurately ripped
6 | (1/1) Accurately ripped
7 | (1/1) Accurately ripped
8 | (1/1) Accurately ripped
9 | (1/1) Accurately ripped
10 | (1/1) Accurately ripped
11 | (1/1) Accurately ripped
12 | (1/1) Accurately ripped
13 | (1/1) Accurately ripped
14 | (1/1) Accurately ripped
15 | (1/1) Accurately ripped
16 | (1/1) Accurately ripped
17 | (1/1) Accurately ripped
18 | (1/1) Accurately ripped
19 | (1/1) Accurately ripped
20 | (1/1) Accurately ripped
21 | (1/1) Accurately ripped
22 | (1/1) Accurately ripped
23 | (1/1) Accurately ripped
24 | (1/1) Accurately ripped
25 | (1/1) Accurately ripped
26 | (1/1) Accurately ripped


==== Log checksum 2CC35E63FB21E959090F955398FFA8B14871D65808C802BED90FF34662500AF5 ====

Exact Audio Copy V1.3 from 2. September 2016

EAC extraction logfile from 9. November 2016, 11:47

Various Artists / The Best Of Lloyd Charmers (50 Top Reggae Tunes) CD2

Used drive : TSSTcorpCDDVDW SN-208DN Adapter: 1 ID: 0

Read mode : Secure
Utilize accurate stream : Yes
Defeat audio cache : Yes
Make use of C2 pointers : No

Read offset correction : 6
Overread into Lead-In and Lead-Out : No
Fill up missing offset samples with silence : Yes
Delete leading and trailing silent blocks : No
Null samples used in CRC calculations : Yes
Used interface : Native Win32 interface for Win NT & 2000
Gap handling : Appended to previous track

Used output format : User Defined Encoder
Selected bitrate : 128 kBit/s
Quality : High
Add ID3 tag : No
Command line compressor : C:\Program Files (x86)\Exact Audio Copy\Flac\flac.exe
Additional command line options : -8 -V -T "ARTIST=%artist%" -T "TITLE=%title%" -T "ALBUM=%albumtitle%" -T "DATE=%year%" -T "TRACKNUMBER=%tracknr%" -T "TOTALTRACKS=%numtracks%" -T "GENRE=%genre%" -T "ALBUMARTIST=%albumartist%" -T "ALBUM ARTIST=%albumartist%" -T "COMMENT=EAC Secure Mode, Test & Copy, AccurateRip, FLAC -8" %source%


TOC of the extracted CD

Track | Start | Length | Start sector | End sector
––––––––––––––––––––––––––––-
1 | 0:00.00 | 2:58.21 | 0 | 13370
2 | 2:58.21 | 3:52.22 | 13371 | 30792
3 | 6:50.43 | 2:51.05 | 30793 | 43622
4 | 9:41.48 | 2:56.53 | 43623 | 56875
5 | 12:38.26 | 2:51.47 | 56876 | 69747
6 | 15:29.73 | 3:04.42 | 69748 | 83589
7 | 18:34.40 | 2:23.68 | 83590 | 94382
8 | 20:58.33 | 3:23.12 | 94383 | 109619
9 | 24:21.45 | 3:42.37 | 109620 | 126306
10 | 28:04.07 | 3:05.28 | 126307 | 140209
11 | 31:09.35 | 3:04.57 | 140210 | 154066
12 | 34:14.17 | 3:22.02 | 154067 | 169218
13 | 37:36.19 | 3:23.41 | 169219 | 184484
14 | 40:59.60 | 3:18.55 | 184485 | 199389
15 | 44:18.40 | 2:40.67 | 199390 | 211456
16 | 46:59.32 | 2:38.18 | 211457 | 223324
17 | 49:37.50 | 3:25.25 | 223325 | 238724
18 | 53:03.00 | 4:05.33 | 238725 | 257132
19 | 57:08.33 | 3:39.40 | 257133 | 273597
20 | 60:47.73 | 3:07.03 | 273598 | 287625
21 | 63:55.01 | 3:48.42 | 287626 | 304767
22 | 67:43.43 | 3:22.69 | 304768 | 319986
23 | 71:06.37 | 2:31.25 | 319987 | 331336
24 | 73:37.62 | 3:35.54 | 331337 | 347515


Track 1

Filename C:\addisisgodflac\01 - Lloyd Charmers - Play Me.wav

Pre-gap length 0:00:02.00

Peak level 97.7 %
Extraction speed 1.0 X
Track quality 99.9 %
Test CRC FD1CFE9C
Copy CRC FD1CFE9C
Accurately ripped (confidence 1) [1D53F326] (AR v2)
Copy OK

Track 2

Filename C:\addisisgodflac\02 - Lloyd Charmers - Save Their Souls.wav

Pre-gap length 0:00:02.00

Peak level 97.7 %
Extraction speed 1.4 X
Track quality 100.0 %
Test CRC 8FE3D0D8
Copy CRC 8FE3D0D8
Accurately ripped (confidence 1) [7BC28AE3] (AR v2)
Copy OK

Track 3

Filename C:\addisisgodflac\03 - The Messengers - Thula Thula.wav

Pre-gap length 0:00:01.67

Peak level 97.7 %
Extraction speed 1.4 X
Track quality 100.0 %
Test CRC 715431CC
Copy CRC 715431CC
Accurately ripped (confidence 1) [50B5E390] (AR v2)
Copy OK

Track 4

Filename C:\addisisgodflac\04 - B.B. Seaton - A Lover's Quarrel.wav

Pre-gap length 0:00:01.70

Peak level 96.3 %
Extraction speed 1.4 X
Track quality 100.0 %
Test CRC E783022C
Copy CRC E783022C
Accurately ripped (confidence 1) [8CB96949] (AR v2)
Copy OK

Track 5

Filename C:\addisisgodflac\05 - B.B. Seaton - I'll Be Your Shelter.wav

Pre-gap length 0:00:01.70

Peak level 97.7 %
Extraction speed 1.3 X
Track quality 99.9 %
Test CRC 6D7ECC54
Copy CRC 6D7ECC54
Accurately ripped (confidence 1) [EDB2F314] (AR v2)
Copy OK

Track 6

Filename C:\addisisgodflac\06 - The Messengers - Smiling Faces Sometimes.wav

Pre-gap length 0:00:01.69

Peak level 80.5 %
Extraction speed 1.3 X
Track quality 99.9 %
Test CRC C2B341DD
Copy CRC C2B341DD
Accurately ripped (confidence 1) [99502888] (AR v2)
Copy OK

Track 7

Filename C:\addisisgodflac\07 - The Messengers - Sherry.wav

Pre-gap length 0:00:01.74

Peak level 97.3 %
Extraction speed 1.6 X
Track quality 100.0 %
Test CRC F6700C42
Copy CRC F6700C42
Accurately ripped (confidence 1) [280C8F8F] (AR v2)
Copy OK

Track 8

Filename C:\addisisgodflac\08 - The Now Generation - Mother Mary.wav

Pre-gap length 0:00:01.69

Peak level 85.0 %
Extraction speed 1.5 X
Track quality 99.9 %
Test CRC 2AFCBA3A
Copy CRC 2AFCBA3A
Accurately ripped (confidence 1) [BC79A066] (AR v2)
Copy OK

Track 9

Filename C:\addisisgodflac\09 - Lloyd Charmers - Loving Her Was Easier.wav

Pre-gap length 0:00:01.72

Peak level 91.9 %
Extraction speed 1.8 X
Track quality 100.0 %
Test CRC FBE0F5F7
Copy CRC FBE0F5F7
Accurately ripped (confidence 1) [C2D7C694] (AR v2)
Copy OK

Track 10

Filename C:\addisisgodflac\10 - Lloyd Charmers - I'm Gonna Love You Just A Little More.wav

Pre-gap length 0:00:01.74

Peak level 97.7 %
Extraction speed 1.8 X
Track quality 100.0 %
Test CRC 33B154C7
Copy CRC 33B154C7
Accurately ripped (confidence 1) [FC0B5DEA] (AR v2)
Copy OK

Track 11

Filename C:\addisisgodflac\11 - Busty Brown - Just As Long As You Need Me.wav

Pre-gap length 0:00:01.72

Peak level 97.7 %
Extraction speed 1.9 X
Track quality 100.0 %
Test CRC 67423AF8
Copy CRC 67423AF8
Accurately ripped (confidence 1) [FE2F8E86] (AR v2)
Copy OK

Track 12

Filename C:\addisisgodflac\12 - Bobby Blue - Doggone Right.wav

Pre-gap length 0:00:01.71

Peak level 69.6 %
Extraction speed 2.0 X
Track quality 100.0 %
Test CRC B5169D10
Copy CRC B5169D10
Accurately ripped (confidence 1) [477C0173] (AR v2)
Copy OK

Track 13

Filename C:\addisisgodflac\13 - Busty Brown - I Love You Madly.wav

Pre-gap length 0:00:02.00

Peak level 79.5 %
Extraction speed 2.0 X
Track quality 100.0 %
Test CRC 22EABFE8
Copy CRC 22EABFE8
Accurately ripped (confidence 1) [DED2B540] (AR v2)
Copy OK

Track 14

Filename C:\addisisgodflac\14 - Lloyd Charmers - Going In Circles.wav

Pre-gap length 0:00:02.04

Peak level 97.7 %
Extraction speed 2.1 X
Track quality 100.0 %
Test CRC 85449324
Copy CRC 85449324
Accurately ripped (confidence 1) [F89CE8AC] (AR v2)
Copy OK

Track 15

Filename C:\addisisgodflac\15 - Bob Andy - Since I Lost My Baby.wav

Pre-gap length 0:00:01.69

Peak level 88.2 %
Extraction speed 2.0 X
Track quality 100.0 %
Test CRC B98BD276
Copy CRC B98BD276
Accurately ripped (confidence 1) [07F37C52] (AR v2)
Copy OK

Track 16

Filename C:\addisisgodflac\16 - Bob Andy - Baby I Need Your Loving.wav

Pre-gap length 0:00:02.11

Peak level 92.1 %
Extraction speed 2.1 X
Track quality 100.0 %
Test CRC 6F7B2FAF
Copy CRC 6F7B2FAF
Accurately ripped (confidence 1) [B7CBD9AA] (AR v2)
Copy OK

Track 17

Filename C:\addisisgodflac\17 - Dave Barker & The Charmers - Just My Imagination.wav

Pre-gap length 0:00:02.10

Peak level 97.7 %
Extraction speed 2.2 X
Track quality 100.0 %
Test CRC 79B1DC78
Copy CRC 79B1DC78
Accurately ripped (confidence 1) [2683DAD9] (AR v2)
Copy OK

Track 18

Filename C:\addisisgodflac\18 - The Chosen Few - Stoned In Love.wav

Pre-gap length 0:00:01.69

Peak level 97.7 %
Extraction speed 2.3 X
Track quality 100.0 %
Test CRC 4A42F2C0
Copy CRC 4A42F2C0
Accurately ripped (confidence 1) [93D01783] (AR v2)
Copy OK

Track 19

Filename C:\addisisgodflac\19 - Scotty - Salvation Train.wav

Pre-gap length 0:00:01.73

Peak level 83.1 %
Extraction speed 2.4 X
Track quality 100.0 %
Test CRC BA49A290
Copy CRC BA49A290
Accurately ripped (confidence 1) [95787BA1] (AR v2)
Copy OK

Track 20

Filename C:\addisisgodflac\20 - Lloyd Charmers - Have I Sinned.wav

Pre-gap length 0:00:01.73

Peak level 97.7 %
Extraction speed 2.3 X
Track quality 100.0 %
Test CRC 6BC41CCA
Copy CRC 6BC41CCA
Accurately ripped (confidence 1) [366BE3FB] (AR v2)
Copy OK

Track 21

Filename C:\addisisgodflac\21 - The Chosen Few - Children Of The Night.wav

Pre-gap length 0:00:01.69

Peak level 97.6 %
Extraction speed 2.5 X
Track quality 100.0 %
Test CRC A91C5DBB
Copy CRC A91C5DBB
Accurately ripped (confidence 1) [18A8E51E] (AR v2)
Copy OK

Track 22

Filename C:\addisisgodflac\22 - Ken Parker - Take A Message To Mary.wav

Pre-gap length 0:00:01.67

Peak level 66.8 %
Extraction speed 2.5 X
Track quality 100.0 %
Test CRC 847232B6
Copy CRC 847232B6
Accurately ripped (confidence 1) [EBAB0EC8] (AR v2)
Copy OK

Track 23

Filename C:\addisisgodflac\23 - Lloyd Charmers & Hortense Ellis - You Are Everything.wav

Pre-gap length 0:00:01.71

Peak level 97.7 %
Extraction speed 2.4 X
Track quality 100.0 %
Test CRC AF6E87B9
Copy CRC AF6E87B9
Accurately ripped (confidence 1) [DAECDB06] (AR v2)
Copy OK

Track 24

Filename C:\addisisgodflac\24 - The Chosen Few - It's Too Late.wav

Pre-gap length 0:00:01.71

Peak level 97.7 %
Extraction speed 2.6 X
Track quality 100.0 %
Test CRC C902C1D0
Copy CRC C902C1D0
Accurately ripped (confidence 1) [4A07E18B] (AR v2)
Copy OK


All tracks accurately ripped

No errors occurred

End of status report

–– CUETools DB Plugin V2.1.6

[CTDB TOCID: bqnNjMd9ajTJkiNooEiYYDzl564-] found
Submit result: bqnNjMd9ajTJkiNooEiYYDzl564- has been confirmed
Track | CTDB Status
1 | (1/1) Accurately ripped
2 | (1/1) Accurately ripped
3 | (1/1) Accurately ripped
4 | (1/1) Accurately ripped
5 | (1/1) Accurately ripped
6 | (1/1) Accurately ripped
7 | (1/1) Accurately ripped
8 | (1/1) Accurately ripped
9 | (1/1) Accurately ripped
10 | (1/1) Accurately ripped
11 | (1/1) Accurately ripped
12 | (1/1) Accurately ripped
13 | (1/1) Accurately ripped
14 | (1/1) Accurately ripped
15 | (1/1) Accurately ripped
16 | (1/1) Accurately ripped
17 | (1/1) Accurately ripped
18 | (1/1) Accurately ripped
19 | (1/1) Accurately ripped
20 | (1/1) Accurately ripped
21 | (1/1) Accurately ripped
22 | (1/1) Accurately ripped
23 | (1/1) Accurately ripped
24 | (1/1) Accurately ripped


==== Log checksum 6044927A8065EEBCBDA79B6DEA6C38BA9BA1EE6BBF726A35940C044DC94B61F9 ====


Various Artists - The Best Of Lloyd Charmers (50 Top Reggae Tunes) (2016)  {2CD Trojan Records}

Various Artists - The Best Of Lloyd Charmers (50 Top Reggae Tunes) (2016)  {2CD Trojan Records}


All thanks goes to the original releaser!

===