Subcategories

VA - Too Slow To Disco Vol.3 (2017)

Posted By: delpotro
VA - Too Slow To Disco Vol.3 (2017)

VA - Too Slow To Disco Vol.3 (2017)
EAC Rip | FLAC (tracks+log+.cue) | 01:08:24 | 468 Mb
Disco, Funk | Label: How Do You Are?

Think of it as smoothness for a tense world. Glorious, even shameless, musicianship from before computers replaced real players in the studio. Another amazing collection of songs by the most talented back-room gals and guys. DJ Supermarkt’s mission remains the same: to excavate some of the finest lost songs from the recording business’s imperial phase. From groovesome to mellow, sinful to spiritually yearning, all of these tunes deserve a second chance at the limelight.

As ever, DJ Supermarkt has somehow prised open another box of obscure gems. The focus remains on slightly difficult love affairs set to grooves gentle enough to mix cocktails to. This is the sound of jazz-tinged regrets and sun-drenched positivity, from incredible musicians who nailed the songs, even if they weren’t all quite so ready for fame.

We’ve got an accidental pop hit crossover from none-more-fusion jazz guitarist Lee Ritenour. A dab of Christian funk from Archie Cavanaugh and his troupe. You’ll even find a bizarrely commercial sounding Grateful Dead laying down the chart-bothering beat of ‘Shakedown Street’ (we assume the A+R guy had a gun; certainly it took DJ Supermarkt about four years to prise the rights from Dead headquarters). Steely Dan’s go-to sax man, Cornelius Bumpus makes an appearance with some angular funk, while Larry Carlton (another associate of Don and Walter) turns up the guitar drenched white soul on ‘Where did you come from?’.

And we’ve looked beyond L.A. this time, discovering a few exotic exponents of the West Coast sound from more distant shores. Our first non-English sung TSTD track comes in the shape of Dwight Druick, legendary Canadian songwriter, delivering a fine slice of ‘Montrealian’ disco-funk. Then there’s the groovesome Stars’n’Bars from Sweden (in its first ever official re-release), and even one from the UK’s Billy Mernit, with a lush torch song we’ve been desperately chasing for years.

And given 2016’s sad legacy of musical departures, Too Slow to Disco has also become something of a fitting tribute to this wonderful generation of melodic dreamers and talented instrumentalists. Valerie Carter who appeared on 2016’s The Ladies of Too Slow To Disco passed away recently, as did Maurice White (Earth Wind and Fire), who signed her to his label. Also gone are Glenn Frey of The Eagles and Rod Temperton, the incredible writer and producer behind Thriller and many other songs that have graced all 3 volumes of Too Slow… Their music lives on though, as influential as ever.

So we present Too Slow to Disco – Volume 3… Bottled sunshine and musical chic, from back when the most orange thing about America was the California sunset.
Tracklist:
01. LEE RITENOUR - Is It You?
02. BOB WELCH - Don’t Let Me Fall
03. PRATT & MCCLAIN - Whachersign (Extended Version)
04. THE CORNELIUS BUMPUS QUARTET - Inside You
05. DAVID GATES - Silky
06. WELDON IRVINE - I Love You
07. THE MARKLEY BAND - Fallin’ In Love
08. VAPOUR TRAILS - Do The Bossa Nova
09. THE FIFTH AVENUE BAND - One Way Or Another
10. MARK CAPANNI - I Believe In Miracles
11. GRATEFUL DEAD - Shakedown Street
12. DWIGHT DRUICK - Quand Tu Te Laisse Aller
13. ARCHIE JAMES CAVANAUGH - Take It Easy
14. ROB MEHL - Taste And See
15. LARRY CARLTON - Where Did You Come From
16. JEREMY SPENCER BAND - Cool Breeze
17. STARS ’N’ BARS - Stars And Bars
18. BILLY MERNIT - Special Delivery

Exact Audio Copy V1.3 from 2. September 2016

EAC extraction logfile from 11. July 2017, 11:34

Various Artists / Too Slow To Disco - Vol. 3

Used drive : HL-DT-STDVDRAM GP60NS50 Adapter: 1 ID: 0

Read mode : Secure
Utilize accurate stream : Yes
Defeat audio cache : Yes
Make use of C2 pointers : No

Read offset correction : 6
Overread into Lead-In and Lead-Out : No
Fill up missing offset samples with silence : Yes
Delete leading and trailing silent blocks : No
Null samples used in CRC calculations : Yes
Used interface : Native Win32 interface for Win NT & 2000
Gap handling : Appended to previous track

Used output format : User Defined Encoder
Selected bitrate : 128 kBit/s
Quality : High
Add ID3 tag : No
Command line compressor : C:\Program Files (x86)\Exact Audio Copy\Flac\flac.exe
Additional command line options : -8 -e -V -T "ARTIST=%artist%" -T "TITLE=%title%" -T "ALBUM=%albumtitle%" -T "DATE=%year%" -T "TRACKNUMBER=%tracknr%" -T "GENRE=%genre%" -T "PERFORMER=%albuminterpret%" -T "COMPOSER=%composer%" %haslyrics%–tag-from-file=LYRICS="%lyricsfile%"%haslyrics% -T "ALBUMARTIST=%albumartist%" -T "DISCNUMBER=%cdnumber%" -T "TOTALDISCS=%totalcds%" -T "TOTALTRACKS=%numtracks%" -T "COMMENT=%comment%" %source% -o %dest%


TOC of the extracted CD

Track | Start | Length | Start sector | End sector
––––––––––––––––––––––––––––-
1 | 0:00.00 | 4:18.11 | 0 | 19360
2 | 4:18.11 | 3:14.25 | 19361 | 33935
3 | 7:32.36 | 5:54.41 | 33936 | 60526
4 | 13:27.02 | 6:37.61 | 60527 | 90362
5 | 20:04.63 | 2:38.29 | 90363 | 102241
6 | 22:43.17 | 3:02.16 | 102242 | 115907
7 | 25:45.33 | 3:25.70 | 115908 | 131352
8 | 29:11.28 | 3:04.20 | 131353 | 145172
9 | 32:15.48 | 2:28.48 | 145173 | 156320
10 | 34:44.21 | 3:02.20 | 156321 | 169990
11 | 37:46.41 | 4:41.66 | 169991 | 191131
12 | 42:28.32 | 3:53.45 | 191132 | 208651
13 | 46:22.02 | 3:03.48 | 208652 | 222424
14 | 49:25.50 | 3:27.31 | 222425 | 237980
15 | 52:53.06 | 3:24.37 | 237981 | 253317
16 | 56:17.43 | 3:30.53 | 253318 | 269120
17 | 59:48.21 | 4:23.74 | 269121 | 288919
18 | 64:12.20 | 4:12.01 | 288920 | 307820


Track 1

Filename C:\Staging\Too Slow To Disco - Vol. 3\01 - Lee Ritenour - Is It You.wav

Pre-gap length 0:00:02.00

Peak level 98.3 %
Extraction speed 2.7 X
Track quality 100.0 %
Test CRC 1A1F3626
Copy CRC 1A1F3626
Track not present in AccurateRip database
Copy OK

Track 2

Filename C:\Staging\Too Slow To Disco - Vol. 3\02 - Bob Welch - Don't Let Me Fall.wav

Peak level 98.3 %
Extraction speed 2.8 X
Track quality 100.0 %
Test CRC B3464769
Copy CRC B3464769
Track not present in AccurateRip database
Copy OK

Track 3

Filename C:\Staging\Too Slow To Disco - Vol. 3\03 - Pratt & McClain - Whachersign (Extended Version).wav

Peak level 98.3 %
Extraction speed 2.9 X
Track quality 99.9 %
Test CRC E8553717
Copy CRC E8553717
Track not present in AccurateRip database
Copy OK

Track 4

Filename C:\Staging\Too Slow To Disco - Vol. 3\04 - The Cornelius Bumpus Quartet - Inside You.wav

Peak level 98.2 %
Extraction speed 3.7 X
Track quality 100.0 %
Test CRC 6D33A998
Copy CRC 6D33A998
Track not present in AccurateRip database
Copy OK

Track 5

Filename C:\Staging\Too Slow To Disco - Vol. 3\05 - David Gates - Silky.wav

Peak level 98.3 %
Extraction speed 2.8 X
Track quality 99.9 %
Test CRC 0BB11652
Copy CRC 0BB11652
Track not present in AccurateRip database
Copy OK

Track 6

Filename C:\Staging\Too Slow To Disco - Vol. 3\06 - Weldon Irvine - I Love You.wav

Peak level 98.3 %
Extraction speed 3.7 X
Track quality 100.0 %
Test CRC 168144B3
Copy CRC 168144B3
Track not present in AccurateRip database
Copy OK

Track 7

Filename C:\Staging\Too Slow To Disco - Vol. 3\07 - The Markley Band - Fallin' In Love.wav

Peak level 98.3 %
Extraction speed 3.8 X
Track quality 100.0 %
Test CRC D98E9DD6
Copy CRC D98E9DD6
Track not present in AccurateRip database
Copy OK

Track 8

Filename C:\Staging\Too Slow To Disco - Vol. 3\08 - Vapour Trails - Do The Bossa Nova.wav

Peak level 98.3 %
Extraction speed 3.2 X
Track quality 99.9 %
Test CRC 8BE96D60
Copy CRC 8BE96D60
Track not present in AccurateRip database
Copy OK

Track 9

Filename C:\Staging\Too Slow To Disco - Vol. 3\09 - The Fifth Avenue Band - One Way Or Another.wav

Peak level 98.2 %
Extraction speed 3.8 X
Track quality 100.0 %
Test CRC 38FA0684
Copy CRC 38FA0684
Track not present in AccurateRip database
Copy OK

Track 10

Filename C:\Staging\Too Slow To Disco - Vol. 3\10 - Mark Capanni - I Believe In Miracles.wav

Pre-gap length 0:00:00.66

Peak level 98.3 %
Extraction speed 3.4 X
Track quality 99.9 %
Test CRC E4C4FCF3
Copy CRC E4C4FCF3
Track not present in AccurateRip database
Copy OK

Track 11

Filename C:\Staging\Too Slow To Disco - Vol. 3\11 - Grateful Dead - Shakedown Street.wav

Peak level 98.3 %
Extraction speed 4.0 X
Track quality 99.9 %
Test CRC F695F224
Copy CRC F695F224
Track not present in AccurateRip database
Copy OK

Track 12

Filename C:\Staging\Too Slow To Disco - Vol. 3\12 - Dwight Druick - Quand Tu Te Laisse Aller.wav

Peak level 98.3 %
Extraction speed 4.6 X
Track quality 100.0 %
Test CRC 71F3BE0E
Copy CRC 71F3BE0E
Track not present in AccurateRip database
Copy OK

Track 13

Filename C:\Staging\Too Slow To Disco - Vol. 3\13 - Archie James Cavanaugh - Take It Easy.wav

Peak level 98.3 %
Extraction speed 4.6 X
Track quality 100.0 %
Test CRC AF1B8EE2
Copy CRC AF1B8EE2
Track not present in AccurateRip database
Copy OK

Track 14

Filename C:\Staging\Too Slow To Disco - Vol. 3\14 - Rob Mehl - Taste And See.wav

Peak level 98.3 %
Extraction speed 4.8 X
Track quality 100.0 %
Test CRC D165001A
Copy CRC D165001A
Track not present in AccurateRip database
Copy OK

Track 15

Filename C:\Staging\Too Slow To Disco - Vol. 3\15 - Larry Carlton - Where Did You Come From.wav

Peak level 98.3 %
Extraction speed 4.0 X
Track quality 99.9 %
Test CRC 9F7A1332
Copy CRC 9F7A1332
Track not present in AccurateRip database
Copy OK

Track 16

Filename C:\Staging\Too Slow To Disco - Vol. 3\16 - Jeremy Spencer Band - Cool Breeze.wav

Peak level 98.3 %
Extraction speed 5.0 X
Track quality 100.0 %
Test CRC 15D0A406
Copy CRC 15D0A406
Track not present in AccurateRip database
Copy OK

Track 17

Filename C:\Staging\Too Slow To Disco - Vol. 3\17 - Stars 'N' Bars - Stars And Bars.wav

Peak level 98.3 %
Extraction speed 5.3 X
Track quality 100.0 %
Test CRC 57958127
Copy CRC 57958127
Track not present in AccurateRip database
Copy OK

Track 18

Filename C:\Staging\Too Slow To Disco - Vol. 3\18 - Billy Mernit - Special Delivery.wav

Peak level 98.3 %
Extraction speed 4.5 X
Track quality 99.9 %
Test CRC D36D4137
Copy CRC D36D4137
Track not present in AccurateRip database
Copy OK


None of the tracks are present in the AccurateRip database

No errors occurred

End of status report

–– CUETools DB Plugin V2.1.6

[CTDB TOCID: A2ZpD165yJj3z9f0qCgG9qcT5ok-] found
Submit result: A2ZpD165yJj3z9f0qCgG9qcT5ok- has been confirmed
Track | CTDB Status
1 | (5/5) Accurately ripped
2 | (5/5) Accurately ripped
3 | (5/5) Accurately ripped
4 | (5/5) Accurately ripped
5 | (5/5) Accurately ripped
6 | (5/5) Accurately ripped
7 | (5/5) Accurately ripped
8 | (5/5) Accurately ripped
9 | (5/5) Accurately ripped
10 | (5/5) Accurately ripped
11 | (5/5) Accurately ripped
12 | (5/5) Accurately ripped
13 | (5/5) Accurately ripped
14 | (5/5) Accurately ripped
15 | (5/5) Accurately ripped
16 | (5/5) Accurately ripped
17 | (5/5) Accurately ripped
18 | (5/5) Accurately ripped


==== Log checksum D6C58CB1DCB16F03C59763D0C4D2C572B06AE1DE8AC23DDA71E0C7B03C9DCCDD ====

Thanks to the Original ripper !