Subcategories

VA - I-Robots: Turin Dancefloor Express (70's - 80's Piedmont Area Italo Rare Grooves, Disco And Not Disco Sounds) (2017)

Posted By: delpotro
VA - I-Robots: Turin Dancefloor Express (70's - 80's Piedmont Area Italo Rare Grooves, Disco And Not Disco Sounds) (2017)

VA - I-Robots: Turin Dancefloor Express (70's - 80's Piedmont Area Italo Rare Grooves, Disco And Not Disco Sounds) (2017)
EAC Rip | FLAC (tracks+log+.cue) - 913 Mb | MP3 CBR 320 kbps - 354 Mb | 02:34:25
Disco, Italo-Disco, Synthpop, New Wave | Label: Opilec Music

Opilec Music is back with another treasure trove of music that outlines how important Turin and the Piedmont area was to the development of electronic and dance music in the 70s and 80s and beyond. This compilation has been expertly put together by Opilec Music boss, I-Robots, from his own experiences as a DJ and collector and from time spent digging in archives, old collections and anywhere else he could. It marks the start of a new series and is the latest in a long line of such projects he has worked on before now.

The 2 x CD package will be supported by a big launch event in November at The Beach in Turin, and features fine artwork depicting the Monorail Alweg issued from the Photo Archives of the City Of Turin. This expansive collection makes for a fascinating musical story and proves that in the 70s and 80s, the influences of Afro-American music and Kraftwerk electronics as well as Krautrock massively stimulated artists from Piedmont, who in turn began to influence the entire national scene with what would be then called ltalo disco, only for it later to turn into Chicago house and Detroit techno over in the US. Fittingly enough, because FIAT is located there, Turin is known as Italy's Motor City, so this adds another nice layer of circularity.

Interestingly, many of the tunes from this period were made by live bands until DJs and producers took over and the CD market started to boom. Along the way this shines through and many seminal artists are included, with the music ranging from psychedelic funk to neo r&b to soul, disco, beat, afro, rock and pop and so much more. The tunes are all high tempo and hugely musical, with classic synth sounds and weird vocals, rare grooves and cosmic oddities all helping to colour the trip.

This is one for DJs and dancers but also collectors and musical historians who are keen to learn more about a vital but little talked about time in the development of electronic music
Tracklist:
Disc 1
1. La Strana Società – Pop Corn (02:34)
2. Stratosferic Band – Splashdown (7" Version) (03:38)
3. Massimo Bizzo – Christine (03:46)
4. Oxid – Oxid Trail (03:53)
5. La Nuova Formula – Direttissimo Torino Milano (03:58)
6. Kitrà – Hotel De La Plage (03:38)
7. Little Lucy And The All Stars – What Are You Doing? (06:30)
8. Music One – Musicone (Part 1) (01:01)
9. Cometa Music Hall – Cometa Music Hall (02:32)
10. Don Bernini – Whirlwind (05:11)
11. Captain Torkive – Krypton (03:17)
12. Ben Norman – Got To Be (7" Version) (03:44)
13. Carlotto – Come With Me (03:55)
14. Gianfracasso Ensemble – Music On My Mind (03:53)
15. M'Bamina – N'Zoumba (Album Version) (03:53)
16. Giulio Camarca & Trinidad – Birimbao (05:24)
17. Drums Music Show – Samedi Soir (03:54)
18. The Boston Garden – Lady Pick-Up (02:52)
19. Joe "Spitfire" Nicosia & C. Industria Musicale – Cobra Sound (03:32)
20. G.B. Golden System – Shaba Dab (Instrumental) (03:50)

Disc 2
1. Johnson Righeira – Vamos A La Playa (1981 Original Demo Version) (04:08)
2. Phaeax – Talk About (7" Version) (04:31)
3. Jan Demis – Preludio (05:14)
4. Mc4 – Gow Dance (03:54)
5. Carmody – Messengers Of Love (04:57)
6. Bagarre – Lemonsweet (1985 Album Version) (07:05)
7. Spooky – Coffee Train (1980 Unreleased Vocoder Version) (03:30)
8. Music One – Solon (Part 6) (00:43)
9. Ego Neco – You + I ? (Vocal) (06:17)
10. Italo Monitor – Balla Marinetti (Der Mussolini) (1981 Unreleased Demo) (03:57)
11. Sintesi – Tenax (1984 Unreleased Demo) (03:13)
12. Monuments – S.A.L.T. (1981 Original Version) (03:37)
13. Tommy De Chirico – Tuxedo Dance (1983 Original Version) (04:01)
14. Trans Middle Point – Action (Instrumental) (04:06)
15. Art Fine – Dark Silence (Art Fine Version) (06:27)
16. Streisands – Fine & Fine (Version) (06:20)
17. Zauber – S.O.S. (04:17)
18. Clamour – Inside My Mind (1983 Unreleased Demo) (02:54)

Exact Audio Copy V1.3 from 2. September 2016

EAC extraction logfile from 9. June 2018, 1:47

I-Robots / Turin Dancefloor Express

Used drive : hp DVD RW AD-7701H Adapter: 1 ID: 0

Read mode : Secure
Utilize accurate stream : Yes
Defeat audio cache : Yes
Make use of C2 pointers : No

Read offset correction : 48
Overread into Lead-In and Lead-Out : No
Fill up missing offset samples with silence : Yes
Delete leading and trailing silent blocks : No
Null samples used in CRC calculations : Yes
Used interface : Native Win32 interface for Win NT & 2000
Gap handling : Appended to previous track

Used output format : Microsoft PCM Converter
Sample format : 44,100 kHz; 16 Bit; Stereo


TOC of the extracted CD

Track | Start | Length | Start sector | End sector
––––––––––––––––––––––––––––-
1 | 0:00.00 | 2:34.58 | 0 | 11607
2 | 2:34.58 | 3:38.66 | 11608 | 28023
3 | 6:13.49 | 3:46.37 | 28024 | 45010
4 | 10:00.11 | 3:53.02 | 45011 | 62487
5 | 13:53.13 | 3:58.29 | 62488 | 80366
6 | 17:51.42 | 3:38.45 | 80367 | 96761
7 | 21:30.12 | 6:30.06 | 96762 | 126017
8 | 28:00.18 | 1:01.19 | 126018 | 130611
9 | 29:01.37 | 2:32.10 | 130612 | 142021
10 | 31:33.47 | 5:11.61 | 142022 | 165407
11 | 36:45.33 | 3:17.48 | 165408 | 180230
12 | 40:03.06 | 3:44.30 | 180231 | 197060
13 | 43:47.36 | 3:55.37 | 197061 | 214722
14 | 47:42.73 | 3:53.33 | 214723 | 232230
15 | 51:36.31 | 3:53.36 | 232231 | 249741
16 | 55:29.67 | 5:24.29 | 249742 | 274070
17 | 60:54.21 | 3:54.64 | 274071 | 291684
18 | 64:49.10 | 2:52.46 | 291685 | 304630
19 | 67:41.56 | 3:32.72 | 304631 | 320602
20 | 71:14.53 | 3:50.55 | 320603 | 337907


Track 1

Filename C:\EAC RIPS\I-Robots - Turin Dancefloor Express\CD1\01 Pop Corn.wav

Pre-gap length 0:00:02.00

Peak level 98.7 %
Extraction speed 2.7 X
Track quality 100.0 %
Test CRC A2DD31BB
Copy CRC A2DD31BB
Accurately ripped (confidence 1) [B8641B04] (AR v2)
Copy OK

Track 2

Filename C:\EAC RIPS\I-Robots - Turin Dancefloor Express\CD1\02 Splashdown (7'' Version).wav

Pre-gap length 0:00:00.74

Peak level 99.7 %
Extraction speed 3.1 X
Track quality 100.0 %
Test CRC 9384CFCD
Copy CRC 9384CFCD
Accurately ripped (confidence 1) [D8867CA6] (AR v2)
Copy OK

Track 3

Filename C:\EAC RIPS\I-Robots - Turin Dancefloor Express\CD1\03 Christine.wav

Pre-gap length 0:00:00.74

Peak level 99.7 %
Extraction speed 3.3 X
Track quality 100.0 %
Test CRC B947A989
Copy CRC B947A989
Accurately ripped (confidence 1) [39A60967] (AR v2)
Copy OK

Track 4

Filename C:\EAC RIPS\I-Robots - Turin Dancefloor Express\CD1\04 Oxid Trail.wav

Pre-gap length 0:00:00.74

Peak level 99.7 %
Extraction speed 3.0 X
Track quality 99.9 %
Test CRC 68F7E8ED
Copy CRC 68F7E8ED
Accurately ripped (confidence 1) [7CD3664D] (AR v2)
Copy OK

Track 5

Filename C:\EAC RIPS\I-Robots - Turin Dancefloor Express\CD1\05 Direttissimo Torino Milano.wav

Pre-gap length 0:00:00.74

Peak level 99.4 %
Extraction speed 3.2 X
Track quality 99.9 %
Test CRC 2AA90940
Copy CRC 2AA90940
Accurately ripped (confidence 1) [77B10199] (AR v2)
Copy OK

Track 6

Filename C:\EAC RIPS\I-Robots - Turin Dancefloor Express\CD1\06 Hotel De La Plage.wav

Pre-gap length 0:00:00.74

Peak level 99.7 %
Extraction speed 4.0 X
Track quality 100.0 %
Test CRC 8450DDB9
Copy CRC 8450DDB9
Accurately ripped (confidence 1) [299A1146] (AR v2)
Copy OK

Track 7

Filename C:\EAC RIPS\I-Robots - Turin Dancefloor Express\CD1\07 What Are You Doing.wav

Pre-gap length 0:00:00.74

Peak level 99.7 %
Extraction speed 4.1 X
Track quality 99.9 %
Test CRC 559B23C8
Copy CRC 559B23C8
Accurately ripped (confidence 1) [8949685F] (AR v2)
Copy OK

Track 8

Filename C:\EAC RIPS\I-Robots - Turin Dancefloor Express\CD1\08 Musicone (Part 1).wav

Pre-gap length 0:00:00.74

Peak level 99.7 %
Extraction speed 3.2 X
Track quality 100.0 %
Test CRC 725BB78A
Copy CRC 725BB78A
Accurately ripped (confidence 1) [F5660D09] (AR v2)
Copy OK

Track 9

Filename C:\EAC RIPS\I-Robots - Turin Dancefloor Express\CD1\09 Cometa Music Hall.wav

Pre-gap length 0:00:00.74

Peak level 99.7 %
Extraction speed 4.3 X
Track quality 100.0 %
Test CRC 6942B9BD
Copy CRC 6942B9BD
Accurately ripped (confidence 1) [6C144347] (AR v2)
Copy OK

Track 10

Filename C:\EAC RIPS\I-Robots - Turin Dancefloor Express\CD1\10 Whirlwind.wav

Pre-gap length 0:00:00.74

Peak level 99.9 %
Extraction speed 4.9 X
Track quality 100.0 %
Test CRC 23A9FBC5
Copy CRC 23A9FBC5
Accurately ripped (confidence 1) [7D7EF75D] (AR v2)
Copy OK

Track 11

Filename C:\EAC RIPS\I-Robots - Turin Dancefloor Express\CD1\11 Krypton.wav

Pre-gap length 0:00:00.74

Peak level 100.0 %
Extraction speed 4.8 X
Track quality 100.0 %
Test CRC D904CD2B
Copy CRC D904CD2B
Accurately ripped (confidence 1) [3244CA25] (AR v2)
Copy OK

Track 12

Filename C:\EAC RIPS\I-Robots - Turin Dancefloor Express\CD1\12 Got To Be (7'' Version).wav

Pre-gap length 0:00:00.74

Peak level 99.7 %
Extraction speed 4.2 X
Track quality 99.9 %
Test CRC 1F9FB2D1
Copy CRC 1F9FB2D1
Accurately ripped (confidence 1) [A42D7B11] (AR v2)
Copy OK

Track 13

Filename C:\EAC RIPS\I-Robots - Turin Dancefloor Express\CD1\13 Come With Me.wav

Pre-gap length 0:00:00.74

Peak level 99.7 %
Extraction speed 5.2 X
Track quality 100.0 %
Test CRC 45FAFC68
Copy CRC 45FAFC68
Accurately ripped (confidence 1) [223CFA85] (AR v2)
Copy OK

Track 14

Filename C:\EAC RIPS\I-Robots - Turin Dancefloor Express\CD1\14 Music On My Mind.wav

Pre-gap length 0:00:00.74

Peak level 99.7 %
Extraction speed 5.4 X
Track quality 100.0 %
Test CRC 3DC192C0
Copy CRC 3DC192C0
Accurately ripped (confidence 1) [0F3E6A87] (AR v2)
Copy OK

Track 15

Filename C:\EAC RIPS\I-Robots - Turin Dancefloor Express\CD1\15 N'Zoumba (Album Version).wav

Pre-gap length 0:00:00.74

Peak level 99.7 %
Extraction speed 5.5 X
Track quality 100.0 %
Test CRC BB4FD0DA
Copy CRC BB4FD0DA
Accurately ripped (confidence 1) [447B58FD] (AR v2)
Copy OK

Track 16

Filename C:\EAC RIPS\I-Robots - Turin Dancefloor Express\CD1\16 Birimbao.wav

Pre-gap length 0:00:00.74

Peak level 98.7 %
Extraction speed 5.1 X
Track quality 99.9 %
Test CRC AFA8B36F
Copy CRC AFA8B36F
Accurately ripped (confidence 1) [EDADBBB0] (AR v2)
Copy OK

Track 17

Filename C:\EAC RIPS\I-Robots - Turin Dancefloor Express\CD1\17 Samedi Soir.wav

Pre-gap length 0:00:00.74

Peak level 99.7 %
Extraction speed 5.8 X
Track quality 100.0 %
Test CRC AEBF0931
Copy CRC AEBF0931
Accurately ripped (confidence 1) [570DF90F] (AR v2)
Copy OK

Track 18

Filename C:\EAC RIPS\I-Robots - Turin Dancefloor Express\CD1\18 Lady Pick-Up.wav

Pre-gap length 0:00:00.74

Peak level 99.7 %
Extraction speed 4.5 X
Track quality 99.9 %
Test CRC 12EA4407
Copy CRC 12EA4407
Accurately ripped (confidence 1) [9F020906] (AR v2)
Copy OK

Track 19

Filename C:\EAC RIPS\I-Robots - Turin Dancefloor Express\CD1\19 Cobra Sound.wav

Pre-gap length 0:00:00.74

Peak level 99.7 %
Extraction speed 6.0 X
Track quality 100.0 %
Test CRC 0B9B7AA1
Copy CRC 0B9B7AA1
Accurately ripped (confidence 1) [154BB201] (AR v2)
Copy OK

Track 20

Filename C:\EAC RIPS\I-Robots - Turin Dancefloor Express\CD1\20 Shaba Dab (Instrumental).wav

Pre-gap length 0:00:00.74

Peak level 99.7 %
Extraction speed 5.2 X
Track quality 99.9 %
Test CRC 93DF3B1E
Copy CRC 93DF3B1E
Accurately ripped (confidence 1) [6E69BEA5] (AR v2)
Copy OK


All tracks accurately ripped

No errors occurred

End of status report

–– CUETools DB Plugin V2.1.6

[CTDB TOCID: eYq5O0CGgotaXV7QApP__tgCrBs-] found
Submit result: eYq5O0CGgotaXV7QApP__tgCrBs- has been confirmed
Track | CTDB Status
1 | (2/2) Accurately ripped
2 | (2/2) Accurately ripped
3 | (2/2) Accurately ripped
4 | (2/2) Accurately ripped
5 | (2/2) Accurately ripped
6 | (2/2) Accurately ripped
7 | (2/2) Accurately ripped
8 | (2/2) Accurately ripped
9 | (2/2) Accurately ripped
10 | (2/2) Accurately ripped
11 | (2/2) Accurately ripped
12 | (2/2) Accurately ripped
13 | (2/2) Accurately ripped
14 | (2/2) Accurately ripped
15 | (2/2) Accurately ripped
16 | (2/2) Accurately ripped
17 | (2/2) Accurately ripped
18 | (2/2) Accurately ripped
19 | (2/2) Accurately ripped
20 | (2/2) Accurately ripped


==== Log checksum F2B88506C2970EE9C0EAF6194A6C552B7E8B19813293E485D39CFE81CE9A0AC7 ====

Exact Audio Copy V1.3 from 2. September 2016

EAC extraction logfile from 11. June 2018, 14:23

I Robots / Turin Dancefloor Express

Used drive : TSSTcorpDVD+-RW TS-L632H Adapter: 1 ID: 1

Read mode : Secure
Utilize accurate stream : Yes
Defeat audio cache : Yes
Make use of C2 pointers : No

Read offset correction : 6
Overread into Lead-In and Lead-Out : No
Fill up missing offset samples with silence : Yes
Delete leading and trailing silent blocks : No
Null samples used in CRC calculations : Yes
Used interface : Native Win32 interface for Win NT & 2000
Gap handling : Appended to previous track

Used output format : Microsoft PCM Converter
Sample format : 44,100 kHz; 16 Bit; Stereo


TOC of the extracted CD

Track | Start | Length | Start sector | End sector
––––––––––––––––––––––––––––-
1 | 0:00.00 | 4:08.49 | 0 | 18648
2 | 4:08.49 | 4:31.59 | 18649 | 39032
3 | 8:40.33 | 5:14.70 | 39033 | 62652
4 | 13:55.28 | 3:54.18 | 62653 | 80220
5 | 17:49.46 | 4:57.55 | 80221 | 102550
6 | 22:47.26 | 7:05.48 | 102551 | 134473
7 | 29:52.74 | 3:30.33 | 134474 | 150256
8 | 33:23.32 | 0:43.36 | 150257 | 153517
9 | 34:06.68 | 6:17.14 | 153518 | 181806
10 | 40:24.07 | 3:57.46 | 181807 | 199627
11 | 44:21.53 | 3:13.30 | 199628 | 214132
12 | 47:35.08 | 3:37.02 | 214133 | 230409
13 | 51:12.10 | 4:01.65 | 230410 | 248549
14 | 55:14.00 | 4:06.35 | 248550 | 267034
15 | 59:20.35 | 6:27.18 | 267035 | 296077
16 | 65:47.53 | 6:20.14 | 296078 | 324591
17 | 72:07.67 | 4:17.30 | 324592 | 343896
18 | 76:25.22 | 2:54.41 | 343897 | 356987


Track 1

Filename C:\EAC RIPS\I-Robots - Turin Dancefloor Express\CD2\01 Vamos A La Playa (1981 Original Demo Version).wav

Pre-gap length 0:00:02.00

Peak level 98.7 %
Extraction speed 0.9 X
Track quality 99.9 %
Test CRC 7BDB2354
Copy CRC 7BDB2354
Accurately ripped (confidence 1) [684B8FDB] (AR v2)
Copy OK

Track 2

Filename C:\EAC RIPS\I-Robots - Turin Dancefloor Express\CD2\02 Talk About (7'' Version).wav

Pre-gap length 0:00:00.74

Peak level 99.7 %
Extraction speed 1.2 X
Track quality 100.0 %
Test CRC 0A1B6FD7
Copy CRC 0A1B6FD7
Accurately ripped (confidence 1) [7D04553A] (AR v2)
Copy OK

Track 3

Filename C:\EAC RIPS\I-Robots - Turin Dancefloor Express\CD2\03 Preludio.wav

Pre-gap length 0:00:00.74

Peak level 99.7 %
Extraction speed 1.3 X
Track quality 100.0 %
Test CRC 7BA20B53
Copy CRC 7BA20B53
Accurately ripped (confidence 1) [70CC4753] (AR v2)
Copy OK

Track 4

Filename C:\EAC RIPS\I-Robots - Turin Dancefloor Express\CD2\04 Gow Dance.wav

Pre-gap length 0:00:00.74

Peak level 99.7 %
Extraction speed 1.3 X
Track quality 100.0 %
Test CRC F0C0DD52
Copy CRC F0C0DD52
Accurately ripped (confidence 1) [5194A809] (AR v2)
Copy OK

Track 5

Filename C:\EAC RIPS\I-Robots - Turin Dancefloor Express\CD2\05 Messengers Of Love.wav

Pre-gap length 0:00:00.74

Peak level 98.7 %
Extraction speed 1.4 X
Track quality 100.0 %
Test CRC C1C26479
Copy CRC C1C26479
Accurately ripped (confidence 1) [CBA5EE15] (AR v2)
Copy OK

Track 6

Filename C:\EAC RIPS\I-Robots - Turin Dancefloor Express\CD2\06 Lemonsweet.wav

Pre-gap length 0:00:00.74

Peak level 99.7 %
Extraction speed 1.6 X
Track quality 100.0 %
Test CRC CDA8294F
Copy CRC CDA8294F
Accurately ripped (confidence 1) [0622E51D] (AR v2)
Copy OK

Track 7

Filename C:\EAC RIPS\I-Robots - Turin Dancefloor Express\CD2\07 Coffee Train (1980 Unreleased Vocoder Version).wav

Pre-gap length 0:00:00.74

Peak level 99.0 %
Extraction speed 1.5 X
Track quality 100.0 %
Test CRC F3EFEBD5
Copy CRC F3EFEBD5
Accurately ripped (confidence 1) [E0FBC683] (AR v2)
Copy OK

Track 8

Filename C:\EAC RIPS\I-Robots - Turin Dancefloor Express\CD2\08 Solon (Part 6).wav

Pre-gap length 0:00:00.74

Peak level 99.7 %
Extraction speed 0.5 X
Track quality 99.7 %
Test CRC 732C5179
Copy CRC 732C5179
Accurately ripped (confidence 1) [E3F035BF] (AR v2)
Copy OK

Track 9

Filename C:\EAC RIPS\I-Robots - Turin Dancefloor Express\CD2\09 You + I (Vocal).wav

Pre-gap length 0:00:00.74

Peak level 100.0 %
Extraction speed 1.7 X
Track quality 100.0 %
Test CRC 23ADE9B5
Copy CRC 23ADE9B5
Accurately ripped (confidence 1) [F549875D] (AR v2)
Copy OK

Track 10

Filename C:\EAC RIPS\I-Robots - Turin Dancefloor Express\CD2\10 Balla Marinetti (Der Mussolini) (1981 Unreleased Demo).wav

Pre-gap length 0:00:00.74

Peak level 99.7 %
Extraction speed 1.6 X
Track quality 100.0 %
Test CRC F650C269
Copy CRC F650C269
Accurately ripped (confidence 1) [7DBFDAD0] (AR v2)
Copy OK

Track 11

Filename C:\EAC RIPS\I-Robots - Turin Dancefloor Express\CD2\11 Tenax (1984 Unreleased Demo).wav

Pre-gap length 0:00:00.74

Peak level 99.7 %
Extraction speed 1.6 X
Track quality 100.0 %
Test CRC B659F7BB
Copy CRC B659F7BB
Accurately ripped (confidence 1) [E190F569] (AR v2)
Copy OK

Track 12

Filename C:\EAC RIPS\I-Robots - Turin Dancefloor Express\CD2\12 S.A.L.T. (1981 Original Version).wav

Pre-gap length 0:00:00.74

Peak level 98.7 %
Extraction speed 1.7 X
Track quality 100.0 %
Test CRC 628E9D9F
Copy CRC 628E9D9F
Accurately ripped (confidence 1) [C2D57D3D] (AR v2)
Copy OK

Track 13

Filename C:\EAC RIPS\I-Robots - Turin Dancefloor Express\CD2\13 Tuxedo Dance (1983 Original Version).wav

Pre-gap length 0:00:00.74

Peak level 98.7 %
Extraction speed 1.7 X
Track quality 100.0 %
Test CRC CCCC49DD
Copy CRC CCCC49DD
Accurately ripped (confidence 1) [59437138] (AR v2)
Copy OK

Track 14

Filename C:\EAC RIPS\I-Robots - Turin Dancefloor Express\CD2\14 Action (Instrumental).wav

Pre-gap length 0:00:00.74

Peak level 99.9 %
Extraction speed 1.8 X
Track quality 100.0 %
Test CRC A912B5F4
Copy CRC A912B5F4
Accurately ripped (confidence 1) [90A58218] (AR v2)
Copy OK

Track 15

Filename C:\EAC RIPS\I-Robots - Turin Dancefloor Express\CD2\15 Dark Silence (Art Fine Version).wav

Pre-gap length 0:00:00.74

Peak level 98.7 %
Extraction speed 1.9 X
Track quality 100.0 %
Test CRC D62E1BC2
Copy CRC D62E1BC2
Accurately ripped (confidence 1) [38AE3880] (AR v2)
Copy OK

Track 16

Filename C:\EAC RIPS\I-Robots - Turin Dancefloor Express\CD2\16 Fine And Fine.wav

Pre-gap length 0:00:00.74

Peak level 99.7 %
Extraction speed 2.0 X
Track quality 100.0 %
Test CRC 8163BC31
Copy CRC 8163BC31
Accurately ripped (confidence 1) [9E3BC675] (AR v2)
Copy OK

Track 17

Filename C:\EAC RIPS\I-Robots - Turin Dancefloor Express\CD2\17 S.O.S..wav

Pre-gap length 0:00:00.74

Peak level 99.7 %
Extraction speed 1.9 X
Track quality 100.0 %
Test CRC 54B12DB9
Copy CRC 54B12DB9
Accurately ripped (confidence 1) [15C0CB63] (AR v2)
Copy OK

Track 18

Filename C:\EAC RIPS\I-Robots - Turin Dancefloor Express\CD2\18 Inside My Mind (1983 Unreleased Demo).wav

Pre-gap length 0:00:00.74

Peak level 99.9 %
Extraction speed 1.8 X
Track quality 100.0 %
Test CRC 320CF296
Copy CRC 320CF296
Accurately ripped (confidence 1) [33828866] (AR v2)
Copy OK


All tracks accurately ripped

No errors occurred

End of status report

–– CUETools DB Plugin V2.1.6

[CTDB TOCID: u7IuoQKi59Xnc.DrfswMGkRNrzM-] found
Submit result: u7IuoQKi59Xnc.DrfswMGkRNrzM- has been confirmed
Track | CTDB Status
1 | (3/3) Accurately ripped
2 | (3/3) Accurately ripped
3 | (3/3) Accurately ripped
4 | (3/3) Accurately ripped
5 | (3/3) Accurately ripped
6 | (3/3) Accurately ripped
7 | (3/3) Accurately ripped
8 | (3/3) Accurately ripped
9 | (3/3) Accurately ripped
10 | (3/3) Accurately ripped
11 | (3/3) Accurately ripped
12 | (3/3) Accurately ripped
13 | (3/3) Accurately ripped
14 | (3/3) Accurately ripped
15 | (3/3) Accurately ripped
16 | (3/3) Accurately ripped
17 | (3/3) Accurately ripped
18 | (3/3) Accurately ripped


==== Log checksum 47B325EABF101ED6018A1CDA837F8D1CD4A5A4E72353A36633FA140D0C60005B ====

Thanks to the Original ripper (Unknown)