Subcategories

Various Artists - The Rough Guide To Unsung Heroes Of Country Blues (2015) {World Music Network RGNET1334CD rec 1926-35}

Posted By: ruskaval
Various Artists - The Rough Guide To Unsung Heroes Of Country Blues (2015) {World Music Network RGNET1334CD rec 1926-35}

Various Artists - The Rough Guide To Unsung Heroes Of Country Blues (2015) {World Music Network RGNET1334CD rec 1926-35}
EAC rip (secure mode) | FLAC (tracks)+CUE+LOG -> 200 Mb | MP3 @320 -> 172 Mb
Full Artwork @ 300 dpi (jpg) -> 10 Mb | 5% repair rar
© 1926-35, 2015 World Music Network / Music Rough Guides | RGNET1334CD
Blues / Country Blues / Pre-War Blues / Early American Blues

On this excellent release from the World Music Network's ever-reliable Rough Guide series, a host of unknown early blues artists get their due. While Robert Johnson, Son House, and a handful of other greats from the 1920s and '30s have become widely recognized icons of the pre-war blues era, so many lesser-known, though no less talented, players have slipped through the cracks. Opening with Henry Thomas' spirited "Fishing Blues" (complete with a pan flute solo), The Rough Guide to Unsung Heroes of Country Blues winds its way through a series of wonderful and obscure country-blues gems.

The eerie "My Buddy Blind Papa Lemon" by King Solomon Hill and the soulful "Roll and Tumble Blues" by Hambone Willie Newbern are both examples of innovative slide techniques by unique voices who have remained largely unrecognized by history. With ragtime, jazz, folk, and African styles slowly compounding into what would become the blues tradition, these were the everyday artists writing the new songs and developing the patterns that would become the hallmarks of some of America's greatest music.

Personnel & tracklisting:
01 - Henry Thomas - Fishing Blues
02 - Willie Harris - Never Drive a Stranger from Your Door
03 - Clifford Gibson - Don't Put That Thing On Me
04 - Henry Spaulding - Cairo Blues
05 - Charley Jordan - Keep It Clean
06 - Gus Cannon - Poor Boy Long Ways From Home
07 - Lane Hardin - California Desert Blues
08 - Otto Virgial - Little Girl In Rome
09 - Blind Willie (Joe) Reynolds - Married Man Blues
10 - Joe Callicott - Fare Thee Well Blues
11 - Sam Collins - Lonesome Road Blues
12 - Geeshie Wiley-Elvie Thomas - Pick Poor Robin Clean
13 - King Solomon Hill - My Buddy Blind Papa Lemon
14 - Kokomo Arnold - Old Original Kokomo Blues
15 - Tom Dickson - Labor Blues
16 - Texas Alexander - Section Gang Blues
17 - Freddie Spruell - Let's Go Riding
18 - Hambone Willie Newbern - Roll And Tumble Blues
19 - Peg Leg Howell - Please Ma'am
20 - Garfield Akers - Cottonfield Blues Part 2
21 - Frank Stokes - Tain't Nobody's Business If I Do Part 2 (tk 1)
22 - Lottie Kimbrough - Rolling Log Blues
23 - Sam Butler (Bo Weavil Jackson) - You Can't Keep No Brown
24 - Mississippi Bracey - Cherry Ball

Exact Audio Copy V1.0 beta 3 from 29. August 2011

EAC extraction logfile from 19. July 2015, 9:25

Various Artists / The Rough Guide To Unsung Heroes Of Country Blues

Used drive : SONY DVD RW DRU-810A Adapter: 1 ID: 0

Read mode : Secure
Utilize accurate stream : Yes
Defeat audio cache : Yes
Make use of C2 pointers : No

Read offset correction : 618
Overread into Lead-In and Lead-Out : No
Fill up missing offset samples with silence : Yes
Delete leading and trailing silent blocks : No
Null samples used in CRC calculations : Yes
Used interface : Native Win32 interface for Win NT & 2000
Gap handling : Appended to previous track

Used output format : User Defined Encoder
Selected bitrate : 128 kBit/s
Quality : High
Add ID3 tag : No
Command line compressor : C:\Program Files (x86)\Exact Audio Copy\Flac\flac.exe
Additional command line options : -8 -V -T "ARTIST=%artist%" -T "TITLE=%title%" -T "ALBUM=%albumtitle%" -T "DATE=%year%" -T "TRACKNUMBER=%tracknr%" -T "TOTALTRACKS=%numtracks%" -T "GENRE=%genre%" -T "ALBUMARTIST=%albumartist%" -T "ALBUM ARTIST=%albumartist%" -T "COMMENT=EAC Secure Mode, Test & Copy, AccurateRip, FLAC -8" %source%


TOC of the extracted CD

Track | Start | Length | Start sector | End sector
––––––––––––––––––––––––––––-
1 | 0:00.00 | 2:44.58 | 0 | 12357
2 | 2:44.58 | 3:39.66 | 12358 | 28848
3 | 6:24.49 | 3:06.64 | 28849 | 42862
4 | 9:31.38 | 2:44.04 | 42863 | 55166
5 | 12:15.42 | 2:47.11 | 55167 | 67702
6 | 15:02.53 | 3:11.16 | 67703 | 82043
7 | 18:13.69 | 3:19.52 | 82044 | 97020
8 | 21:33.46 | 2:36.10 | 97021 | 108730
9 | 24:09.56 | 3:16.44 | 108731 | 123474
10 | 27:26.25 | 3:11.02 | 123475 | 137801
11 | 30:37.27 | 3:04.46 | 137802 | 151647
12 | 33:41.73 | 3:12.33 | 151648 | 166080
13 | 36:54.31 | 3:06.70 | 166081 | 180100
14 | 40:01.26 | 2:52.48 | 180101 | 193048
15 | 42:53.74 | 3:00.61 | 193049 | 206609
16 | 45:54.60 | 2:56.15 | 206610 | 219824
17 | 48:51.00 | 2:59.53 | 219825 | 233302
18 | 51:50.53 | 3:01.59 | 233303 | 246936
19 | 54:52.37 | 3:01.37 | 246937 | 260548
20 | 57:53.74 | 3:18.74 | 260549 | 275472
21 | 61:12.73 | 3:13.04 | 275473 | 289951
22 | 64:26.02 | 3:20.62 | 289952 | 305013
23 | 67:46.64 | 2:46.47 | 305014 | 317510
24 | 70:33.36 | 3:13.05 | 317511 | 331990


Track 1

Filename F:\New Rips\Various Artists - The Rough Guide To Unsung Heroes Of Country Blues (2015) [FLAC]\01 - Henry Thomas - Fishing Blues.wav

Pre-gap length 0:00:02.00

Peak level 98.0 %
Extraction speed 4.2 X
Track quality 100.0 %
Test CRC 73193223
Copy CRC 73193223
Accurately ripped (confidence 1) [1E3E639F] (AR v2)
Copy OK

Track 2

Filename F:\New Rips\Various Artists - The Rough Guide To Unsung Heroes Of Country Blues (2015) [FLAC]\02 - Willie Harris - Never Drive a Stranger from Your Door.wav

Pre-gap length 0:00:02.00

Peak level 53.7 %
Extraction speed 4.8 X
Track quality 100.0 %
Test CRC 78DD8A56
Copy CRC 78DD8A56
Accurately ripped (confidence 1) [BC66B649] (AR v2)
Copy OK

Track 3

Filename F:\New Rips\Various Artists - The Rough Guide To Unsung Heroes Of Country Blues (2015) [FLAC]\03 - Clifford Gibson - Don't Put That Thing On Me.wav

Pre-gap length 0:00:02.00

Peak level 98.0 %
Extraction speed 5.0 X
Track quality 100.0 %
Test CRC 30FCAEA1
Copy CRC 30FCAEA1
Accurately ripped (confidence 1) [B6C12303] (AR v2)
Copy OK

Track 4

Filename F:\New Rips\Various Artists - The Rough Guide To Unsung Heroes Of Country Blues (2015) [FLAC]\04 - Henry Spaulding - Cairo Blues.wav

Pre-gap length 0:00:02.00

Peak level 98.8 %
Extraction speed 5.2 X
Track quality 100.0 %
Test CRC 4797EC65
Copy CRC 4797EC65
Accurately ripped (confidence 1) [019F1156] (AR v2)
Copy OK

Track 5

Filename F:\New Rips\Various Artists - The Rough Guide To Unsung Heroes Of Country Blues (2015) [FLAC]\05 - Charley Jordan - Keep It Clean.wav

Pre-gap length 0:00:02.00

Peak level 84.3 %
Extraction speed 5.4 X
Track quality 100.0 %
Test CRC 4B0D3B90
Copy CRC 4B0D3B90
Accurately ripped (confidence 1) [E731CDA4] (AR v2)
Copy OK

Track 6

Filename F:\New Rips\Various Artists - The Rough Guide To Unsung Heroes Of Country Blues (2015) [FLAC]\06 - Gus Cannon - Poor Boy Long Ways From Home.wav

Pre-gap length 0:00:02.00

Peak level 89.1 %
Extraction speed 4.8 X
Track quality 99.9 %
Test CRC D4073D5C
Copy CRC D4073D5C
Accurately ripped (confidence 1) [A2032C10] (AR v2)
Copy OK

Track 7

Filename F:\New Rips\Various Artists - The Rough Guide To Unsung Heroes Of Country Blues (2015) [FLAC]\07 - Lane Hardin - California Desert Blues.wav

Pre-gap length 0:00:02.00

Peak level 98.0 %
Extraction speed 6.1 X
Track quality 100.0 %
Test CRC 149E4C51
Copy CRC 149E4C51
Accurately ripped (confidence 1) [17B0DA63] (AR v2)
Copy OK

Track 8

Filename F:\New Rips\Various Artists - The Rough Guide To Unsung Heroes Of Country Blues (2015) [FLAC]\08 - Otto Virgial - Little Girl In Rome.wav

Pre-gap length 0:00:02.00

Peak level 98.0 %
Extraction speed 6.0 X
Track quality 100.0 %
Test CRC 30042428
Copy CRC 30042428
Accurately ripped (confidence 1) [DFDDBAF7] (AR v2)
Copy OK

Track 9

Filename F:\New Rips\Various Artists - The Rough Guide To Unsung Heroes Of Country Blues (2015) [FLAC]\09 - Blind Willie (Joe) Reynolds - Married Man Blues.wav

Pre-gap length 0:00:02.00

Peak level 98.8 %
Extraction speed 6.5 X
Track quality 100.0 %
Test CRC 1A054654
Copy CRC 1A054654
Accurately ripped (confidence 1) [50243EC3] (AR v2)
Copy OK

Track 10

Filename F:\New Rips\Various Artists - The Rough Guide To Unsung Heroes Of Country Blues (2015) [FLAC]\10 - Joe Callicott - Fare Thee Well Blues.wav

Pre-gap length 0:00:02.00

Peak level 98.8 %
Extraction speed 6.7 X
Track quality 100.0 %
Test CRC 43380398
Copy CRC 43380398
Accurately ripped (confidence 1) [A5D69D36] (AR v2)
Copy OK

Track 11

Filename F:\New Rips\Various Artists - The Rough Guide To Unsung Heroes Of Country Blues (2015) [FLAC]\11 - Sam Collins - Lonesome Road Blues.wav

Pre-gap length 0:00:02.00

Peak level 98.0 %
Extraction speed 5.6 X
Track quality 99.9 %
Test CRC 9E2CC7E6
Copy CRC 9E2CC7E6
Accurately ripped (confidence 1) [09BE2CA5] (AR v2)
Copy OK

Track 12

Filename F:\New Rips\Various Artists - The Rough Guide To Unsung Heroes Of Country Blues (2015) [FLAC]\12 - Geeshie Wiley-Elvie Thomas - Pick Poor Robin Clean.wav

Pre-gap length 0:00:02.00

Peak level 71.6 %
Extraction speed 7.1 X
Track quality 100.0 %
Test CRC 844EB1ED
Copy CRC 844EB1ED
Accurately ripped (confidence 1) [22FD4BC7] (AR v2)
Copy OK

Track 13

Filename F:\New Rips\Various Artists - The Rough Guide To Unsung Heroes Of Country Blues (2015) [FLAC]\13 - King Solomon Hill - My Buddy Blind Papa Lemon.wav

Pre-gap length 0:00:02.00

Peak level 90.4 %
Extraction speed 7.2 X
Track quality 100.0 %
Test CRC 7106D49E
Copy CRC 7106D49E
Accurately ripped (confidence 1) [B237DEDA] (AR v2)
Copy OK

Track 14

Filename F:\New Rips\Various Artists - The Rough Guide To Unsung Heroes Of Country Blues (2015) [FLAC]\14 - Kokomo Arnold - Old Original Kokomo Blues.wav

Pre-gap length 0:00:02.00

Peak level 71.8 %
Extraction speed 5.9 X
Track quality 99.9 %
Test CRC F7AD5644
Copy CRC F7AD5644
Accurately ripped (confidence 1) [92E54F89] (AR v2)
Copy OK

Track 15

Filename F:\New Rips\Various Artists - The Rough Guide To Unsung Heroes Of Country Blues (2015) [FLAC]\15 - Tom Dickson - Labor Blues.wav

Pre-gap length 0:00:02.00

Peak level 98.8 %
Extraction speed 7.5 X
Track quality 100.0 %
Test CRC 80F9DE18
Copy CRC 80F9DE18
Accurately ripped (confidence 1) [6B3199F2] (AR v2)
Copy OK

Track 16

Filename F:\New Rips\Various Artists - The Rough Guide To Unsung Heroes Of Country Blues (2015) [FLAC]\16 - Texas Alexander - Section Gang Blues.wav

Pre-gap length 0:00:02.00

Peak level 98.0 %
Extraction speed 7.6 X
Track quality 100.0 %
Test CRC FBDFEB9E
Copy CRC FBDFEB9E
Accurately ripped (confidence 1) [5713965F] (AR v2)
Copy OK

Track 17

Filename F:\New Rips\Various Artists - The Rough Guide To Unsung Heroes Of Country Blues (2015) [FLAC]\17 - Freddie Spruell - Let's Go Riding.wav

Pre-gap length 0:00:02.00

Peak level 87.0 %
Extraction speed 7.8 X
Track quality 100.0 %
Test CRC D11CB126
Copy CRC D11CB126
Accurately ripped (confidence 1) [6116C188] (AR v2)
Copy OK

Track 18

Filename F:\New Rips\Various Artists - The Rough Guide To Unsung Heroes Of Country Blues (2015) [FLAC]\18 - Hambone Willie Newbern - Roll And Tumble Blues.wav

Pre-gap length 0:00:02.00

Peak level 62.3 %
Extraction speed 8.0 X
Track quality 100.0 %
Test CRC 0CAE3E30
Copy CRC 0CAE3E30
Accurately ripped (confidence 1) [C9D2BCDB] (AR v2)
Copy OK

Track 19

Filename F:\New Rips\Various Artists - The Rough Guide To Unsung Heroes Of Country Blues (2015) [FLAC]\19 - Peg Leg Howell - Please Ma'am.wav

Pre-gap length 0:00:02.00

Peak level 98.8 %
Extraction speed 8.1 X
Track quality 100.0 %
Test CRC CD80C05C
Copy CRC CD80C05C
Accurately ripped (confidence 1) [1C2D63D1] (AR v2)
Copy OK

Track 20

Filename F:\New Rips\Various Artists - The Rough Guide To Unsung Heroes Of Country Blues (2015) [FLAC]\20 - Garfield Akers - Cottonfield Blues Part 2.wav

Pre-gap length 0:00:02.00

Peak level 78.5 %
Extraction speed 8.5 X
Track quality 100.0 %
Test CRC 1FB5CF46
Copy CRC 1FB5CF46
Accurately ripped (confidence 1) [5CA2174D] (AR v2)
Copy OK

Track 21

Filename F:\New Rips\Various Artists - The Rough Guide To Unsung Heroes Of Country Blues (2015) [FLAC]\21 - Frank Stokes - Tain't Nobody's Business If I Do Part 2 (tk 1).wav

Pre-gap length 0:00:02.00

Peak level 76.4 %
Extraction speed 8.6 X
Track quality 100.0 %
Test CRC 8AF221CA
Copy CRC 8AF221CA
Accurately ripped (confidence 1) [E0391E95] (AR v2)
Copy OK

Track 22

Filename F:\New Rips\Various Artists - The Rough Guide To Unsung Heroes Of Country Blues (2015) [FLAC]\22 - Lottie Kimbrough - Rolling Log Blues.wav

Pre-gap length 0:00:02.00

Peak level 61.6 %
Extraction speed 7.2 X
Track quality 99.9 %
Test CRC 63A11A3C
Copy CRC 63A11A3C
Accurately ripped (confidence 1) [A229519E] (AR v2)
Copy OK

Track 23

Filename F:\New Rips\Various Artists - The Rough Guide To Unsung Heroes Of Country Blues (2015) [FLAC]\23 - Sam Butler (Bo Weavil Jackson) - You Can't Keep No Brown.wav

Pre-gap length 0:00:02.00

Peak level 85.1 %
Extraction speed 6.8 X
Track quality 99.9 %
Test CRC B5F07FE0
Copy CRC B5F07FE0
Accurately ripped (confidence 1) [F169EBB1] (AR v2)
Copy OK

Track 24

Filename F:\New Rips\Various Artists - The Rough Guide To Unsung Heroes Of Country Blues (2015) [FLAC]\24 - Mississippi Bracey - Cherry Ball.wav

Pre-gap length 0:00:02.00

Peak level 80.3 %
Extraction speed 8.8 X
Track quality 100.0 %
Test CRC 096E5057
Copy CRC 096E5057
Accurately ripped (confidence 1) [34D47D07] (AR v2)
Copy OK


All tracks accurately ripped

No errors occurred

End of status report

–– CUETools DB Plugin V2.1.3

[CTDB TOCID: vCRbY4aNKRFfRx17qKtXFuJNCtk-] found, Submit result: vCRbY4aNKRFfRx17qKtXFuJNCtk- has been confirmed
[81c618c5] (2/2) Accurately ripped


==== Log checksum 7ED4607AE22321631FC75E6F050DCFE3230F78C8AB1FCF6E3BF328C5EC6893A9 ====


Various Artists - The Rough Guide To Unsung Heroes Of Country Blues (2015) {World Music Network RGNET1334CD rec 1926-35}

Various Artists - The Rough Guide To Unsung Heroes Of Country Blues (2015) {World Music Network RGNET1334CD rec 1926-35}



===