Subcategories
Please register here if you want to download anything!

If domain in your address bar is different from the list below
PLEASE LEAVE THAT SITE IMMEDIATELY
❗IT'S A DANGEROUS FAKE❗



Spicy Magazines for Men! ;-)

Valentina Lisitsa - Valentina Lisitsa Plays Liszt (2013)

Posted By: delpotro
Valentina Lisitsa - Valentina Lisitsa Plays Liszt (2013)

Valentina Lisitsa - Valentina Lisitsa Plays Liszt (2013)
EAC Rip | FLAC (tracks+log+.cue) - 206 Mb | MP3 CBR 320 kbps - 174 Mb | 01:15:57
Classical | Label: Decca Classics

Valentina Lisitsa records Liszt’s most technically challenging work, the “unplayable” La Contrabandista, conceived by Liszt as a spectacular recital encore. Seldom recorded, this work is a true virtuosic challenge for any pianist.

Performed with Valentina’s legendary fiery aplomb, this is an imaginative programme, embracing some of Liszt’s celebrated transcriptions of music by Schubert and Verdi.

Not afraid of taking risks, Valentina recorded direct to analogue tape, transferred without edits for a special edition LP product and simultaneously recorded in high-resolution 24-bit digital format.

Valentina is the first “YouTube star” of classical music to have converted her online success into a global concert career in the principal venues of Europe, the USA, South America and Asia. The number of views of her YouTube channel has now topped an astonishing 60 million, and her legion of loyal and adoring fans continues to grow.
Tracklist:
1. Ellens Gesang III, S. 558 No. 12 "Ave Maria" (Transcribed from Schubert, D. 839) (05:31)
2. Ballade No. 2 in B Minor, S. 171 (16:00)
3. Aida's Danza sacra e duetto finale, S. 436 (after Verdi) (11:39)
4. El Contrabandista, Rondo Fantastique sur Un Thème Espagnol, S. 252 (11:14)
5. Gute Nacht, S. 561 (after Schubert) (05:13)
6. Des Mädchens Klage, S. 563, No. 2 (after Schubert, D. 191) (04:24)
7. Erlkönig, S. 558 No. 4 (after Schubert, D. 328) (04:36)
8. Der Müller und der Bach, S. 565 No. 2 (06:08)
9. Hungarian Rhapsody No. 12 in C-Sharp Minor, S. 244 (11:09)

Exact Audio Copy V1.0 beta 3 from 29. August 2011

EAC extraction logfile from 11. October 2013, 11:29

Valentina Lisitsa / Valentina Lisitsa Plays Liszt

Used drive : PIONEER BD-RW BDR-208M Adapter: 0 ID: 0

Read mode : Secure
Utilize accurate stream : Yes
Defeat audio cache : Yes
Make use of C2 pointers : No

Read offset correction : 667
Overread into Lead-In and Lead-Out : No
Fill up missing offset samples with silence : Yes
Delete leading and trailing silent blocks : No
Null samples used in CRC calculations : Yes
Used interface : Native Win32 interface for Win NT & 2000
Gap handling : Appended to previous track

Used output format : User Defined Encoder
Selected bitrate : 1024 kBit/s
Quality : High
Add ID3 tag : No
Command line compressor : C:\Program Files (x86)\Exact Audio Copy\Flac\flac.exe
Additional command line options : -8 -V -T "ARTIST=%artist%" -T "TITLE=%title%" -T "ALBUM=%albumtitle%" -T "DATE=%year%" -T "TRACKNUMBER=%tracknr%" -T "GENRE=%genre%" -T "PERFORMER=%albuminterpret%" -T "COMPOSER=%composer%" %haslyrics%–tag-from-file=LYRICS="%lyricsfile%"%haslyrics% -T "ALBUMARTIST=%albumartist%" -T "DISCNUMBER=%cdnumber%" -T "TOTALDISCS=%totalcds%" -T "TOTALTRACKS=%numtracks%" -T "COMMENT=%comment%" %source% -o %dest%


TOC of the extracted CD

Track | Start | Length | Start sector | End sector
––––––––––––––––––––––––––––-
1 | 0:00.00 | 5:31.61 | 0 | 24885
2 | 5:31.61 | 16:00.14 | 24886 | 96899
3 | 21:32.00 | 11:39.37 | 96900 | 149361
4 | 33:11.37 | 11:14.25 | 149362 | 199936
5 | 44:25.62 | 5:13.54 | 199937 | 223465
6 | 49:39.41 | 4:24.16 | 223466 | 243281
7 | 54:03.57 | 4:36.32 | 243282 | 264013
8 | 58:40.14 | 6:08.16 | 264014 | 291629
9 | 64:48.30 | 11:09.43 | 291630 | 341847


Track 1

Filename D:\Rips\Music\Valentina Lisitsa Plays Liszt\Valentina Lisitsa Plays Liszt (2013) [FLAC]\01 - Ellens Gesang III (Ave Maria), S558 no.12.wav

Pre-gap length 0:00:02.00

Peak level 52.5 %
Extraction speed 5.0 X
Track quality 100.0 %
Test CRC 2E65FF03
Copy CRC 2E65FF03
Track not present in AccurateRip database
Copy OK

Track 2

Filename D:\Rips\Music\Valentina Lisitsa Plays Liszt\Valentina Lisitsa Plays Liszt (2013) [FLAC]\02 - Ballade No.2 in B minor, S171.wav

Peak level 91.8 %
Extraction speed 6.4 X
Track quality 100.0 %
Test CRC C825FFD3
Copy CRC C825FFD3
Track not present in AccurateRip database
Copy OK

Track 3

Filename D:\Rips\Music\Valentina Lisitsa Plays Liszt\Valentina Lisitsa Plays Liszt (2013) [FLAC]\03 - Aida- Danza sacra e duetto finale, S436.wav

Peak level 86.0 %
Extraction speed 7.1 X
Track quality 99.9 %
Test CRC 9F719B90
Copy CRC 9F719B90
Track not present in AccurateRip database
Copy OK

Track 4

Filename D:\Rips\Music\Valentina Lisitsa Plays Liszt\Valentina Lisitsa Plays Liszt (2013) [FLAC]\04 - Rondeau fantastique sur un thème espagnol (''El contrabandista''), S252.wav

Peak level 66.0 %
Extraction speed 8.0 X
Track quality 100.0 %
Test CRC C4CA38A9
Copy CRC C4CA38A9
Track not present in AccurateRip database
Copy OK

Track 5

Filename D:\Rips\Music\Valentina Lisitsa Plays Liszt\Valentina Lisitsa Plays Liszt (2013) [FLAC]\05 - Gute Nacht, S561 no.1.wav

Peak level 42.2 %
Extraction speed 7.1 X
Track quality 99.9 %
Test CRC 38E6783D
Copy CRC 38E6783D
Track not present in AccurateRip database
Copy OK

Track 6

Filename D:\Rips\Music\Valentina Lisitsa Plays Liszt\Valentina Lisitsa Plays Liszt (2013) [FLAC]\06 - Des Mädchens Klage, S563 no.2.wav

Peak level 68.8 %
Extraction speed 7.9 X
Track quality 100.0 %
Test CRC AEF7543D
Copy CRC AEF7543D
Track not present in AccurateRip database
Copy OK

Track 7

Filename D:\Rips\Music\Valentina Lisitsa Plays Liszt\Valentina Lisitsa Plays Liszt (2013) [FLAC]\07 - Erlkönig, S558 no.4.wav

Peak level 85.7 %
Extraction speed 8.2 X
Track quality 100.0 %
Test CRC 7E132E90
Copy CRC 7E132E90
Track not present in AccurateRip database
Copy OK

Track 8

Filename D:\Rips\Music\Valentina Lisitsa Plays Liszt\Valentina Lisitsa Plays Liszt (2013) [FLAC]\08 - Der Müller und der Bach, S565 no.2.wav

Peak level 33.5 %
Extraction speed 8.7 X
Track quality 100.0 %
Test CRC F4912828
Copy CRC F4912828
Track not present in AccurateRip database
Copy OK

Track 9

Filename D:\Rips\Music\Valentina Lisitsa Plays Liszt\Valentina Lisitsa Plays Liszt (2013) [FLAC]\09 - Hungarian Rhapsody No.12 in C sharp minor, S244.wav

Peak level 75.9 %
Extraction speed 9.6 X
Track quality 100.0 %
Test CRC 41FB09EF
Copy CRC 41FB09EF
Track not present in AccurateRip database
Copy OK


None of the tracks are present in the AccurateRip database

No errors occurred

End of status report

–– CUETools DB Plugin V2.1.3

[CTDB TOCID: 3d7XFpN6eo3a8rXE6RnCsM.mvb8-] found, Submit result: already submitted
[5e128666] (1/1) Accurately ripped


==== Log checksum 1F85DAD249F7E251A7C5EBC0F42512E71A8D12A1906A03A256E79315264419FD ====

Thanks to the Original ripper Alvinho1956 !