Various Artists – Sakura – A Musical Celebration of the Cherry Blossoms (2003)

Posted By: d'Avignon
Various Artists – Sakura – A Musical Celebration of the Cherry Blossoms (2003)

Various Artists – Sakura – A Musical Celebration of the Cherry Blossoms (2003)
World/Ethnic | FLAC lossless | cuesheets+log | covers+booklet | 47m23s | 233mb
Label: Smithsonian Folkways | cat. no. SFW 40509


The harmony between humanity and nature constitutes an ideal state in Japanese music. In spring, the beautiful but short-lived sakura (flowering cherry tree) – Japan’s most celebrated plant whose blossom is the national flower – powerfully symbolizes the transient splendor of human life.
Each year, in Washington D.C., thousands of visitors savor the beauty of the cherry blossoms which have come to represent the people of the United States and Japan. Featuring traditional Japanese folk songs, classical instrumentals, and live ensemble performances, this recording honors the musical gifts that were brought to the United States from Japan.

Various Artists – Sakura – A Musical Celebration of the Cherry Blossoms (2003)


Tracks:

01. Kyoko Okamoto / Sakura [0:03:11.30]
02. Unknown artists / Yasugi Bushi (Song of Yasugi) [0:05:03.36]
03. Unknown artists / Asadoya Yunta of Okinawa [0:02:00.12]
04. Riley Kelly Lee / Hachigaeshi (Returning the Bowl) [0:05:46.48]
05. Sanae Yabumuki, Umewaka Asano / Akita Nitaka Bushi [0:04:59.48]
06. Unknown artists / The Song of the Rice-Husking [0:03:56.68]
07. Unknown artists / Songs of the Stonemason [0:02:49.37]
08. Unknown artists / Soran Bushi (Soran Song) [0:02:48.73]
09. Shinichi Yuize / Rokudan No Shirabe (Music of Six Steps) [0:05:39.02]
10. Taiko Ensemble / Yuudachi (Evening Rainstorm) [0:11:12.41]

Performers:

Various; see tracklist

Exact Audio Copy V1.0 beta 3 from 29. August 2011

EAC extraction logfile from 1. May 2013, 18:46

VA - Sakura (Smithsonian Folkways Recordings) / A Musical Celebration of the Cherry Blossoms

Used drive : TSSTcorpCDDVDW SH-216AB Adapter: 1 ID: 0

Read mode : Secure
Utilize accurate stream : Yes
Defeat audio cache : Yes
Make use of C2 pointers : No

Read offset correction : 6
Overread into Lead-In and Lead-Out : No
Fill up missing offset samples with silence : Yes
Delete leading and trailing silent blocks : No
Null samples used in CRC calculations : Yes
Used interface : Native Win32 interface for Win NT & 2000
Gap handling : Appended to previous track

Used output format : User Defined Encoder
Selected bitrate : 768 kBit/s
Quality : High
Add ID3 tag : No
Command line compressor : C:\Program Files (x86)\Exact Audio Copy\FLAC\FLAC.EXE
Additional command line options : -6 -V -T "ARTIST=%artist%" -T "TITLE=%title%" -T "ALBUM=%albumtitle%" -T "DATE=%year%" -T "TRACKNUMBER=%tracknr%" -T "GENRE=%genre%" -T "COMMENT=%comment%" -T "BAND=%albuminterpret%" -T "ALBUMARTIST=%albuminterpret%" -T "COMPOSER=%composer%" %haslyrics%–tag-from-file=LYRICS="%lyricsfile%"%haslyrics% -T "DISCNUMBER=%cdnumber%" -T "TOTALDISCS=%totalcds%" -T "TOTALTRACKS=%numtracks%" %hascover%–picture="%coverfile%"%hascover% %source% -o %dest%


TOC of the extracted CD

Track | Start | Length | Start sector | End sector
––––––––––––––––––––––––––––-
1 | 0:00.00 | 3:11.23 | 0 | 14347
2 | 3:11.23 | 5:03.27 | 14348 | 37099
3 | 8:14.50 | 2:00.09 | 37100 | 46108
4 | 10:14.59 | 5:46.36 | 46109 | 72094
5 | 16:01.20 | 4:59.36 | 72095 | 94555
6 | 21:00.56 | 3:56.51 | 94556 | 112306
7 | 24:57.32 | 2:49.28 | 112307 | 125009
8 | 27:46.60 | 2:48.55 | 125010 | 137664
9 | 30:35.40 | 5:39.02 | 137665 | 163091
10 | 36:14.42 | 11:12.31 | 163092 | 213522


Track 1

Filename C:\Users\astarte\03. POST\cherry blossoms\01 Sakura.wav

Pre-gap length 0:00:02.00

Peak level 55.8 %
Extraction speed 4.2 X
Track quality 100.0 %
Copy CRC B9AA545E
Cannot be verified as accurate (confidence 2) [C0608DE3], AccurateRip returned [CA5F51E7] (AR v2)
Copy OK

Track 2

Filename C:\Users\astarte\03. POST\cherry blossoms\02 Yasugi Bushi (Song of Yasugi).wav

Pre-gap length 0:00:02.28

Peak level 99.1 %
Extraction speed 5.0 X
Track quality 100.0 %
Copy CRC 11B90683
Cannot be verified as accurate (confidence 2) [0318D57D], AccurateRip returned [61E12EC5] (AR v2)
Copy OK

Track 3

Filename C:\Users\astarte\03. POST\cherry blossoms\03 Asadoya Yunta of Okinawa.wav

Pre-gap length 0:00:03.68

Peak level 58.4 %
Extraction speed 4.5 X
Track quality 100.0 %
Copy CRC 61A6E352
Cannot be verified as accurate (confidence 2) [7621D983], AccurateRip returned [ADF94FD4] (AR v2)
Copy OK

Track 4

Filename C:\Users\astarte\03. POST\cherry blossoms\04 Hachigaeshi (Returning the Bowl).wav

Pre-gap length 0:00:03.54

Peak level 90.8 %
Extraction speed 5.8 X
Track quality 100.0 %
Copy CRC 255809FB
Cannot be verified as accurate (confidence 2) [DFE804D4], AccurateRip returned [E182B627] (AR v2)
Copy OK

Track 5

Filename C:\Users\astarte\03. POST\cherry blossoms\05 Akita Nitaka Bushi.wav

Pre-gap length 0:00:02.86

Peak level 84.1 %
Extraction speed 6.2 X
Track quality 100.0 %
Copy CRC B3309733
Cannot be verified as accurate (confidence 2) [B80D1CE8], AccurateRip returned [A7750831] (AR v2)
Copy OK

Track 6

Filename C:\Users\astarte\03. POST\cherry blossoms\06 The Song of the Rice-Husking.wav

Pre-gap length 0:00:03.49

Peak level 73.4 %
Extraction speed 5.2 X
Track quality 99.9 %
Copy CRC ADE55162
Cannot be verified as accurate (confidence 2) [772A7C58], AccurateRip returned [49F8054F] (AR v2)
Copy OK

Track 7

Filename C:\Users\astarte\03. POST\cherry blossoms\07 Songs of the Stonemason.wav

Pre-gap length 0:00:03.66

Peak level 98.2 %
Extraction speed 6.1 X
Track quality 100.0 %
Copy CRC EB613B3C
Cannot be verified as accurate (confidence 2) [88A3A9C6], AccurateRip returned [E7A83CCD] (AR v2)
Copy OK

Track 8

Filename C:\Users\astarte\03. POST\cherry blossoms\08 Soran Bushi (Soran Song).wav

Pre-gap length 0:00:03.16

Peak level 85.4 %
Extraction speed 6.6 X
Track quality 100.0 %
Copy CRC BFA91C89
Cannot be verified as accurate (confidence 2) [2A6473AB], AccurateRip returned [B96EA410] (AR v2)
Copy OK

Track 9

Filename C:\Users\astarte\03. POST\cherry blossoms\09 Rokudan No Shirabe (Music of Six Steps).wav

Pre-gap length 0:00:03.09

Peak level 55.4 %
Extraction speed 7.5 X
Track quality 100.0 %
Copy CRC EE7011E5
Cannot be verified as accurate (confidence 2) [A6C09ED4], AccurateRip returned [42F7D299] (AR v2)
Copy OK

Track 10

Filename C:\Users\astarte\03. POST\cherry blossoms\10 Yuudachi (Evening Rainstorm).wav

Pre-gap length 0:00:03.13

Peak level 92.5 %
Extraction speed 8.6 X
Track quality 100.0 %
Copy CRC DDD62FE2
Cannot be verified as accurate (confidence 2) [3876B146], AccurateRip returned [A86A4F98] (AR v2)
Copy OK


No tracks could be verified as accurate
You may have a different pressing from the one(s) in the database

No errors occurred

End of status report

==== Log checksum 6546B0464B4703CC5D19E7CF64058BF609BDDF187CA1DFE4147A4D84A5EAEBE3 ====