Vince Guaraldi Trio - Jazz Impressions of Black Orpheus (1965)

Posted By: intothe
Vince Guaraldi Trio - Jazz Impressions of Black Orpheus (1965)

Vince Guaraldi Trio - Jazz Impressions of Black Orpheus (1965)
Jazz | EAC rip (FLAC+CUE+LOG) | 229 MB | full artwork
OJC (1990) | 37:36 | RAR with 5% recovery info


EAC extraction logfile from 26. August 2010, 12:08

Vince Guaraldi Trio / Jazz Impressions of Black Orpheus

Used drive : _NEC DVD_RW ND-3500AG Adapter: 0 ID: 0

Read mode : Secure
Utilize accurate stream : Yes
Defeat audio cache : Yes
Make use of C2 pointers : No

Read offset correction : 48
Overread into Lead-In and Lead-Out : No
Fill up missing offset samples with silence : Yes
Delete leading and trailing silent blocks : No
Null samples used in CRC calculations : Yes
Used interface : Native Win32 interface for Win NT & 2000

Used output format : User Defined Encoder
Selected bitrate : 768 kBit/s
Quality : High
Add ID3 tag : No
Command line compressor : C:\Program Files\Exact Audio Copy\FLAC\FLAC.EXE
Additional command line options : -6 -V -T "ARTIST=%a" -T "TITLE=%t" -T "ALBUM=%g" -T "DATE=%y" -T "TRACKNUMBER=%n" -T "GENRE=%m" -T "COMMENT=%e" %s -o %d


TOC of the extracted CD

Track | Start | Length | Start sector | End sector
––––––––––––––––––––––––––––-
1 | 0:00.00 | 5:42.00 | 0 | 25649
2 | 5:42.00 | 5:50.50 | 25650 | 51949
3 | 11:32.50 | 4:56.47 | 51950 | 74196
4 | 16:29.22 | 4:47.40 | 74197 | 95761
5 | 21:16.62 | 3:09.15 | 95762 | 109951
6 | 24:26.02 | 5:21.35 | 109952 | 134061
7 | 29:47.37 | 5:01.15 | 134062 | 156651
8 | 34:48.52 | 4:20.53 | 156652 | 176204


Range status and errors

Selected range

Filename J:\eMusic\Rip\Vince Guaraldi Trio - Jazz Impressions of Black Orpheus.wav

Peak level 99.5 %
Range quality 100.0 %
Test CRC 6F25D3C4
Copy CRC 6F25D3C4
Copy OK

No errors occurred


AccurateRip summary

Track 1 accurately ripped (confidence 5) [0BD4D88F]
Track 2 accurately ripped (confidence 5) [F86499E1]
Track 3 accurately ripped (confidence 5) [A24D0D84]
Track 4 accurately ripped (confidence 5) [FFD46E3C]
Track 5 accurately ripped (confidence 5) [1C134C9A]
Track 6 accurately ripped (confidence 5) [82DDA9B6]
Track 7 accurately ripped (confidence 5) [50D0CB88]
Track 8 accurately ripped (confidence 5) [1DA341F7]

All tracks accurately ripped

End of status report


Here is Vince Guaraldi's breakthrough album – musically, commercially, in every which way. After numerous records as a leader or sideman, for the first time a recognizable Guaraldi piano style emerges, with whimsical phrasing all his own, a madly swinging right hand and occasional boogie-influenced left hand, and a distinctive, throat-catching, melodic improvisational gift. The first half of the CD is taken up by cover versions of tunes from the Antonio Carlos Jobim/Luiz Bonfa score for the film Black Orpheus, recorded just as bossa nova was taking hold in America. These are genuinely jazz-oriented impressions in a mainstream boppish manner, with only a breath of samba from Monty Budwig (bass) and Colin Bailey (drums) in the opening minute of "Samba de Orpheus"; an edited version of this haunting song was issued as a 45 rpm single. But DJs soon began flipping the single over to play the B-side, a wistful, unforgettably catchy Guaraldi tune called "Cast Your Fate to the Wind" that opens the North American half of the album. The tune became a surprise hit; Fantasy redesigned the cover to call attention to it, and Vince was on his way to fame as one of Latin and mainstream jazz's most irresistible composers. The whole album evokes the ambience of San Francisco's jazz life in the 1960s as few others do – and such is this record's appeal that even non-jazz and non-Latin music people have been grooving to this music ever since it came out. - by Richard S. Ginell, AMG

Tracks:
1. Samba de Orpheus (Luiz Bonfá/Maria Bonfá/Antonio Carlos Jobim) 4:37
2. Manha de Carnaval (Luiz Bonfá/Maria Bonfá/Antonio Carlos Jobim) 5:45
3. O Nosso Amor (Our Love) (Maria Bonfá/Antonio Carlos Jobim) 4:52
4. Generique (Traditional) 4:44
5. Cast Your Fate to the Wind (Vince Guaraldi) 3:05
6. Moon River (Henry Mancini) 5:16
7. Alma-Ville (Vince Guaraldi) 4:57
8. Since I Fell for You (Buddy Johnson) 4:20

Personnel:
Vince Guaraldi (Piano)
Monty Budwig (Double Bass)
Colin Baley (Drums)

FileServe:
Part 1 - Part 2
Hotfile:
Part 1 - Part 2
Rapidshare:
Part 1 - Part 2
pw: into