Subcategories

Vienna Art Orchestra - 3 Trilogy: 30th Anniversary Box (2007) {3CD Box Set EmArcy 0602517228795}

Posted By: ruskaval
Vienna Art Orchestra - 3 Trilogy: 30th Anniversary Box (2007) {3CD Box Set EmArcy 0602517228795}

Vienna Art Orchestra - 3 Trilogy: 30th Anniversary Box (2007) {3CD Box Set EmArcy 0602517228795}
EAC rip (secure mode) | FLAC (tracks)+CUE+LOG -> 1.40 Gb | MP3 @320 -> 602 Mb
Full Artwork @ 600 dpi (jpg) -> 307 Mb | 5% repair rar
© 2007 EmArcy / Universal Music | 0602517228795
Jazz / Modern Big Band / Experimental Big Band / Progressive Jazz

The Vienna Art Orchestra is a 15-member jazz orchestra that features the avant-garde arrangements and compositions of its leader, pianist Mathias Ruegg. This is a reissue of their 1980 debut, an important document in the post-modern jazz movement. The opening, title track is a joyous, folkish tango that's been cartoonishly toyed with, featuring three solo sections. The marimba section is also ornamented with vocalese from Lauren Newton, followed by an extremely playful horn lead that sounds like a toy instrument. The solo offering from violinist Rudi Berger has an electronically effected fusion sound. A tight, alto sax solo by Wolfgang Puschnig ties everything together neatly with a lengthy, unaccompanied performance.
Vienna Art Orchestra - 3 Trilogy: 30th Anniversary Box (2007) {3CD Box Set EmArcy 0602517228795}

This leads right into a mellow, tenor sax and marimba introduction to "Polish Contrasts." The lead here is eventually taken by a bright, cosmic soprano sax (Harry Solkal). For a short piano piece, background singing and clapping recorded on the tour bus serve as a backdrop. Newton brings back her playful scatting, in clear imitation of a squawking free-jazz sax solo for an a cappella intro to "The World of Be-Band & Big Bop." After about three minutes, the instrumentalists slowly materialize behind her until the mad marimba possesses her. After a full six minutes of amazing scatting, the song itself is introduced and six more minutes of cross-genre pollination follow. This special box set includes a four-song Ruegg disc deceptively entitled "Two Songs for Another Lovely War." The Vienna Art Orchestra members are featured on this recording as well. A third CD is an Extraplatte sampler of two-dozen tracks, among them one track by the Vienna Art Orchestra and two solo tracks by their figurative marimba and vibes player Werner Pirchner.
Vienna Art Orchestra - 3 Trilogy: 30th Anniversary Box (2007) {3CD Box Set EmArcy 0602517228795}


Tracklist

CD1
American Dreams - Portraits Of 13 American Women

1-1 Jean Harlow: Blond, Sharp & Loud 4:26
1-2 Rita Hayworth: Latin Twister 5:09
1-3 Louise Brooks: Lulu's Ragtime 4:52
1-4 Katharine Hepburn: La Grande Dame 6:32
1-5 Grace Kelly: One Day My Prince Did Come 6:03
1-6 Judy Garland: Wizards & Blizzards 5:11
1-7 Josephine Baker: She Need Never Regret 4:47
1-8 Lauren Bacall: Smile Of Gold 4:02
1-9 Mae West: Bombs And Other Shells 5:08
1-10 Bette Davis: Smokin' With Bette 5:43
1-11 Ava Gardner: Gardener Of Unrealized Wishes 4:54
1-12 Marilyn Monroe: Behind The Mirror Of Desire 6:28
1-13 Jayne Mansfield: Rises And Falls 6:22

Vienna Art Orchestra - 3 Trilogy: 30th Anniversary Box (2007) {3CD Box Set EmArcy 0602517228795}

Vienna Art Orchestra - 3 Trilogy: 30th Anniversary Box (2007) {3CD Box Set EmArcy 0602517228795}


CD2
European Visionaries - Portraits Of 13 European Men

2-1 Prelude 1 1:10
2-2 Leonardo Da Vinci: Light And Shadows 5:52
2-3 Prelude 2 1:11
2-4 Immanuel Kant: See The Outside - Understand The Inside 4:27
2-5 Prelude 3 0:50
2-6 Voltaire: La Bibliothèque Imaginaire 4:51
2-7 Prelude 4 1:18
2-8 René Descartes: Les Jardins Géométriques 4:31
2-9 Prelude 5 1:16
2-10 Francesco D'Assisi: Brother Sun And Sister Moon 5:42
2-11 Prelude 6 1:32
2-12 Isaac Newton: Broken Colours 4:29
2-13 Prelude 7 0:44
2-14 Albert Einstein: Time Is What You Feel 5:07
2-15 Prelude 8 1:17
2-16 Erasmus Von Rotterdam: What You Believe Belongs To Your Own 4:57
2-17 Prelude 9 0:58
2-18 Nicolaus Copernicus: Heliocentric Games 4:18
2-19 Prelude 10 1:23
2-20 Sigmund Freud: Night & Mares On A Viennese Couch 5:19
2-21 Prelude 11 1:14
2-22 Galileo Galilei: The Magic Pendulum 4:36
2-23 Prelude 12 0:53
2-24 John Locke: Patterns Of Independence 3:57
2-25 Prelude 13 0:58
2-26 Stephen Hawking: Black Holes 4:51

Vienna Art Orchestra - 3 Trilogy: 30th Anniversary Box (2007) {3CD Box Set EmArcy 0602517228795}

Vienna Art Orchestra - 3 Trilogy: 30th Anniversary Box (2007) {3CD Box Set EmArcy 0602517228795}


CD3
Visionaries & Dreams - Portraits Of 13 Couples

3-1 Jean Harlow Meets Leonardo Da Vinci 4:37
3-2 Grace Kelly Meets René Descartes 5:26
3-3 Rita Hayworth Meets Isaac Newton 5:17
3-4 Louise Brooks Meets Immanuel Kant 5:13
3-5 Katharine Hepburn Meets Voltaire 5:30
3-6 Judy Garland Meets Francesco D'Assisi 5:11
3-7 Lauren Bacall Meets Erasmus Von Rotterdam 4:42
3-8 Josephine Baker Meets Albert Einstein 4:48
3-9 Bette Davis Meets Galileo Galilei 4:02
3-10 Mae West Meets Nicolaus Copernicus 4:56
3-11 Ava Gardner Meets John Locke 4:23
3-12 Marilyn Monroe Meets Stephen Hawking 6:08
3-13 Jayne Mansfield Meets Sigmund Freud 7:31
3-14 Final Statement (About The Past & The Future) 0:09

Vienna Art Orchestra - 3 Trilogy: 30th Anniversary Box (2007) {3CD Box Set EmArcy 0602517228795}

Vienna Art Orchestra - 3 Trilogy: 30th Anniversary Box (2007) {3CD Box Set EmArcy 0602517228795}


Exact Audio Copy V0.99 prebeta 4 from 23. January 2008

EAC extraction logfile from 3. October 2008, 16:43

Vienna Art Orchestra / 3 - 30 Years CD 1 American Dreams (Portraits of 13 American Women)

Used drive : _NEC DVD_RW ND-3500AG Adapter: 0 ID: 1

Read mode : Secure
Utilize accurate stream : Yes
Defeat audio cache : Yes
Make use of C2 pointers : No

Read offset correction : 48
Overread into Lead-In and Lead-Out : No
Fill up missing offset samples with silence : Yes
Delete leading and trailing silent blocks : No
Null samples used in CRC calculations : Yes
Used interface : Native Win32 interface for Win NT & 2000
Gap handling : Appended to previous track

Used output format : User Defined Encoder
Selected bitrate : 128 kBit/s
Quality : High
Add ID3 tag : No
Command line compressor : C:\Program Files\FLAC\flac.exe
Additional command line options : -8 -V -T "ARTIST=%a" -T "TITLE=%t" -T "ALBUM=%g" -T "DATE=%y" -T "TRACKNUMBER=%n" -T "GENRE=%m" -T "COMMENT=EAC FLAC -8" %s


TOC of the extracted CD

Track | Start | Length | Start sector | End sector
––––––––––––––––––––––––––––-
1 | 0:00.00 | 4:26.32 | 0 | 19981
2 | 4:26.32 | 5:09.15 | 19982 | 43171
3 | 9:35.47 | 4:52.58 | 43172 | 65129
4 | 14:28.30 | 6:33.02 | 65130 | 94606
5 | 21:01.32 | 6:03.65 | 94607 | 121896
6 | 27:05.22 | 5:11.43 | 121897 | 145264
7 | 32:16.65 | 4:47.65 | 145265 | 166854
8 | 37:04.55 | 4:02.00 | 166855 | 185004
9 | 41:06.55 | 5:08.60 | 185005 | 208164
10 | 46:15.40 | 5:43.65 | 208165 | 233954
11 | 51:59.30 | 4:54.67 | 233955 | 256071
12 | 56:54.22 | 6:28.30 | 256072 | 285201
13 | 63:22.52 | 6:22.50 | 285202 | 313901


Track 1

Filename F:\DL\Vienna Art Orchestra - 3-30 Years CD1 American Dreams Portraits of 13 American Women (2007) [FLAC]\01 - Jean Harlow Blond, Sharp & Loud.wav

Pre-gap length 0:00:02.00

Peak level 99.4 %
Track quality 100.0 %
Test CRC F23CEB7E
Copy CRC F23CEB7E
Copy OK

Track 2

Filename F:\DL\Vienna Art Orchestra - 3-30 Years CD1 American Dreams Portraits of 13 American Women (2007) [FLAC]\02 - Rita Hayworth Latin Twister.wav

Peak level 99.4 %
Track quality 100.0 %
Test CRC 1D02C2EA
Copy CRC 1D02C2EA
Copy OK

Track 3

Filename F:\DL\Vienna Art Orchestra - 3-30 Years CD1 American Dreams Portraits of 13 American Women (2007) [FLAC]\03 - Louise Brooks Lulu's Ragtime.wav

Peak level 99.4 %
Track quality 100.0 %
Test CRC E7C40478
Copy CRC E7C40478
Copy OK

Track 4

Filename F:\DL\Vienna Art Orchestra - 3-30 Years CD1 American Dreams Portraits of 13 American Women (2007) [FLAC]\04 - Katharine Hepburn La Grande Dame.wav

Peak level 99.4 %
Track quality 100.0 %
Test CRC 22031ADF
Copy CRC 22031ADF
Copy OK

Track 5

Filename F:\DL\Vienna Art Orchestra - 3-30 Years CD1 American Dreams Portraits of 13 American Women (2007) [FLAC]\05 - Grace Kelly One Day My Prince Did Come.wav

Peak level 99.4 %
Track quality 100.0 %
Test CRC E346D9DA
Copy CRC E346D9DA
Copy OK

Track 6

Filename F:\DL\Vienna Art Orchestra - 3-30 Years CD1 American Dreams Portraits of 13 American Women (2007) [FLAC]\06 - Judy Garland Wizards & Blizzards.wav

Peak level 99.4 %
Track quality 100.0 %
Test CRC 62BFE8A7
Copy CRC 62BFE8A7
Copy OK

Track 7

Filename F:\DL\Vienna Art Orchestra - 3-30 Years CD1 American Dreams Portraits of 13 American Women (2007) [FLAC]\07 - Josephine Baker She Need Regret.wav

Peak level 99.4 %
Track quality 99.9 %
Test CRC 721F0CD0
Copy CRC 721F0CD0
Copy OK

Track 8

Filename F:\DL\Vienna Art Orchestra - 3-30 Years CD1 American Dreams Portraits of 13 American Women (2007) [FLAC]\08 - Lauren Bacall Smile of Gold.wav

Peak level 97.5 %
Track quality 100.0 %
Test CRC 472E247B
Copy CRC 472E247B
Copy OK

Track 9

Filename F:\DL\Vienna Art Orchestra - 3-30 Years CD1 American Dreams Portraits of 13 American Women (2007) [FLAC]\09 - Mac West Bombs And Other Shells.wav

Peak level 99.4 %
Track quality 99.9 %
Test CRC B467972C
Copy CRC B467972C
Copy OK

Track 10

Filename F:\DL\Vienna Art Orchestra - 3-30 Years CD1 American Dreams Portraits of 13 American Women (2007) [FLAC]\10 - Bette Davis Smokin' With Bette.wav

Peak level 99.4 %
Track quality 100.0 %
Test CRC C406BA9F
Copy CRC C406BA9F
Copy OK

Track 11

Filename F:\DL\Vienna Art Orchestra - 3-30 Years CD1 American Dreams Portraits of 13 American Women (2007) [FLAC]\11 - Ava Gardner Gardener Of Unrealized Wishes.wav

Peak level 99.4 %
Track quality 100.0 %
Test CRC C06D6740
Copy CRC C06D6740
Copy OK

Track 12

Filename F:\DL\Vienna Art Orchestra - 3-30 Years CD1 American Dreams Portraits of 13 American Women (2007) [FLAC]\12 - Marilyn Monroe Behind The Mirror Of Desire.wav

Peak level 99.4 %
Track quality 100.0 %
Test CRC E6DA864D
Copy CRC E6DA864D
Copy OK

Track 13

Filename F:\DL\Vienna Art Orchestra - 3-30 Years CD1 American Dreams Portraits of 13 American Women (2007) [FLAC]\13 - Jayne Mansfield Rises and Falls.wav

Peak level 99.4 %
Track quality 100.0 %
Test CRC 67D022EF
Copy CRC 67D022EF
Copy OK

No errors occurred

End of status report

Exact Audio Copy V0.99 prebeta 4 from 23. January 2008

EAC extraction logfile from 3. October 2008, 19:32

Vienna Art Orchestra / 3 - 30 Years CD 2 European Visionaries (Portraits of 13 European Men)

Used drive : _NEC DVD_RW ND-3500AG Adapter: 0 ID: 1

Read mode : Secure
Utilize accurate stream : Yes
Defeat audio cache : Yes
Make use of C2 pointers : No

Read offset correction : 48
Overread into Lead-In and Lead-Out : No
Fill up missing offset samples with silence : Yes
Delete leading and trailing silent blocks : No
Null samples used in CRC calculations : Yes
Used interface : Native Win32 interface for Win NT & 2000
Gap handling : Appended to previous track

Used output format : User Defined Encoder
Selected bitrate : 128 kBit/s
Quality : High
Add ID3 tag : No
Command line compressor : C:\Program Files\FLAC\flac.exe
Additional command line options : -8 -V -T "ARTIST=%a" -T "TITLE=%t" -T "ALBUM=%g" -T "DATE=%y" -T "TRACKNUMBER=%n" -T "GENRE=%m" -T "COMMENT=EAC FLAC -8" %s


TOC of the extracted CD

Track | Start | Length | Start sector | End sector
––––––––––––––––––––––––––––-
1 | 0:00.00 | 1:10.12 | 0 | 5261
2 | 1:10.12 | 5:52.65 | 5262 | 31726
3 | 7:03.02 | 1:11.28 | 31727 | 37079
4 | 8:14.30 | 4:27.20 | 37080 | 57124
5 | 12:41.50 | 0:50.17 | 57125 | 60891
6 | 13:31.67 | 4:51.35 | 60892 | 82751
7 | 18:23.27 | 1:18.48 | 82752 | 88649
8 | 19:42.00 | 4:32.05 | 88650 | 109054
9 | 24:14.05 | 1:16.70 | 109055 | 114824
10 | 25:31.00 | 5:42.20 | 114825 | 140494
11 | 31:13.20 | 1:32.72 | 140495 | 147466
12 | 32:46.17 | 4:29.68 | 147467 | 167709
13 | 37:16.10 | 0:45.15 | 167710 | 171099
14 | 38:01.25 | 5:07.72 | 171100 | 194196
15 | 43:09.22 | 1:18.48 | 194197 | 200094
16 | 44:27.70 | 4:57.15 | 200095 | 222384
17 | 49:25.10 | 0:58.07 | 222385 | 226741
18 | 50:23.17 | 4:18.65 | 226742 | 246156
19 | 54:42.07 | 1:24.10 | 246157 | 252466
20 | 56:06.17 | 5:19.53 | 252467 | 276444
21 | 61:25.70 | 1:14.52 | 276445 | 282046
22 | 62:40.47 | 4:36.58 | 282047 | 302804
23 | 67:17.30 | 0:53.32 | 302805 | 306811
24 | 68:10.62 | 3:58.08 | 306812 | 324669
25 | 72:08.70 | 0:59.12 | 324670 | 329106
26 | 73:08.07 | 4:51.70 | 329107 | 351001


Track 1

Filename F:\DL\Vienna Art Orchestra - 3-30 Years CD2 European Visionaries Portraits of 13 European Men (2007) [FLAC]\01 - Prelude 1.wav

Pre-gap length 0:00:02.00

Peak level 95.4 %
Track quality 100.0 %
Test CRC 0CEF7E02
Copy CRC 0CEF7E02
Copy OK

Track 2

Filename F:\DL\Vienna Art Orchestra - 3-30 Years CD2 European Visionaries Portraits of 13 European Men (2007) [FLAC]\02 - Leonardo da Vinci Light And Shadows.wav

Peak level 99.4 %
Track quality 100.0 %
Test CRC BB754FE7
Copy CRC BB754FE7
Copy OK

Track 3

Filename F:\DL\Vienna Art Orchestra - 3-30 Years CD2 European Visionaries Portraits of 13 European Men (2007) [FLAC]\03 - Prelude 2.wav

Peak level 83.1 %
Track quality 99.8 %
Test CRC 334DD4DA
Copy CRC 334DD4DA
Copy OK

Track 4

Filename F:\DL\Vienna Art Orchestra - 3-30 Years CD2 European Visionaries Portraits of 13 European Men (2007) [FLAC]\04 - Immanuel Kant See The Outside - Understand The Inside.wav

Peak level 99.4 %
Track quality 100.0 %
Test CRC 3B7E5F2E
Copy CRC 3B7E5F2E
Copy OK

Track 5

Filename F:\DL\Vienna Art Orchestra - 3-30 Years CD2 European Visionaries Portraits of 13 European Men (2007) [FLAC]\05 - Prelude 3.wav

Peak level 95.7 %
Track quality 100.0 %
Test CRC 57572535
Copy CRC 57572535
Copy OK

Track 6

Filename F:\DL\Vienna Art Orchestra - 3-30 Years CD2 European Visionaries Portraits of 13 European Men (2007) [FLAC]\06 - Voltaire La Bibliotheque Imaginaire.wav

Peak level 99.4 %
Track quality 100.0 %
Test CRC 858EC32D
Copy CRC 858EC32D
Copy OK

Track 7

Filename F:\DL\Vienna Art Orchestra - 3-30 Years CD2 European Visionaries Portraits of 13 European Men (2007) [FLAC]\07 - Prelude 4.wav

Peak level 84.1 %
Track quality 100.0 %
Test CRC 620E5A75
Copy CRC 620E5A75
Copy OK

Track 8

Filename F:\DL\Vienna Art Orchestra - 3-30 Years CD2 European Visionaries Portraits of 13 European Men (2007) [FLAC]\08 - Rene Descartes Les Jardins Geometriques.wav

Peak level 97.6 %
Track quality 100.0 %
Test CRC 7D67190D
Copy CRC 7D67190D
Copy OK

Track 9

Filename F:\DL\Vienna Art Orchestra - 3-30 Years CD2 European Visionaries Portraits of 13 European Men (2007) [FLAC]\09 - Prelude 5.wav

Peak level 85.7 %
Track quality 100.0 %
Test CRC B2312384
Copy CRC B2312384
Copy OK

Track 10

Filename F:\DL\Vienna Art Orchestra - 3-30 Years CD2 European Visionaries Portraits of 13 European Men (2007) [FLAC]\10 - Francesco d'Assisi Brother Sun And Sister Moon.wav

Peak level 98.7 %
Track quality 100.0 %
Test CRC 1FB66150
Copy CRC 1FB66150
Copy OK

Track 11

Filename F:\DL\Vienna Art Orchestra - 3-30 Years CD2 European Visionaries Portraits of 13 European Men (2007) [FLAC]\11 - Prelude 6.wav

Peak level 83.2 %
Track quality 99.8 %
Test CRC 02C48C49
Copy CRC 02C48C49
Copy OK

Track 12

Filename F:\DL\Vienna Art Orchestra - 3-30 Years CD2 European Visionaries Portraits of 13 European Men (2007) [FLAC]\12 - Isaac Newton Broken Colours.wav

Peak level 99.4 %
Track quality 100.0 %
Test CRC 4A1C4370
Copy CRC 4A1C4370
Copy OK

Track 13

Filename F:\DL\Vienna Art Orchestra - 3-30 Years CD2 European Visionaries Portraits of 13 European Men (2007) [FLAC]\13 - Prelude 7.wav

Peak level 89.5 %
Track quality 100.0 %
Test CRC 2CD760DA
Copy CRC 2CD760DA
Copy OK

Track 14

Filename F:\DL\Vienna Art Orchestra - 3-30 Years CD2 European Visionaries Portraits of 13 European Men (2007) [FLAC]\14 - Albert Einstein Time Is What You Feel.wav

Peak level 99.4 %
Track quality 100.0 %
Test CRC 19DB8457
Copy CRC 19DB8457
Copy OK

Track 15

Filename F:\DL\Vienna Art Orchestra - 3-30 Years CD2 European Visionaries Portraits of 13 European Men (2007) [FLAC]\15 - Prelude 8.wav

Peak level 85.1 %
Track quality 100.0 %
Test CRC 28E8B597
Copy CRC 28E8B597
Copy OK

Track 16

Filename F:\DL\Vienna Art Orchestra - 3-30 Years CD2 European Visionaries Portraits of 13 European Men (2007) [FLAC]\16 - Erasmus von Rotterdam What You Believe Belongs To Your Own.wav

Peak level 99.2 %
Track quality 99.9 %
Test CRC 6E0A9FC4
Copy CRC 6E0A9FC4
Copy OK

Track 17

Filename F:\DL\Vienna Art Orchestra - 3-30 Years CD2 European Visionaries Portraits of 13 European Men (2007) [FLAC]\17 - Prelude 9.wav

Peak level 91.7 %
Track quality 99.8 %
Test CRC 826A72A5
Copy CRC 826A72A5
Copy OK

Track 18

Filename F:\DL\Vienna Art Orchestra - 3-30 Years CD2 European Visionaries Portraits of 13 European Men (2007) [FLAC]\18 - Nicolaus Copernicus Heliocentric Games.wav

Peak level 99.4 %
Track quality 100.0 %
Test CRC B58ABFFC
Copy CRC B58ABFFC
Copy OK

Track 19

Filename F:\DL\Vienna Art Orchestra - 3-30 Years CD2 European Visionaries Portraits of 13 European Men (2007) [FLAC]\19 - Prelude 10.wav

Peak level 87.6 %
Track quality 100.0 %
Test CRC 7BB4FF6C
Copy CRC 7BB4FF6C
Copy OK

Track 20

Filename F:\DL\Vienna Art Orchestra - 3-30 Years CD2 European Visionaries Portraits of 13 European Men (2007) [FLAC]\20 - Sigmund Freud Night & Mares On A Viennese Couch.wav

Peak level 99.3 %
Track quality 100.0 %
Test CRC 2285CC15
Copy CRC 2285CC15
Copy OK

Track 21

Filename F:\DL\Vienna Art Orchestra - 3-30 Years CD2 European Visionaries Portraits of 13 European Men (2007) [FLAC]\21 - Prelude 11.wav

Peak level 85.6 %
Track quality 99.8 %
Test CRC DF0DA70A
Copy CRC DF0DA70A
Copy OK

Track 22

Filename F:\DL\Vienna Art Orchestra - 3-30 Years CD2 European Visionaries Portraits of 13 European Men (2007) [FLAC]\22 - Galileo Galilei The Magic Pendulum.wav

Peak level 99.4 %
Track quality 100.0 %
Test CRC A2F9B2F1
Copy CRC A2F9B2F1
Copy OK

Track 23

Filename F:\DL\Vienna Art Orchestra - 3-30 Years CD2 European Visionaries Portraits of 13 European Men (2007) [FLAC]\23 - Perlude 12.wav

Peak level 92.8 %
Track quality 100.0 %
Test CRC 602443FF
Copy CRC 602443FF
Copy OK

Track 24

Filename F:\DL\Vienna Art Orchestra - 3-30 Years CD2 European Visionaries Portraits of 13 European Men (2007) [FLAC]\24 - John Locke Patterns Of Independence.wav

Peak level 99.4 %
Track quality 100.0 %
Test CRC 34AB3755
Copy CRC 34AB3755
Copy OK

Track 25

Filename F:\DL\Vienna Art Orchestra - 3-30 Years CD2 European Visionaries Portraits of 13 European Men (2007) [FLAC]\25 - Prelude 13.wav

Peak level 96.9 %
Track quality 100.0 %
Test CRC CC1FEF96
Copy CRC CC1FEF96
Copy OK

Track 26

Filename F:\DL\Vienna Art Orchestra - 3-30 Years CD2 European Visionaries Portraits of 13 European Men (2007) [FLAC]\26 - Stephen Hawking Black Holes.wav

Peak level 99.4 %
Track quality 100.0 %
Test CRC 13C0F9F9
Copy CRC 13C0F9F9
Copy OK

No errors occurred

End of status report

Exact Audio Copy V0.99 prebeta 4 from 23. January 2008

EAC extraction logfile from 3. October 2008, 20:13

Vienna Art Orchestra / 3-30 Years CD 3 Visionaries & Dreams (Portraits of 13 Couples)

Used drive : _NEC DVD_RW ND-3500AG Adapter: 0 ID: 1

Read mode : Secure
Utilize accurate stream : Yes
Defeat audio cache : Yes
Make use of C2 pointers : No

Read offset correction : 48
Overread into Lead-In and Lead-Out : No
Fill up missing offset samples with silence : Yes
Delete leading and trailing silent blocks : No
Null samples used in CRC calculations : Yes
Used interface : Native Win32 interface for Win NT & 2000
Gap handling : Appended to previous track

Used output format : User Defined Encoder
Selected bitrate : 128 kBit/s
Quality : High
Add ID3 tag : No
Command line compressor : C:\Program Files\FLAC\flac.exe
Additional command line options : -8 -V -T "ARTIST=%a" -T "TITLE=%t" -T "ALBUM=%g" -T "DATE=%y" -T "TRACKNUMBER=%n" -T "GENRE=%m" -T "COMMENT=EAC FLAC -8" %s


TOC of the extracted CD

Track | Start | Length | Start sector | End sector
––––––––––––––––––––––––––––-
1 | 0:00.00 | 4:37.35 | 0 | 20809
2 | 4:37.35 | 5:26.50 | 20810 | 45309
3 | 10:04.10 | 5:17.35 | 45310 | 69119
4 | 15:21.45 | 5:13.45 | 69120 | 92639
5 | 20:35.15 | 5:30.20 | 92640 | 117409
6 | 26:05.35 | 5:11.70 | 117410 | 140804
7 | 31:17.30 | 4:42.42 | 140805 | 161996
8 | 35:59.72 | 4:48.63 | 161997 | 183659
9 | 40:48.60 | 4:02.37 | 183660 | 201846
10 | 44:51.22 | 4:56.63 | 201847 | 224109
11 | 49:48.10 | 4:23.52 | 224110 | 243886
12 | 54:11.62 | 6:08.08 | 243887 | 271494
13 | 60:19.70 | 7:31.37 | 271495 | 305356
14 | 67:51.32 | 0:09.50 | 305357 | 306081


Track 1

Filename F:\DL\Vienna Art Orchestra - 3-30 Years CD3 Visionaries & Dreams Portraits of 13 Couples\01 - Jean Harlow meets Leonardo da Vinci.wav

Pre-gap length 0:00:02.00

Peak level 99.4 %
Track quality 100.0 %
Test CRC FD7E9A06
Copy CRC FD7E9A06
Copy OK

Track 2

Filename F:\DL\Vienna Art Orchestra - 3-30 Years CD3 Visionaries & Dreams Portraits of 13 Couples\02 - Grace Kelly meets Rene Descartes.wav

Peak level 99.4 %
Track quality 100.0 %
Test CRC A00A907E
Copy CRC A00A907E
Copy OK

Track 3

Filename F:\DL\Vienna Art Orchestra - 3-30 Years CD3 Visionaries & Dreams Portraits of 13 Couples\03 - Rita Hayworth meets Isaac Newton.wav

Peak level 99.4 %
Track quality 99.9 %
Test CRC 7C0EAF85
Copy CRC 7C0EAF85
Copy OK

Track 4

Filename F:\DL\Vienna Art Orchestra - 3-30 Years CD3 Visionaries & Dreams Portraits of 13 Couples\04 - Louise Brooks meets Immanuel Kant.wav

Peak level 99.4 %
Track quality 100.0 %
Test CRC 6AB95F93
Copy CRC 6AB95F93
Copy OK

Track 5

Filename F:\DL\Vienna Art Orchestra - 3-30 Years CD3 Visionaries & Dreams Portraits of 13 Couples\05 - Katharine Hepburn meets Voltaire.wav

Peak level 99.4 %
Track quality 100.0 %
Test CRC C1EA4015
Copy CRC C1EA4015
Copy OK

Track 6

Filename F:\DL\Vienna Art Orchestra - 3-30 Years CD3 Visionaries & Dreams Portraits of 13 Couples\06 - Judy Garland meets Francesco d'Assisi.wav

Peak level 99.4 %
Track quality 100.0 %
Test CRC D6AF1E39
Copy CRC D6AF1E39
Copy OK

Track 7

Filename F:\DL\Vienna Art Orchestra - 3-30 Years CD3 Visionaries & Dreams Portraits of 13 Couples\07 - Lauren Bacall meets Erasmus von Rotterdam.wav

Peak level 97.0 %
Track quality 99.9 %
Test CRC DDE17908
Copy CRC DDE17908
Copy OK

Track 8

Filename F:\DL\Vienna Art Orchestra - 3-30 Years CD3 Visionaries & Dreams Portraits of 13 Couples\08 - Josephine Baker meets Albert Einstein.wav

Peak level 99.4 %
Track quality 100.0 %
Test CRC 92C5AEC1
Copy CRC 92C5AEC1
Copy OK

Track 9

Filename F:\DL\Vienna Art Orchestra - 3-30 Years CD3 Visionaries & Dreams Portraits of 13 Couples\09 - Bette Davis meets Galileo Galilei.wav

Peak level 99.4 %
Track quality 100.0 %
Test CRC FF840BA7
Copy CRC FF840BA7
Copy OK

Track 10

Filename F:\DL\Vienna Art Orchestra - 3-30 Years CD3 Visionaries & Dreams Portraits of 13 Couples\10 - Mac West meets Nicolaus Copernicus.wav

Peak level 99.4 %
Track quality 99.9 %
Test CRC B284BCCD
Copy CRC B284BCCD
Copy OK

Track 11

Filename F:\DL\Vienna Art Orchestra - 3-30 Years CD3 Visionaries & Dreams Portraits of 13 Couples\11 - Ava Gardner meets John Locke.wav

Peak level 99.4 %
Track quality 100.0 %
Test CRC B370FD4D
Copy CRC B370FD4D
Copy OK

Track 12

Filename F:\DL\Vienna Art Orchestra - 3-30 Years CD3 Visionaries & Dreams Portraits of 13 Couples\12 - Marilyn Monroe meets Stephen Hawking.wav

Peak level 99.4 %
Track quality 100.0 %
Test CRC 79C54305
Copy CRC 79C54305
Copy OK

Track 13

Filename F:\DL\Vienna Art Orchestra - 3-30 Years CD3 Visionaries & Dreams Portraits of 13 Couples\13 - Jayne Mansfield meets Sigmund Freud.wav

Peak level 99.4 %
Track quality 100.0 %
Test CRC 1027EC33
Copy CRC 1027EC33
Copy OK

Track 14

Filename F:\DL\Vienna Art Orchestra - 3-30 Years CD3 Visionaries & Dreams Portraits of 13 Couples\14 - Final Statement (about the past and the future).wav

Peak level 25.6 %
Track quality 100.0 %
Test CRC 7EFCE109
Copy CRC 7EFCE109
Copy OK

No errors occurred

End of status report


Vienna Art Orchestra - 3 Trilogy: 30th Anniversary Box (2007) {3CD Box Set EmArcy 0602517228795}


see more Vienna Art Orchestra…


===