Subcategories

Heitor Villa-Lobos - The Complete Choros & Bachianas Brasileiras (2009) {7CD Set BIS-CD-1830-32 rec 1995-2008}

Posted By: ruskaval
Heitor Villa-Lobos - The Complete Choros & Bachianas Brasileiras (2009) {7CD Set BIS-CD-1830-32 rec 1995-2008}

Heitor Villa-Lobos - The Complete Choros & Bachianas Brasileiras (2009) {7CD Set BIS-CD-1830-32 rec 1995-2008}
EAC rip (secure mode) | FLAC (tracks)+CUE+LOG -> 2.11 Gb | MP3 @320 -> 1.20 Gb
Full Artwork @ 300 dpi (png) -> 108 Mb | 5% repair rar
© 1995-2008, 2009 BIS Records AB | BIS-CD-1830-32
Classical / Orchestral / Vocal Music / Chamber Music

Here's an easy call: these are the finest recordings of these works currently available. In reviewing the individual releases, I had perhaps one small reservation concerning the disc containing Bachianas Brasileiras No. 4, but this evaporates in the face of the achievement as a whole. Both cycles, the Bachianas Brasileiras and the Choros, constitute two of the most original, colorful, and enjoyable collections of works by any 20th-century composer. They belong in every serious record collection, and they have never been so consistently well performed and recorded. At last, Villa-Lobos' compatriots have managed to do his quirky genius full justice. The excellent disc of solo guitar music makes a fine and thoughtful bonus, and at seven discs for the price of three, you'd have to be insane not to grab this set immediately.
The life and music of Villa-Lobos is intimately linked with the emergence of Brazil as a nation and cultural force during the first half of the 20th century. This applies especially to the two great cycles that he composed between 1920 and 1945: the 12 Choros and the 9 Bachianas Brasileiras. In the Choros the composer’s stated aim was to achieve a synthesis of the various musical influences of Brazil: the popular urban music (such as the dances of European origin performed by chorões or street musicians), the music brought from Africa by slaves, and the chants and rhythms of the native Indian tribes. The Choros range from solo pieces with durations of a couple of minutes to large-scale scores for expanded symphony orchestra, sometimes comprising choir or solo instruments.

This collection also includes a performance by the Berlin Philharmonic Wind Quintet of Quinteto em forma de choros (a work often mentioned in connection with the Choros even if it does not form part of the cycle) as well as a separate disc containing Anders Miolin’s recording of the complete music for solo guitar, much of which Villa-Lobos composed for the legendary Andres Segovia.

“The Brazilian players sound as if the music is in their blood … and their ensemble is in no way inferior to that of any of their rivals” (Gramophone) and “a world-class ensemble providing an assured blend of lush colours, pulsating rhythms and supple phrasing” (International Record Review).
Heitor Villa-Lobos - The Complete Choros & Bachianas Brasileiras (2009) {7CD Set BIS-CD-1830-32 rec 1995-2008}


musicweb-international.com INFO

Artists

Fabio Zanon (guitar), Cristina Ortiz (piano), Jean Louis Steuerman (piano), Donna Brown (soprano), Nigel Shore (cor anglais) & Anders Miolin (guitar)…..

São Paulo Symphony Orchestra, Choir of the São Paulo Symphony Orchestra & Members of the Berlin Philharmonic Wind Quintet, John Neschling, Roberto Minczuk…..

Works on This Recording

1.
Chôros no 11 for Piano and Orchestra by Heitor Villa-Lobos
Performer: Cristina Ortiz (Piano)
Conductor: John Neschling
Orchestra/Ensemble: Sao Paulo Symphony Orchestra
Period: 20th Century
Written: 1928; Paris, France
2.
Chôros no 5 for Piano "Alma brasileira" by Heitor Villa-Lobos
Performer: Cristina Ortiz (Piano)
Conductor: John Neschling
Period: 20th Century
Written: 1925; Paris, France
3.
Chôros no 7 for Chamber Ensemble by Heitor Villa-Lobos
Conductor: John Neschling
Orchestra/Ensemble: Sao Paulo State Symphony Orchestra Members
Period: 20th Century
Written: 1924; Paris, France
4.
Chôros no 1 for Guitar by Heitor Villa-Lobos
Conductor: John Neschling
Period: 20th Century
Written: 1920; Brazil
Length: 5 Minutes 09 Secs.
5.
Chôros no 4 for Brass by Heitor Villa-Lobos
Conductor: John Neschling
Period: 20th Century
Written: 1926; Paris, France
Length: 5 Minutes 31 Secs.
6.
Chôros no 6 for Orchestra by Heitor Villa-Lobos
Conductor: John Neschling
Period: 20th Century
Written: 1926; Paris, France
Length: 24 Minutes 49 Secs.
7.
Chôros no 8 for 2 Pianos and Orchestra by Heitor Villa-Lobos
Conductor: John Neschling
Period: 20th Century
Written: 1925; Paris, France
Length: 20 Minutes 00 Secs.
8.
Chôros no 9 for Orchestra by Heitor Villa-Lobos
Conductor: John Neschling
Period: 20th Century
Written: 1929; Paris, France
Length: 24 Minutes 19 Secs.
9.
Introduction to Chôros, W 239 by Heitor Villa-Lobos
Performer: Fabio Zanon (Guitar)
Conductor: John Neschling
Orchestra/Ensemble: Sao Paulo Symphony Orchestra
Period: 20th Century
Written: 1929; Brazil
10.
Chôros bis (2) for Violin and Cello by Heitor Villa-Lobos
Performer: Claudio Cruz (Violin), Johannes Gramsch (Cello)
Period: 20th Century
Written: 1928
11.
Chôros no 2 for Flute and Clarinet by Heitor Villa-Lobos
Conductor: John Neschling
Period: 20th Century
Written: 1924; Paris, France
12.
Chôros no 3 for Male Chorus and Winds by Heitor Villa-Lobos
Conductor: John Neschling
Period: 20th Century
Written: 1925; Paris, France
13.
Chôros no 10 for Chorus and Orchestra "Rasga o coracao" by Heitor Villa-Lobos
Conductor: John Neschling
Orchestra/Ensemble: Sao Paulo State Symphony Chorus, Sao Paulo Symphony Orchestra
Period: 20th Century
Written: 1926; Paris, France
14.
Chôros no 12 for Orchestra by Heitor Villa-Lobos
Conductor: John Neschling
Orchestra/Ensemble: Sao Paulo Symphony Orchestra
Period: 20th Century
Written: 1929; Paris, France
15.
Bachianas brasileiras no 5 for Soprano and 8 Cellos by Heitor Villa-Lobos
Performer: Donna Brown (Soprano)
Conductor: Roberto Minczuk
Orchestra/Ensemble: Sao Paulo Symphony Orchestra
Period: 20th Century
Written: 1938-1945; Brazil
16.
Bachianas brasileiras no 4 for Piano by Heitor Villa-Lobos
Performer: Jean Louis Steuerman (Piano)
Period: 20th Century
Written: 1930-1936; Brazil
17.
Bachianas brasileiras no 6 for Flute and Bassoon by Heitor Villa-Lobos
Performer: Alexandre Silvério (Bassoon), Sato Moughalian (Flute)
Conductor: Roberto Minczuk
Period: 20th Century
Written: 1938; Brazil
18.
Bachianas brasileiras no 1 for 8 Cellos by Heitor Villa-Lobos
Conductor: Roberto Minczuk
Orchestra/Ensemble: Sao Paulo Symphony Orchestra
Period: 20th Century
Written: 1930; Brazil
19.
Bachianas brasileiras no 7 for Orchestra by Heitor Villa-Lobos
Conductor: Roberto Minczuk
Period: 20th Century
Written: 1942; Brazil
20.
Bachianas brasileiras no 9 for String Orchestra by Heitor Villa-Lobos
Conductor: Roberto Minczuk
Orchestra/Ensemble: Sao Paulo Symphony Orchestra
Period: 20th Century
Written: 1945; Brazil
21.
Bachianas brasileiras no 9 for Chorus by Heitor Villa-Lobos
Conductor: Roberto Minczuk
Orchestra/Ensemble: Sao Paulo State Symphony Chorus
Period: 20th Century
Written: 1945; Brazil
22.
Bachianas brasileiras no 8 for Orchestra by Heitor Villa-Lobos
Conductor: Roberto Minczuk
Period: 20th Century
Written: 1944; Brazil
23.
Bachianas brasileiras no 2 for Orchestra by Heitor Villa-Lobos
Conductor: Roberto Minczuk
Orchestra/Ensemble: Sao Paulo Symphony Orchestra
Period: 20th Century
Written: 1930; Brazil
Length: 21 Minutes 57 Secs.
24.
Bachianas brasileiras no 3 for Piano and Orchestra by Heitor Villa-Lobos
Conductor: Roberto Minczuk
Period: 20th Century
Written: 1938; Brazil
Length: 27 Minutes 28 Secs.
25.
Bachianas brasileiras no 4 for Orchestra by Heitor Villa-Lobos
Conductor: Roberto Minczuk
Period: 20th Century
Written: 1930-1936; Brazil
Length: 18 Minutes 19 Secs.
26.
Bachianas brasileiras no 2 for Cello and Piano, W 568 by Heitor Villa-Lobos
Conductor: Roberto Minczuk
Period: 20th Century
Written: 1930; Brazil

Exact Audio Copy V0.99 prebeta 5 from 4. May 2009

EAC extraction logfile from 18. February 2010, 14:32

Heitor Villa-Lobos / The Complete Choros and Bachianas Brasileiras [CD1]

Used drive : Optiarc DVD RW AD-7170S Adapter: 4 ID: 0

Read mode : Secure
Utilize accurate stream : Yes
Defeat audio cache : Yes
Make use of C2 pointers : No

Read offset correction : 48
Overread into Lead-In and Lead-Out : No
Fill up missing offset samples with silence : Yes
Delete leading and trailing silent blocks : No
Null samples used in CRC calculations : Yes
Used interface : Native Win32 interface for Win NT & 2000
Gap handling : Appended to previous track

Used output format : User Defined Encoder
Selected bitrate : 128 kBit/s
Quality : High
Add ID3 tag : No
Command line compressor : C:\Program Files (x86)\FLAC\flac.exe
Additional command line options : -8 -V -T "ARTIST=%a" -T "TITLE=%t" -T "ALBUM=%g" -T "DATE=%y" -T "TRACKNUMBER=%n" -T "TOTALTRACKS=%x" -T "GENRE=%m" -T "ALBUM ARTIST=%v" -T "ALBUMARTIST=%v" -T "COMMENT=EAC V0.99 prebeta 5, Secure Mode, Test & Copy, Accurat


TOC of the extracted CD

Track | Start | Length | Start sector | End sector
––––––––––––––––––––––––––––-
1 | 0:00.00 | 13:43.08 | 0 | 61732
2 | 13:43.08 | 4:30.29 | 61733 | 82011
3 | 18:13.37 | 4:27.35 | 82012 | 102071
4 | 22:40.72 | 2:49.17 | 102072 | 114763
5 | 25:30.14 | 3:44.08 | 114764 | 131571
6 | 29:14.22 | 13:09.71 | 131572 | 190817
7 | 42:24.18 | 37:34.11 | 190818 | 359878


Track 1

Filename C:\EACrips\01 - Introduction to the Choros.wav

Pre-gap length 0:00:02.00

Peak level 60.3 %
Track quality 100.0 %
Test CRC E250BFAF
Copy CRC E250BFAF
Accurately ripped (confidence 4) [C0F318F5]
Copy OK

Track 2

Filename C:\EACrips\02 - Two Choros (bis) - I. Modere.wav

Peak level 35.5 %
Track quality 100.0 %
Test CRC 522B59CF
Copy CRC 522B59CF
Accurately ripped (confidence 4) [729CE95D]
Copy OK

Track 3

Filename C:\EACrips\03 - Two Choros (bis) - II. Lent - Moins - Lent.wav

Peak level 35.4 %
Track quality 100.0 %
Test CRC 7643AF26
Copy CRC 7643AF26
Accurately ripped (confidence 4) [F617B47B]
Copy OK

Track 4

Filename C:\EACrips\04 - Choros No. 2.wav

Peak level 29.4 %
Track quality 100.0 %
Test CRC 2E7C505E
Copy CRC 2E7C505E
Accurately ripped (confidence 4) [F57A143E]
Copy OK

Track 5

Filename C:\EACrips\05 - Choros No. 3, 'Pica-Pau'.wav

Peak level 58.7 %
Track quality 99.9 %
Test CRC B24D4BD3
Copy CRC B24D4BD3
Accurately ripped (confidence 4) [C8170676]
Copy OK

Track 6

Filename C:\EACrips\06 - Choros No. 10, 'Rasga o Coracao'.wav

Peak level 62.4 %
Track quality 99.9 %
Test CRC 47658151
Copy CRC 47658151
Accurately ripped (confidence 4) [60785B6D]
Copy OK

Track 7

Filename C:\EACrips\07 - Choros No. 12.wav

Peak level 100.0 %
Track quality 100.0 %
Test CRC 1BA8AB33
Copy CRC 1BA8AB33
Accurately ripped (confidence 3) [50DA39AD]
Copy OK


All tracks accurately ripped

No errors occurred

End of status report


Exact Audio Copy V0.99 prebeta 5 from 4. May 2009

EAC extraction logfile from 18. February 2010, 15:53

Heitor Villa-Lobos / The Complete Choros and Bachianas Brasileiras [CD2]

Used drive : Optiarc DVD RW AD-7170S Adapter: 4 ID: 0

Read mode : Secure
Utilize accurate stream : Yes
Defeat audio cache : Yes
Make use of C2 pointers : No

Read offset correction : 48
Overread into Lead-In and Lead-Out : No
Fill up missing offset samples with silence : Yes
Delete leading and trailing silent blocks : No
Null samples used in CRC calculations : Yes
Used interface : Native Win32 interface for Win NT & 2000
Gap handling : Appended to previous track

Used output format : User Defined Encoder
Selected bitrate : 128 kBit/s
Quality : High
Add ID3 tag : No
Command line compressor : C:\Program Files (x86)\FLAC\flac.exe
Additional command line options : -8 -V -T "ARTIST=%a" -T "TITLE=%t" -T "ALBUM=%g" -T "DATE=%y" -T "TRACKNUMBER=%n" -T "TOTALTRACKS=%x" -T "GENRE=%m" -T "ALBUM ARTIST=%v" -T "ALBUMARTIST=%v" -T "COMMENT=EAC V0.99 prebeta 5, Secure Mode, Test & Copy, Accurat


TOC of the extracted CD

Track | Start | Length | Start sector | End sector
––––––––––––––––––––––––––––-
1 | 0:00.00 | 25:07.54 | 0 | 113078
2 | 25:07.54 | 5:19.67 | 113079 | 137070
3 | 30:27.46 | 20:17.05 | 137071 | 228350
4 | 50:44.51 | 5:41.39 | 228351 | 253964
5 | 56:26.15 | 24:51.60 | 253965 | 365849


Track 1

Filename C:\EACrips\01 - Choros No. 6.wav

Pre-gap length 0:00:02.00

Peak level 100.0 %
Track quality 100.0 %
Test CRC 1ED6426B
Copy CRC 1ED6426B
Accurately ripped (confidence 7) [42182DC9]
Copy OK

Track 2

Filename C:\EACrips\02 - Choros No. 1.wav

Peak level 10.6 %
Track quality 100.0 %
Test CRC 05EF345D
Copy CRC 05EF345D
Accurately ripped (confidence 8) [F73047E5]
Copy OK

Track 3

Filename C:\EACrips\03 - Choros No. 8.wav

Peak level 60.6 %
Track quality 100.0 %
Test CRC 04ACAE1A
Copy CRC 04ACAE1A
Accurately ripped (confidence 8) [4BC8AFB6]
Copy OK

Track 4

Filename C:\EACrips\04 - Choros No. 4.wav

Peak level 57.8 %
Track quality 100.0 %
Test CRC 5882DEFB
Copy CRC 5882DEFB
Accurately ripped (confidence 8) [93035239]
Copy OK

Track 5

Filename C:\EACrips\05 - Choros No. 9.wav

Peak level 81.4 %
Track quality 100.0 %
Test CRC 41D82692
Copy CRC 41D82692
Accurately ripped (confidence 8) [281B8CA6]
Copy OK


All tracks accurately ripped

No errors occurred

End of status report


Exact Audio Copy V0.99 prebeta 5 from 4. May 2009

EAC extraction logfile from 18. February 2010, 16:32

Heitor Villa-Lobos / The Complete Choros and Bachianas Brasileiras [CD3]

Used drive : Optiarc DVD RW AD-7170S Adapter: 4 ID: 0

Read mode : Secure
Utilize accurate stream : Yes
Defeat audio cache : Yes
Make use of C2 pointers : No

Read offset correction : 48
Overread into Lead-In and Lead-Out : No
Fill up missing offset samples with silence : Yes
Delete leading and trailing silent blocks : No
Null samples used in CRC calculations : Yes
Used interface : Native Win32 interface for Win NT & 2000
Gap handling : Appended to previous track

Used output format : User Defined Encoder
Selected bitrate : 128 kBit/s
Quality : High
Add ID3 tag : No
Command line compressor : C:\Program Files (x86)\FLAC\flac.exe
Additional command line options : -8 -V -T "ARTIST=%a" -T "TITLE=%t" -T "ALBUM=%g" -T "DATE=%y" -T "TRACKNUMBER=%n" -T "TOTALTRACKS=%x" -T "GENRE=%m" -T "ALBUM ARTIST=%v" -T "ALBUMARTIST=%v" -T "COMMENT=EAC V0.99 prebeta 5, Secure Mode, Test & Copy, Accurat


TOC of the extracted CD

Track | Start | Length | Start sector | End sector
––––––––––––––––––––––––––––-
1 | 0:00.00 | 21:07.32 | 0 | 95056
2 | 21:07.32 | 15:39.13 | 95057 | 165494
3 | 36:46.45 | 26:21.27 | 165495 | 284096
4 | 63:07.72 | 5:08.50 | 284097 | 307246
5 | 68:16.47 | 9:50.22 | 307247 | 351518


Track 1

Filename C:\EACrips\01 - Choros No. 11 - I. Allegro preciso ma non troppo.wav

Pre-gap length 0:00:02.00

Peak level 99.9 %
Track quality 100.0 %
Test CRC 5BCB370F
Copy CRC 5BCB370F
Accurately ripped (confidence 8) [428279A1]
Copy OK

Track 2

Filename C:\EACrips\02 - Choros No. 11 - II. Adagio.wav

Peak level 76.4 %
Track quality 100.0 %
Test CRC C78A0AD6
Copy CRC C78A0AD6
Accurately ripped (confidence 8) [D9CE606E]
Copy OK

Track 3

Filename C:\EACrips\03 - Choros No. 11 - III. Allegro moderato.wav

Peak level 93.8 %
Track quality 100.0 %
Test CRC 561B8C23
Copy CRC 561B8C23
Accurately ripped (confidence 8) [DBE2ED64]
Copy OK

Track 4

Filename C:\EACrips\04 - Choros No. 5, 'Alma Brasileira'.wav

Peak level 82.5 %
Track quality 100.0 %
Test CRC E11C4726
Copy CRC E11C4726
Accurately ripped (confidence 8) [51EBA6C5]
Copy OK

Track 5

Filename C:\EACrips\05 - Choros No. 7, 'Settimino'.wav

Peak level 54.3 %
Track quality 100.0 %
Test CRC 1A50AE7D
Copy CRC 1A50AE7D
Accurately ripped (confidence 8) [65669C8A]
Copy OK


All tracks accurately ripped

No errors occurred

End of status report


Exact Audio Copy V0.99 prebeta 5 from 4. May 2009

EAC extraction logfile from 19. February 2010, 10:31

Heitor Villa-Lobos / The Complete Choros and Bachianas Brasileiras [CD4]

Used drive : Optiarc DVD RW AD-7170S Adapter: 4 ID: 0

Read mode : Secure
Utilize accurate stream : Yes
Defeat audio cache : Yes
Make use of C2 pointers : No

Read offset correction : 48
Overread into Lead-In and Lead-Out : No
Fill up missing offset samples with silence : Yes
Delete leading and trailing silent blocks : No
Null samples used in CRC calculations : Yes
Used interface : Native Win32 interface for Win NT & 2000
Gap handling : Appended to previous track

Used output format : User Defined Encoder
Selected bitrate : 128 kBit/s
Quality : High
Add ID3 tag : No
Command line compressor : C:\Program Files (x86)\FLAC\flac.exe
Additional command line options : -8 -V -T "ARTIST=%a" -T "TITLE=%t" -T "ALBUM=%g" -T "DATE=%y" -T "TRACKNUMBER=%n" -T "TOTALTRACKS=%x" -T "GENRE=%m" -T "ALBUM ARTIST=%v" -T "ALBUMARTIST=%v" -T "COMMENT=EAC V0.99 prebeta 5, Secure Mode, Test & Copy, Accurat


TOC of the extracted CD

Track | Start | Length | Start sector | End sector
––––––––––––––––––––––––––––-
1 | 0:00.00 | 6:33.18 | 0 | 29492
2 | 6:33.18 | 4:44.54 | 29493 | 50846
3 | 11:17.72 | 7:03.59 | 50847 | 82630
4 | 18:21.56 | 3:52.22 | 82631 | 100052
5 | 22:14.03 | 5:04.61 | 100053 | 122913
6 | 27:18.64 | 3:03.73 | 122914 | 136711
7 | 30:22.62 | 3:43.74 | 136712 | 153510
8 | 34:06.61 | 5:34.64 | 153511 | 178624
9 | 39:41.50 | 6:31.42 | 178625 | 207991
10 | 46:13.17 | 8:37.63 | 207992 | 246829
11 | 54:51.05 | 4:33.33 | 246830 | 267337


Track 1

Filename C:\EACrips\01 - Bachianas Brasileiras No. 5 - I. Aria (Cantilena).wav

Pre-gap length 0:00:02.00

Peak level 66.5 %
Track quality 100.0 %
Test CRC A4D70D70
Copy CRC A4D70D70
Accurately ripped (confidence 4) [52DE0C02]
Copy OK

Track 2

Filename C:\EACrips\02 - Bachianas Brasileiras No. 5 - II. Danca (Martelo).wav

Peak level 89.8 %
Track quality 100.0 %
Test CRC 303F3F48
Copy CRC 303F3F48
Accurately ripped (confidence 4) [90145A2C]
Copy OK

Track 3

Filename C:\EACrips\03 - Bachianas Brasileiras No. 4 - I. Preludio (Introducao).wav

Peak level 43.2 %
Track quality 99.7 %
Test CRC 4CC749AE
Copy CRC 4CC749AE
Accurately ripped (confidence 4) [7FB0F2EA]
Copy OK

Track 4

Filename C:\EACrips\04 - Bachianas Brasileiras No. 4 - II. Coral (Canto do sertao).wav

Peak level 47.5 %
Track quality 100.0 %
Test CRC 26CD0558
Copy CRC 26CD0558
Accurately ripped (confidence 4) [876CE98F]
Copy OK

Track 5

Filename C:\EACrips\05 - Bachianas Brasileiras No. 4 - III. Aria (Cantiga).wav

Peak level 42.9 %
Track quality 99.9 %
Test CRC 609ED564
Copy CRC 609ED564
Accurately ripped (confidence 4) [D9359E53]
Copy OK

Track 6

Filename C:\EACrips\06 - Bachianas Brasileiras No. 4 - IV. Danca (Miudinho).wav

Peak level 43.0 %
Track quality 99.9 %
Test CRC 320A5D5F
Copy CRC 320A5D5F
Accurately ripped (confidence 4) [736260E0]
Copy OK

Track 7

Filename C:\EACrips\07 - Bachianas Brasileiras No. 6 - I. Aria (Choro).wav

Peak level 24.5 %
Track quality 100.0 %
Test CRC 12196F91
Copy CRC 12196F91
Accurately ripped (confidence 4) [DF784E0B]
Copy OK

Track 8

Filename C:\EACrips\08 - Bachianas Brasileiras No. 6 - II. Fantasia.wav

Peak level 26.6 %
Track quality 100.0 %
Test CRC 2BA459DC
Copy CRC 2BA459DC
Accurately ripped (confidence 4) [4B4AEB24]
Copy OK

Track 9

Filename C:\EACrips\09 - Bachianas Brasileiras No. 1 - I. Introducao (Embolada).wav

Peak level 51.6 %
Track quality 100.0 %
Test CRC 8550E8FE
Copy CRC 8550E8FE
Accurately ripped (confidence 4) [E9452E36]
Copy OK

Track 10

Filename C:\EACrips\10 - Bachianas Brasileiras No. 1 - II. Preludio (Modinha).wav

Peak level 35.1 %
Track quality 100.0 %
Test CRC 5D33A17A
Copy CRC 5D33A17A
Accurately ripped (confidence 4) [07248B0D]
Copy OK

Track 11

Filename C:\EACrips\11 - Bachianas Brasileiras No. 1 - III. Fuga (Conversa).wav

Peak level 39.0 %
Track quality 100.0 %
Test CRC BEAE7541
Copy CRC BEAE7541
Accurately ripped (confidence 4) [2C1AF310]
Copy OK


All tracks accurately ripped

No errors occurred

End of status report


Exact Audio Copy V0.99 prebeta 5 from 4. May 2009

EAC extraction logfile from 18. February 2010, 17:34

Heitor Villa-Lobos / The Complete Choros and Bachianas Brasileiras [CD5]

Used drive : Optiarc DVD RW AD-7170S Adapter: 4 ID: 0

Read mode : Secure
Utilize accurate stream : Yes
Defeat audio cache : Yes
Make use of C2 pointers : No

Read offset correction : 48
Overread into Lead-In and Lead-Out : No
Fill up missing offset samples with silence : Yes
Delete leading and trailing silent blocks : No
Null samples used in CRC calculations : Yes
Used interface : Native Win32 interface for Win NT & 2000
Gap handling : Appended to previous track

Used output format : User Defined Encoder
Selected bitrate : 128 kBit/s
Quality : High
Add ID3 tag : No
Command line compressor : C:\Program Files (x86)\FLAC\flac.exe
Additional command line options : -8 -V -T "ARTIST=%a" -T "TITLE=%t" -T "ALBUM=%g" -T "DATE=%y" -T "TRACKNUMBER=%n" -T "TOTALTRACKS=%x" -T "GENRE=%m" -T "ALBUM ARTIST=%v" -T "ALBUMARTIST=%v" -T "COMMENT=EAC V0.99 prebeta 5, Secure Mode, Test & Copy, Accurat


TOC of the extracted CD

Track | Start | Length | Start sector | End sector
––––––––––––––––––––––––––––-
1 | 0:00.00 | 7:08.40 | 0 | 32139
2 | 7:08.40 | 5:27.45 | 32140 | 56709
3 | 12:36.10 | 5:08.17 | 56710 | 79826
4 | 17:44.27 | 4:53.72 | 79827 | 101873
5 | 22:38.24 | 7:05.50 | 101874 | 133798
6 | 29:43.74 | 7:12.60 | 133799 | 166258
7 | 36:56.59 | 7:28.37 | 166259 | 199895
8 | 44:25.21 | 6:21.68 | 199896 | 228538
9 | 50:47.14 | 4:11.21 | 228539 | 247384
10 | 54:58.35 | 4:35.17 | 247385 | 268026
11 | 59:33.52 | 6:02.35 | 268027 | 295211
12 | 65:36.12 | 4:20.64 | 295212 | 314775


Track 1

Filename C:\EACrips\01 - Bachianas Brasileiras No. 2 - I. Preludio (O canto do capadocio).wav

Pre-gap length 0:00:02.00

Peak level 26.3 %
Track quality 100.0 %
Test CRC 469E3965
Copy CRC 469E3965
Accurately ripped (confidence 5) [27725FAE]
Copy OK

Track 2

Filename C:\EACrips\02 - Bachianas Brasileiras No. 2 - II. Aria (O canto da nossa terra).wav

Peak level 40.6 %
Track quality 100.0 %
Test CRC FF03A3A8
Copy CRC FF03A3A8
Accurately ripped (confidence 5) [D6EAA7A9]
Copy OK

Track 3

Filename C:\EACrips\03 - Bachianas Brasileiras No. 2 - III. Danca (Lembranca do sertao).wav

Peak level 60.4 %
Track quality 100.0 %
Test CRC 7D5FBF96
Copy CRC 7D5FBF96
Accurately ripped (confidence 5) [226B6AD2]
Copy OK

Track 4

Filename C:\EACrips\04 - Bachianas Brasileiras No. 2 - IV. Toccata (O trenzinho do caipira).wav

Peak level 63.9 %
Track quality 100.0 %
Test CRC 504A21E3
Copy CRC 504A21E3
Accurately ripped (confidence 5) [2762E69B]
Copy OK

Track 5

Filename C:\EACrips\05 - Bachianas Brasileiras No. 3 - I. Preludio (Ponteio).wav

Peak level 62.3 %
Track quality 100.0 %
Test CRC 2794E4E1
Copy CRC 2794E4E1
Accurately ripped (confidence 5) [89C2A321]
Copy OK

Track 6

Filename C:\EACrips\06 - Bachianas Brasileiras No. 3 - II. Fantasia (Devaneio).wav

Peak level 80.8 %
Track quality 100.0 %
Test CRC 905BC08F
Copy CRC 905BC08F
Accurately ripped (confidence 5) [2A78219D]
Copy OK

Track 7

Filename C:\EACrips\07 - Bachianas Brasileiras No. 3 - III. Aria (Modinha).wav

Peak level 67.4 %
Track quality 100.0 %
Test CRC B3FCA6EB
Copy CRC B3FCA6EB
Accurately ripped (confidence 5) [5CFBAA41]
Copy OK

Track 8

Filename C:\EACrips\08 - Bachianas Brasileiras No. 3 - IV. Toccata (Picapau).wav

Peak level 76.1 %
Track quality 100.0 %
Test CRC 8F02ADEB
Copy CRC 8F02ADEB
Accurately ripped (confidence 5) [AC8DB64B]
Copy OK

Track 9

Filename C:\EACrips\09 - Bachianas Brasileiras No. 4 - I. Preludio (Introducao).wav

Peak level 20.5 %
Track quality 100.0 %
Test CRC 5054A99D
Copy CRC 5054A99D
Accurately ripped (confidence 5) [D783F01B]
Copy OK

Track 10

Filename C:\EACrips\10 - Bachianas Brasileiras No. 4 - II. Coral (Canto do sertao).wav

Peak level 97.7 %
Track quality 100.0 %
Test CRC BC52FDA5
Copy CRC BC52FDA5
Accurately ripped (confidence 5) [46070ECF]
Copy OK

Track 11

Filename C:\EACrips\11 - Bachianas Brasileiras No. 4 - III. Aria (Cantiga).wav

Peak level 42.6 %
Track quality 100.0 %
Test CRC B611C2BD
Copy CRC B611C2BD
Accurately ripped (confidence 5) [C261360B]
Copy OK

Track 12

Filename C:\EACrips\12 - Bachianas Brasileiras No. 4 - IV. Danca (Miudinho).wav

Peak level 75.8 %
Track quality 100.0 %
Test CRC 238E01CC
Copy CRC 238E01CC
Accurately ripped (confidence 4) [1CB31296]
Copy OK


All tracks accurately ripped

No errors occurred

End of status report


Exact Audio Copy V0.99 prebeta 5 from 4. May 2009

EAC extraction logfile from 18. February 2010, 19:34

Heitor Villa-Lobos / The Complete Choros and Bachianas Brasileiras [CD6]

Used drive : Optiarc DVD RW AD-7170S Adapter: 4 ID: 0

Read mode : Secure
Utilize accurate stream : Yes
Defeat audio cache : Yes
Make use of C2 pointers : No

Read offset correction : 48
Overread into Lead-In and Lead-Out : No
Fill up missing offset samples with silence : Yes
Delete leading and trailing silent blocks : No
Null samples used in CRC calculations : Yes
Used interface : Native Win32 interface for Win NT & 2000
Gap handling : Appended to previous track

Used output format : User Defined Encoder
Selected bitrate : 128 kBit/s
Quality : High
Add ID3 tag : No
Command line compressor : C:\Program Files (x86)\FLAC\flac.exe
Additional command line options : -8 -V -T "ARTIST=%a" -T "TITLE=%t" -T "ALBUM=%g" -T "DATE=%y" -T "TRACKNUMBER=%n" -T "TOTALTRACKS=%x" -T "GENRE=%m" -T "ALBUM ARTIST=%v" -T "ALBUMARTIST=%v" -T "COMMENT=EAC V0.99 prebeta 5, Secure Mode, Test & Copy, Accurat


TOC of the extracted CD

Track | Start | Length | Start sector | End sector
––––––––––––––––––––––––––––-
1 | 0:00.00 | 7:20.74 | 0 | 33073
2 | 7:20.74 | 4:29.31 | 33074 | 53279
3 | 11:50.30 | 7:03.48 | 53280 | 85052
4 | 18:54.03 | 7:21.08 | 85053 | 118135
5 | 26:15.11 | 2:08.50 | 118136 | 127785
6 | 28:23.61 | 6:14.72 | 127786 | 155907
7 | 34:38.58 | 2:01.55 | 155908 | 165037
8 | 36:40.38 | 6:43.16 | 165038 | 195278
9 | 43:23.54 | 5:18.35 | 195279 | 219163
10 | 48:42.14 | 7:39.61 | 219164 | 253649
11 | 56:22.00 | 5:37.48 | 253650 | 278972
12 | 61:59.48 | 5:33.01 | 278973 | 303948
13 | 67:32.49 | 10:15.32 | 303949 | 350105


Track 1

Filename C:\EACrips\01 - Bachianas Brasileiras No. 7 - I. Preludio (Ponteio).wav

Pre-gap length 0:00:02.00

Peak level 49.0 %
Track quality 99.9 %
Test CRC AAEB91F2
Copy CRC AAEB91F2
Accurately ripped (confidence 2) [DCC822B6]
Copy OK

Track 2

Filename C:\EACrips\02 - Bachianas Brasileiras No. 7 - II. Giga (Quadrilha caipira).wav

Peak level 52.0 %
Track quality 100.0 %
Test CRC A3B20A1D
Copy CRC A3B20A1D
Accurately ripped (confidence 2) [50B5B2C5]
Copy OK

Track 3

Filename C:\EACrips\03 - Bachianas Brasileiras No. 7 - III. Toccata (Desafio).wav

Peak level 38.9 %
Track quality 100.0 %
Test CRC F81A4F54
Copy CRC F81A4F54
Accurately ripped (confidence 2) [F4307115]
Copy OK

Track 4

Filename C:\EACrips\04 - Bachianas Brasileiras No. 7 - IV. Fuga (Conversa).wav

Peak level 86.0 %
Track quality 100.0 %
Test CRC 7399E489
Copy CRC 7399E489
Accurately ripped (confidence 2) [6AAA936F]
Copy OK

Track 5

Filename C:\EACrips\05 - Bachianas Brasileiras No. 9 (for string orchestra) - I. Preludio.wav

Peak level 34.6 %
Track quality 100.0 %
Test CRC 570A8B0B
Copy CRC 570A8B0B
Accurately ripped (confidence 2) [1E7637C3]
Copy OK

Track 6

Filename C:\EACrips\06 - Bachianas Brasileiras No. 9 (for string orchestra) - II. Fuga.wav

Peak level 48.3 %
Track quality 100.0 %
Test CRC 87E56CFE
Copy CRC 87E56CFE
Accurately ripped (confidence 2) [747DBE35]
Copy OK

Track 7

Filename C:\EACrips\07 - Bachianas Brasileiras No. 9 (for choir a cappella) - I. Preludio.wav

Peak level 56.6 %
Track quality 100.0 %
Test CRC CAC9DF4E
Copy CRC CAC9DF4E
Accurately ripped (confidence 2) [30CFEE22]
Copy OK

Track 8

Filename C:\EACrips\08 - Bachianas Brasileiras No. 9 (for choir a cappella) - II. Fuga.wav

Peak level 100.0 %
Track quality 100.0 %
Test CRC C5B41ABE
Copy CRC C5B41ABE
Accurately ripped (confidence 2) [C2E25A91]
Copy OK

Track 9

Filename C:\EACrips\09 - Bachianas Brasileiras No. 8 - I. Preludio.wav

Peak level 77.3 %
Track quality 99.9 %
Test CRC 00C5EFA4
Copy CRC 00C5EFA4
Accurately ripped (confidence 2) [053AA826]
Copy OK

Track 10

Filename C:\EACrips\10 - Bachianas Brasileiras No. 8 - II. Aria (Modinha).wav

Peak level 61.3 %
Track quality 100.0 %
Test CRC BB09B05A
Copy CRC BB09B05A
Accurately ripped (confidence 2) [3A43571A]
Copy OK

Track 11

Filename C:\EACrips\11 - Bachianas Brasileiras No. 8 - III. Toccata (Catira batida).wav

Peak level 54.8 %
Track quality 100.0 %
Test CRC EF7326BF
Copy CRC EF7326BF
Accurately ripped (confidence 2) [5E6B399A]
Copy OK

Track 12

Filename C:\EACrips\12 - Bachianas Brasileiras No. 8 - IV. Fuga.wav

Peak level 93.6 %
Track quality 100.0 %
Test CRC 71FE5442
Copy CRC 71FE5442
Accurately ripped (confidence 2) [CA463FBB]
Copy OK

Track 13

Filename C:\EACrips\13 - Qinteto em forma de Choros.wav

Peak level 46.6 %
Track quality 100.0 %
Test CRC 8C78E040
Copy CRC 8C78E040
Accurately ripped (confidence 2) [ECA062C9]
Copy OK


All tracks accurately ripped

No errors occurred

End of status report


Exact Audio Copy V0.99 prebeta 5 from 4. May 2009

EAC extraction logfile from 18. February 2010, 20:20

Heitor Villa-Lobos / The Complete Choros and Bachianas Brasileiras [CD7]

Used drive : Optiarc DVD RW AD-7170S Adapter: 4 ID: 0

Read mode : Secure
Utilize accurate stream : Yes
Defeat audio cache : Yes
Make use of C2 pointers : No

Read offset correction : 48
Overread into Lead-In and Lead-Out : No
Fill up missing offset samples with silence : Yes
Delete leading and trailing silent blocks : No
Null samples used in CRC calculations : Yes
Used interface : Native Win32 interface for Win NT & 2000
Gap handling : Appended to previous track

Used output format : User Defined Encoder
Selected bitrate : 128 kBit/s
Quality : High
Add ID3 tag : No
Command line compressor : C:\Program Files (x86)\FLAC\flac.exe
Additional command line options : -8 -V -T "ARTIST=%a" -T "TITLE=%t" -T "ALBUM=%g" -T "DATE=%y" -T "TRACKNUMBER=%n" -T "TOTALTRACKS=%x" -T "GENRE=%m" -T "ALBUM ARTIST=%v" -T "ALBUMARTIST=%v" -T "COMMENT=EAC V0.99 prebeta 5, Secure Mode, Test & Copy, Accurat


TOC of the extracted CD

Track | Start | Length | Start sector | End sector
––––––––––––––––––––––––––––-
1 | 0:00.00 | 4:47.00 | 0 | 21524
2 | 4:47.00 | 3:05.00 | 21525 | 35399
3 | 7:52.00 | 3:20.00 | 35400 | 50399
4 | 11:12.00 | 3:10.00 | 50400 | 64649
5 | 14:22.00 | 3:46.00 | 64650 | 81599
6 | 18:08.00 | 3:00.00 | 81600 | 95099
7 | 21:08.00 | 3:30.00 | 95100 | 110849
8 | 24:38.00 | 3:54.00 | 110850 | 128399
9 | 28:32.00 | 5:07.00 | 128400 | 151424
10 | 33:39.00 | 4:50.00 | 151425 | 173174
11 | 38:29.00 | 2:25.00 | 173175 | 184049
12 | 40:54.00 | 1:48.00 | 184050 | 192149
13 | 42:42.00 | 1:41.00 | 192150 | 199724
14 | 44:23.00 | 3:48.00 | 199725 | 216824
15 | 48:11.00 | 3:18.00 | 216825 | 231674
16 | 51:29.00 | 2:07.00 | 231675 | 241199
17 | 53:36.00 | 2:44.00 | 241200 | 253499
18 | 56:20.00 | 2:57.00 | 253500 | 266774
19 | 59:17.00 | 3:11.00 | 266775 | 281099
20 | 62:28.00 | 3:44.00 | 281100 | 297899
21 | 66:12.00 | 4:10.00 | 297900 | 316649
22 | 70:22.00 | 2:53.00 | 316650 | 329624
23 | 73:15.00 | 5:13.00 | 329625 | 353099


Track 1

Filename C:\EACrips\01 - Five Preludes - I. Andantino expressivo.wav

Pre-gap length 0:00:02.00

Peak level 47.7 %
Track quality 100.0 %
Test CRC E5E975E6
Copy CRC E5E975E6
Accurately ripped (confidence 2) [5B52C66D]
Copy OK

Track 2

Filename C:\EACrips\02 - Five Preludes - II. Andantino.wav

Peak level 48.5 %
Track quality 100.0 %
Test CRC 77429024
Copy CRC 77429024
Accurately ripped (confidence 2) [D050BC1A]
Copy OK

Track 3

Filename C:\EACrips\03 - Five Preludes - III. Andante.wav

Peak level 45.6 %
Track quality 100.0 %
Test CRC 420342CF
Copy CRC 420342CF
Accurately ripped (confidence 2) [3858AED8]
Copy OK

Track 4

Filename C:\EACrips\04 - Five Preludes - IV. Lento.wav

Peak level 36.0 %
Track quality 100.0 %
Test CRC 5DCA2E20
Copy CRC 5DCA2E20
Accurately ripped (confidence 2) [D4543D65]
Copy OK

Track 5

Filename C:\EACrips\05 - Five Preludes - V. Poco animato.wav

Peak level 34.2 %
Track quality 100.0 %
Test CRC 51855516
Copy CRC 51855516
Accurately ripped (confidence 2) [73960AD4]
Copy OK

Track 6

Filename C:\EACrips\06 - Suite populaire bresilienne - Mazurka-choro.wav

Peak level 42.4 %
Track quality 99.9 %
Test CRC B9AE29D2
Copy CRC B9AE29D2
Accurately ripped (confidence 2) [D9E239E2]
Copy OK

Track 7

Filename C:\EACrips\07 - Suite populaire bresilienne - Schottish-choro.wav

Peak level 51.3 %
Track quality 100.0 %
Test CRC 1FD9DE32
Copy CRC 1FD9DE32
Accurately ripped (confidence 2) [0AECC18A]
Copy OK

Track 8

Filename C:\EACrips\08 - Suite populaire bresilienne - Valsa-choro.wav

Peak level 47.6 %
Track quality 100.0 %
Test CRC 8F377B80
Copy CRC 8F377B80
Accurately ripped (confidence 2) [C1283327]
Copy OK

Track 9

Filename C:\EACrips\09 - Suite populaire bresilienne - Gavota-choro.wav

Peak level 32.5 %
Track quality 100.0 %
Test CRC A1732996
Copy CRC A1732996
Accurately ripped (confidence 2) [594A346E]
Copy OK

Track 10

Filename C:\EACrips\10 - Suite populaire bresilienne - Chorinho.wav

Peak level 30.7 %
Track quality 100.0 %
Test CRC 66E527CE
Copy CRC 66E527CE
Accurately ripped (confidence 2) [D23AEFD7]
Copy OK

Track 11

Filename C:\EACrips\11 - Twelve Etudes - I. Allegro non troppo.wav

Peak level 24.3 %
Track quality 100.0 %
Test CRC 8C0329BA
Copy CRC 8C0329BA
Accurately ripped (confidence 2) [90B1EAA2]
Copy OK

Track 12

Filename C:\EACrips\12 - Twelve Etudes - II. Allegro.wav

Peak level 42.5 %
Track quality 100.0 %
Test CRC 5909257C
Copy CRC 5909257C
Accurately ripped (confidence 2) [DF2C6B83]
Copy OK

Track 13

Filename C:\EACrips\13 - Twelve Etudes - III. Allegro moderato.wav

Peak level 34.2 %
Track quality 100.0 %
Test CRC C662C65E
Copy CRC C662C65E
Accurately ripped (confidence 2) [B04065DF]
Copy OK

Track 14

Filename C:\EACrips\14 - Twelve Etudes - IV. Andante.wav

Peak level 58.0 %
Track quality 100.0 %
Test CRC A2B6634C
Copy CRC A2B6634C
Accurately ripped (confidence 2) [D5922F8C]
Copy OK

Track 15

Filename C:\EACrips\15 - Twelve Etudes - V. Andantino.wav

Peak level 44.2 %
Track quality 100.0 %
Test CRC DD081FD2
Copy CRC DD081FD2
Accurately ripped (confidence 2) [93C5FE60]
Copy OK

Track 16

Filename C:\EACrips\16 - Twelve Etudes - VI. Poco allegro.wav

Peak level 55.4 %
Track quality 100.0 %
Test CRC DD90786C
Copy CRC DD90786C
Accurately ripped (confidence 2) [4C09E1F4]
Copy OK

Track 17

Filename C:\EACrips\17 - Twelve Etudes - VII. Tres anime.wav

Peak level 39.7 %
Track quality 100.0 %
Test CRC 4D198602
Copy CRC 4D198602
Accurately ripped (confidence 2) [508F8CC1]
Copy OK

Track 18

Filename C:\EACrips\18 - Twelve Etudes - VIII. Modere.wav

Peak level 30.8 %
Track quality 99.9 %
Test CRC D970D0D5
Copy CRC D970D0D5
Accurately ripped (confidence 2) [D09318E9]
Copy OK

Track 19

Filename C:\EACrips\19 - Twelve Etudes - IX. Tres peu anime.wav

Peak level 30.9 %
Track quality 100.0 %
Test CRC 4588C32C
Copy CRC 4588C32C
Accurately ripped (confidence 2) [E5037D1C]
Copy OK

Track 20

Filename C:\EACrips\20 - Twelve Etudes - X. Tres anime.wav

Peak level 36.8 %
Track quality 100.0 %
Test CRC F6B726B8
Copy CRC F6B726B8
Accurately ripped (confidence 2) [D6352F34]
Copy OK

Track 21

Filename C:\EACrips\21 - Twelve Etudes - XI. Lent.wav

Peak level 44.4 %
Track quality 100.0 %
Test CRC C2D6A8D4
Copy CRC C2D6A8D4
Accurately ripped (confidence 2) [C270E1C7]
Copy OK

Track 22

Filename C:\EACrips\22 - Twelve Etudes - XII. Anime.wav

Peak level 82.2 %
Track quality 99.9 %
Test CRC 8DDA6865
Copy CRC 8DDA6865
Accurately ripped (confidence 2) [BF198248]
Copy OK

Track 23

Filename C:\EACrips\23 - Choros No. 1.wav

Peak level 54.4 %
Track quality 100.0 %
Test CRC 9F01E43D
Copy CRC 9F01E43D
Accurately ripped (confidence 2) [9BB7ECE0]
Copy OK


All tracks accurately ripped

No errors occurred

End of status report




Heitor Villa-Lobos - The Complete Choros & Bachianas Brasileiras (2009) {7CD Set BIS-CD-1830-32 rec 1995-2008}

Heitor Villa-Lobos - The Complete Choros & Bachianas Brasileiras (2009) {7CD Set BIS-CD-1830-32 rec 1995-2008}

Heitor Villa-Lobos - The Complete Choros & Bachianas Brasileiras (2009) {7CD Set BIS-CD-1830-32 rec 1995-2008}

Heitor Villa-Lobos - The Complete Choros & Bachianas Brasileiras (2009) {7CD Set BIS-CD-1830-32 rec 1995-2008}

Heitor Villa-Lobos - The Complete Choros & Bachianas Brasileiras (2009) {7CD Set BIS-CD-1830-32 rec 1995-2008}



===