Subcategories

Vince Hill - His Greatest Love Songs (The CBS Years) (2017)

Posted By: Domestos
Vince Hill - His Greatest Love Songs (The CBS Years) (2017)

Vince Hill - His Greatest Love Songs (The CBS Years) (2017)
EAC Rip | FLAC (image+.cue, log) ~ 421.27 Mb + 221.13 Mb (Scans) | 76:58
Vocal Pop, Easy Listening | Country: UK | Label: Sony Music ‎– 88985437842

“I have selected for this album some of what I consider to be the stand out moments of the three studio albums and singles I recorded for CBS. In between the songs you’ll recognise straight away are two I co-wrote with my regular song writing partner Ernie Dunstall – these are “A World Of Love” and “Darling I Love You”.

The biggest of surprises from this project was the discovery of many unreleased songs and I have selected two of the best for you to now enjoy. My favourite of these is my rendition of the ABBA classic “My Love, My Life” which I recorded at the end of my 2 year stay with CBS Records…

Annie (Vince’s late wife) I dedicate this album of love songs to you with all my love…” – Vince Hill

Track List:
01. Sailing
02. Mandy
03. Theme from Mahogany (Do You Know Where You’re Going to)
04. I Honestly Love You
05. Killing Me Softly With His Song
06. This Song’s For You
07. You Make Me Feel Brand New
08. Misty Blue
09. Annie's Song
10. A Little Bit More
11. My Eyes Adored You
12. Darling I Love You
13. Feelings
14. Don't Throw It All Away
15. For The Good Times
16. When I Fall in Love
17. Help Me Make It Through the Night
18. All By Myself
19. World of Love
20. The Way We Were
21. Why Don’t We Go Somewhere And Love [Previously Unreleased]
22. My Love, My Life [Previously Unreleased]

Vince Hill - His Greatest Love Songs (The CBS Years) (2017)

Exact Audio Copy V1.3 from 2. September 2016

EAC extraction logfile from 9. February 2018, 3:09

Vince Hill / His Greatest Love Songs (The CBS Years)

Used drive : TSSTcorpCDDVDW TS-L633C Adapter: 1 ID: 0

Read mode : Secure
Utilize accurate stream : Yes
Defeat audio cache : Yes
Make use of C2 pointers : No

Read offset correction : 6
Overread into Lead-In and Lead-Out : No
Fill up missing offset samples with silence : Yes
Delete leading and trailing silent blocks : No
Null samples used in CRC calculations : Yes
Used interface : Native Win32 interface for Win NT & 2000

Used output format : User Defined Encoder
Selected bitrate : 896 kBit/s
Quality : High
Add ID3 tag : No
Command line compressor : C:\Program Files\Exact Audio Copy\Flac\flac.exe
Additional command line options : -V -8 %source%

TOC of the extracted CD

Track | Start | Length | Start sector | End sector
––––––––––––––––––––––––––––-
1 | 0:00.00 | 4:56.17 | 0 | 22216
2 | 4:56.17 | 3:12.57 | 22217 | 36673
3 | 8:08.74 | 3:03.51 | 36674 | 50449
4 | 11:12.50 | 3:08.20 | 50450 | 64569
5 | 14:20.70 | 4:42.15 | 64570 | 85734
6 | 19:03.10 | 3:57.19 | 85735 | 103528
7 | 23:00.29 | 4:38.50 | 103529 | 124428
8 | 27:39.04 | 3:45.39 | 124429 | 141342
9 | 31:24.43 | 2:35.27 | 141343 | 152994
10 | 33:59.70 | 3:25.15 | 152995 | 168384
11 | 37:25.10 | 3:26.23 | 168385 | 183857
12 | 40:51.33 | 2:51.10 | 183858 | 196692
13 | 43:42.43 | 3:58.31 | 196693 | 214573
14 | 47:40.74 | 3:11.38 | 214574 | 228936
15 | 50:52.37 | 3:38.67 | 228937 | 245353
16 | 54:31.29 | 2:57.35 | 245354 | 258663
17 | 57:28.64 | 3:04.60 | 258664 | 272523
18 | 60:33.49 | 3:41.03 | 272524 | 289101
19 | 64:14.52 | 2:54.19 | 289102 | 302170
20 | 67:08.71 | 3:38.15 | 302171 | 318535
21 | 70:47.11 | 2:50.46 | 318536 | 331331
22 | 73:37.57 | 3:29.73 | 331332 | 347079

Range status and errors

Selected range

Filename D:\Vince Hill - His Greatest Love Songs (The CBS Years) (88985437842).wav

Peak level 99.1 %
Extraction speed 4.1 X
Range quality 99.9 %
Test CRC 6A21F961
Copy CRC 6A21F961
Copy OK

No errors occurred

AccurateRip summary

Track 1 not present in database
Track 2 not present in database
Track 3 not present in database
Track 4 not present in database
Track 5 not present in database
Track 6 not present in database
Track 7 not present in database
Track 8 not present in database
Track 9 not present in database
Track 10 not present in database
Track 11 not present in database
Track 12 not present in database
Track 13 not present in database
Track 14 not present in database
Track 15 not present in database
Track 16 not present in database
Track 17 not present in database
Track 18 not present in database
Track 19 not present in database
Track 20 not present in database
Track 21 not present in database
Track 22 not present in database

None of the tracks are present in the AccurateRip database

End of status report

–– CUETools DB Plugin V2.1.6

[CTDB TOCID: lrVzj8fOef3KKcR9g8lJ7D7Q5OQ-] disk not present in database
Submit result: lrVzj8fOef3KKcR9g8lJ7D7Q5OQ- has been uploaded

==== Log checksum E6C8EB8DC43647BF5E33BAA1070F3EA95D5302FC92A258B6A13C935EF62AE3AB ====

All thanks go to the italia57

More Music in My Blog
Follow My RSS Channel