Subcategories

Vincenzo Maltempo - Franz Liszt: Hungarian Rhapsodies Complete (2CD) (2016)

Posted By: Domestos
Vincenzo Maltempo - Franz Liszt: Hungarian Rhapsodies Complete (2CD) (2016)

Vincenzo Maltempo - Franz Liszt: Hungarian Rhapsodies Complete (2CD) (2016)
EAC Rip | FLAC (image+.cue, log) ~ 244.57 Mb (CD1) + 238.14 Mb (CD2) | 2:30:05 | Scans included
Classical | Label: Piano Classics - PCLD0108

Many music lovers and keyboard enthusiasts still believe that Liszt was a light-weight composer, given to bouts of bombast and virtuoso writing for its own sake. There is more than a grain of truth to that, but there's more to Liszt than many of his detractors realize, even in these Rhapsodies which are largely viewed as uneven creations, that at their best feature colorful music of relatively little depth. Yes, there is a good measure of confection in them – mostly good confection though – but there's also much solid Liszt in these scores. Nos. 2 and 6, for all their flash and bravura, are well crafted, brilliant pieces. #3 is not popular but also quite a fine work, as are Nos. 5, 9, 14, 15 and, despite its structural flaws, 12. I personally have great fondness for the late Rhapsodies, Nos. 16 – 19, which are all somewhat darker in mood and less virtuosic on the whole.

While some may criticize the forms of several of these pieces, it must be noted that Liszt did create a workable, albeit fairly simple form for many of them: a slow, often dark or austere opening portion followed by a fast dance section that typically contains some virtuoso fireworks. True, even within this scheme there is sometimes complexity, as one notices in #2, with all the themes and fragments masterfully weaved into the witty and wild latter half of the piece. It must be said that most of the Rhapsodies are highly imaginative creations, brilliantly crafted and featuring attractive, often distinctive melodies that aren't always from folk sources, though Liszt thought they were. In the end, to bring off this set of nineteen pieces, with their considerable technical demands, their colorful folkish character, and their range of moods and sudden mood swings, one requires a pianist of extraordinary skill and sensibilities. Luckily, this recording features such an artist.

Born in Benevento, Italy, July 2, 1985, pianist Vincenzo Maltempo studied with Salvatore Orlando and Riccardo Risaliti, and in 2006 won the Venice-based Premio Venezia Competition. He has made many recordings, five of them devoted to works of Alkan and three to Liszt. He has received much critical acclaim for them, perhaps more for the Alkan discs. On his third outing with the music of Liszt here, Maltempo meets all the technical challenges with relative ease, and his interpretive instincts are also outstanding. His control and subtle use of dynamics, along with his deft way with the pedal, separate him from the pack. Maltempo is an immensely gifted artist who seems quite consistently to make the best of even the flawed works here, like #12.

Clearly Maltempo understands Liszt, feels at home in his works, and fully grasps his wide-ranging style of composition. His account of the famous #2, avoids extremes and showmanship: the opening is somber and stately but not mannered or eccentric as is often the case in countless renditions; and the latter half is full of color and subtlety, as the pianist deftly manipulates tempos and dynamics, making the music sound either playful or madcap one moment, then gentle and witty the next. Maltempo plays his own cadenza near the end of the piece (as Liszt allows) and it is a quite interesting, if slightly long-winded creation. It sounds like part-Liszt and part-early 20th century, with a dash of Horowitzian flash. My previous favorite rendition of #2 was the Michele Campanella version on Philips, but now this one by Maltempo, different as it is, is at least as good, and probably better.

Maltempo perfectly conveys the dark moods of #3: again his opening has an appropriately similar somber and stately quality and he captures the shimmering character of the exotic mandolin-like theme with subtle dynamics and sensitive phrasing. The Sixth Rhapsody can be and often is turned into a vehicle for virtuosic grandstanding, most notably in the rapid-fire octaves in its fourth and closing section. It can also come across as bombastic in the opening too, but Maltempo commits neither sin, offering nuance and tonal shadings that turn what might be bombast into colorful celebration, and dazzle into excitement and joy. His octaves are impressive here, but he finds greater expression in the music. Byron Janis is thrilling and impressive with his octaves in this piece, but Maltempo draws out more expressive depth from the music.

Maltempo, with his subtle touch, deft sense for tempo, and intelligent phrasing, makes the best case for works like #10, which can sound mostly like fluff: the glissandos near the end effervesce in his hands and the joyous romp that follows comes across with a sense of confidence and joy. I mentioned his fine account of #12, but his Rákoczy March (No. 15) is splendid as well: though he gives it a bigness at the outset, his chords never sound harsh or percussive, and most of the piece features a clever balance between elegance and playfulness. Maltempo shows he has just the perfect temperament to bring off a challenging piece like Feux follets. In fact, I'd like to hear him in all the Transcendental Etudes.

Maltempo adjusts to the darker character of the last four Rhapsodies, not by changing his style, but through his dependably superior sense for interpretation, which always allows him to find the proper spirit of each piece. These works were written thirty-five or more years later than the others in the set, and with the possible exception of #19, sound as though they are from a different world. Maltempo delivers a powerful account of the brief but ominous #16 and brilliantly captures the mood-swings and epic sense of #19, the most challenging and longest of the last four.

Jeno Jando and Michelle Campanella have fine sets of the Hungarian Rhapsodies, but I would now recommend this new two-disc album from Piano Classics as the preferred choice. The accompanying notes are informative and the sound reproduction is excellent. The Steinway D piano used on this recording has an especially fine sound. Highly recommended!

~ 2016, Robert Cummings

Track List CD1:
[1] No.1 in C sharp minor
[2] No.2 in C sharp minor
[3] No.3 in B flat minor
[4] No.4 in E flat major
[5] No.5 in E minor 'Héroïde-élégiaque'
[6] No.6 in D flat major
[7] No.7 in D minor
[8] No.8 in F sharp minor
[9] No.9 in E flat major 'Peszter Carneval'

Track List CD2:
[1] No.10 in E major
[2] No.11 in A minor
[3] No.12 in C sharp minor
[4] No.13 in A minor
[5] No.14 in F minor
[6] No.15 in A minor 'Rákoczy March'
[7] No.16 in A minor
[8] No.17 in D minor
[9] No.18 in F sharp minor
[10] No.19 in D minor

Vincenzo Maltempo - Franz Liszt: Hungarian Rhapsodies Complete (2CD) (2016)

Exact Audio Copy V1.1 from 23. June 2015

EAC extraction logfile from 10. May 2017, 23:36

Vincenzo Maltempo / Liszt - Hungarian Rhapsodies - CD1

Used drive : PLDS DVD-RW DU8A6SH Adapter: 1 ID: 0

Read mode : Secure
Utilize accurate stream : Yes
Defeat audio cache : Yes
Make use of C2 pointers : No

Read offset correction : 6
Overread into Lead-In and Lead-Out : No
Fill up missing offset samples with silence : Yes
Delete leading and trailing silent blocks : No
Null samples used in CRC calculations : Yes
Used interface : Native Win32 interface for Win NT & 2000

Used output format : User Defined Encoder
Selected bitrate : 128 kBit/s
Quality : High
Add ID3 tag : No
Command line compressor : C:\Program Files (x86)\Exact Audio Copy\Flac\flac.exe
Additional command line options : -V -8 -T "Date=%year%" -T "Genre=%genre%" %source%

TOC of the extracted CD

Track | Start | Length | Start sector | End sector
––––––––––––––––––––––––––––-
1 | 0:00.00 | 13:02.31 | 0 | 58680
2 | 13:02.31 | 12:38.57 | 58681 | 115587
3 | 25:41.13 | 5:16.62 | 115588 | 139349
4 | 30:58.00 | 5:22.33 | 139350 | 163532
5 | 36:20.33 | 9:56.58 | 163533 | 208290
6 | 46:17.16 | 7:05.07 | 208291 | 240172
7 | 53:22.23 | 5:35.10 | 240173 | 265307
8 | 58:57.33 | 7:16.40 | 265308 | 298047
9 | 66:13.73 | 11:21.49 | 298048 | 349171

Range status and errors

Selected range

Filename C:\temp\Liszt - Hungarian Rhapsodies - Maltempo\CD1\Liszt - Hungarian Rhapsodies - CD1.wav

Peak level 83.9 %
Extraction speed 4.1 X
Range quality 99.9 %
Test CRC 6BB15A9C
Copy CRC 6BB15A9C
Copy OK

No errors occurred

AccurateRip summary

Track 1 not present in database
Track 2 not present in database
Track 3 not present in database
Track 4 not present in database
Track 5 not present in database
Track 6 not present in database
Track 7 not present in database
Track 8 not present in database
Track 9 not present in database

None of the tracks are present in the AccurateRip database

End of status report

==== Log checksum EAEA94F00C4025F942CD41A04AB7821A3F91E1AAD72C079B141AAEA843B64339 ====

Exact Audio Copy V1.1 from 23. June 2015

EAC extraction logfile from 11. May 2017, 2:04

Vincenzo Maltempo / Liszt - Hungarian Rhapsodies - CD2

Used drive : PLDS DVD-RW DU8A6SH Adapter: 1 ID: 0

Read mode : Secure
Utilize accurate stream : Yes
Defeat audio cache : Yes
Make use of C2 pointers : No

Read offset correction : 6
Overread into Lead-In and Lead-Out : No
Fill up missing offset samples with silence : Yes
Delete leading and trailing silent blocks : No
Null samples used in CRC calculations : Yes
Used interface : Native Win32 interface for Win NT & 2000

Used output format : User Defined Encoder
Selected bitrate : 128 kBit/s
Quality : High
Add ID3 tag : No
Command line compressor : C:\Program Files (x86)\Exact Audio Copy\Flac\flac.exe
Additional command line options : -V -8 -T "Date=%year%" -T "Genre=%genre%" %source%

TOC of the extracted CD

Track | Start | Length | Start sector | End sector
––––––––––––––––––––––––––––-
1 | 0:00.00 | 6:04.07 | 0 | 27306
2 | 6:04.07 | 5:57.59 | 27307 | 54140
3 | 12:01.66 | 10:18.60 | 54141 | 100550
4 | 22:20.51 | 10:09.43 | 100551 | 146268
5 | 32:30.19 | 12:53.27 | 146269 | 204270
6 | 45:23.46 | 5:50.51 | 204271 | 230571
7 | 51:14.22 | 5:00.51 | 230572 | 253122
8 | 56:14.73 | 2:55.62 | 253123 | 266309
9 | 59:10.60 | 3:07.08 | 266310 | 280342
10 | 62:17.68 | 10:10.59 | 280343 | 326151

Range status and errors

Selected range

Filename C:\temp\Liszt - Hungarian Rhapsodies - Maltempo\CD2\Liszt - Hungarian Rhapsodies - CD2.wav

Peak level 84.8 %
Extraction speed 4.1 X
Range quality 100.0 %
Test CRC D3144E21
Copy CRC D3144E21
Copy OK

No errors occurred

AccurateRip summary

Track 1 not present in database
Track 2 not present in database
Track 3 not present in database
Track 4 not present in database
Track 5 not present in database
Track 6 not present in database
Track 7 not present in database
Track 8 not present in database
Track 9 not present in database
Track 10 not present in database

None of the tracks are present in the AccurateRip database

End of status report

==== Log checksum 4D047DCE40501817059136BAAE9E6641E58A6A314CBA3F337E1A231CFCF9530A ====

All thanks go to the A-Z

More Music in My Blog
Follow My RSS Channel