Vivaldi - Wispelwey, Florigelium - Concerti For Cello And Orchestra (1997, Channel Classics # CCS 10097) [RE-UP]

Posted By: luckburz
Vivaldi - Wispelwey, Florigelium - Concerti For Cello And Orchestra (1997, Channel Classics # CCS 10097) [RE-UP]

Antonio Vivaldi - Pieter Wispelwey & Florigelium - Concerti For Cello And Orchestra
EAC+LOG+CUE | FLAC: 293 MB | Full Artwork | 5% Recovery Info
Label/Cat#: Channel Classics # CCS 10097 | Country/Year: Europe 1997
Genre: Classical | Style: Concerto

MD5 [X] CUE [X] LOG [X] INFO TEXT [X] ARTWORK [X]

not my rip [X] selfrip

Vivaldi - Wispelwey, Florigelium - Concerti For Cello And Orchestra (1997, Channel Classics # CCS 10097) [RE-UP]

Vivaldi - Wispelwey, Florigelium - Concerti For Cello And Orchestra (1997, Channel Classics # CCS 10097) [RE-UP]



Exact Audio Copy V1.0 beta 2 from 29. April 2011

EAC extraction logfile from 11. August 2012, 20:35

Pieter Wispelwey, Florigelium / Antonio Vivaldi - Concerti

Used drive : HL-DT-STDVDRAM GH20NS10 Adapter: 4 ID: 0

Read mode : Secure
Utilize accurate stream : Yes
Defeat audio cache : Yes
Make use of C2 pointers : No

Read offset correction : 667
Overread into Lead-In and Lead-Out : No
Fill up missing offset samples with silence : Yes
Delete leading and trailing silent blocks : No
Null samples used in CRC calculations : Yes
Used interface : Installed external ASPI interface
Gap handling : Appended to previous track

Used output format : User Defined Encoder
Selected bitrate : 896 kBit/s
Quality : High
Add ID3 tag : No
Command line compressor : C:\Program Files (x86)\Exact Audio Copy\Flac\flac.exe
Additional command line options : -8 -V -T "ARTIST=%artist%" -T "TITLE=%title%" -T "ALBUM=%albumtitle%" -T "DATE=%year%" -T "TRACKNUMBER=%tracknr%" -T "TOTALTRACKS=%numtracks%" -T "GENRE=%genre%" -T "ALBUMARTIST=%albumartist%" -T "ALBUM ARTIST=%albumartist%


TOC of the extracted CD

Track | Start | Length | Start sector | End sector
––––––––––––––––––––––––––––-
1 | 0:00.00 | 1:34.30 | 0 | 7079
2 | 1:34.30 | 3:02.63 | 7080 | 20792
3 | 4:37.18 | 3:11.25 | 20793 | 35142
4 | 7:48.43 | 2:43.50 | 35143 | 47417
5 | 10:32.18 | 2:36.47 | 47418 | 59164
6 | 13:08.65 | 3:07.30 | 59165 | 73219
7 | 16:16.20 | 2:57.33 | 73220 | 86527
8 | 19:13.53 | 1:52.60 | 86528 | 94987
9 | 21:06.38 | 2:13.55 | 94988 | 105017
10 | 23:20.18 | 2:24.45 | 105018 | 115862
11 | 25:44.63 | 1:34.17 | 115863 | 122929
12 | 27:19.05 | 4:17.15 | 122930 | 142219
13 | 31:36.20 | 2:34.58 | 142220 | 153827
14 | 34:11.03 | 3:12.60 | 153828 | 168287
15 | 37:23.63 | 2:43.55 | 168288 | 180567
16 | 40:07.43 | 2:45.47 | 180568 | 192989
17 | 42:53.15 | 3:05.35 | 192990 | 206899
18 | 45:58.50 | 2:25.73 | 206900 | 217847
19 | 48:24.48 | 1:46.50 | 217848 | 225847
20 | 50:11.23 | 2:45.47 | 225848 | 238269
21 | 52:56.70 | 1:27.48 | 238270 | 244842
22 | 54:24.43 | 2:11.55 | 244843 | 254722
23 | 56:36.23 | 2:51.37 | 254723 | 267584


Track 1

Filename Z:\Antonio Vivaldi - Concerti (Pieter Wispelwey, Florigelium) (1997) [FLAC] {Channel Classics CCS 10097}\01 - Larghetto in d minor, from F Major violin concerto RV 295.wav

Pre-gap length 0:00:02.00

Peak level 55.6 %
Extraction speed 3.8 X
Track quality 100.0 %
Test CRC 15C1BC49
Copy CRC 15C1BC49
Accurately ripped (confidence 3) [F4B1E768] (AR v2)
Copy OK

Track 2

Filename Z:\Antonio Vivaldi - Concerti (Pieter Wispelwey, Florigelium) (1997) [FLAC] {Channel Classics CCS 10097}\02 - Concerto in a minor, Allegro, from RV 421.wav

Pre-gap length 0:00:05.05

Peak level 90.2 %
Extraction speed 4.7 X
Track quality 100.0 %
Test CRC 9A5432D9
Copy CRC 9A5432D9
Accurately ripped (confidence 3) [A890CA85] (AR v2)
Copy OK

Track 3

Filename Z:\Antonio Vivaldi - Concerti (Pieter Wispelwey, Florigelium) (1997) [FLAC] {Channel Classics CCS 10097}\03 - Concerto in a minor, Siciliano, from RV 415 (orig. G Major).wav

Peak level 63.4 %
Extraction speed 5.2 X
Track quality 100.0 %
Test CRC 022D3E71
Copy CRC 022D3E71
Accurately ripped (confidence 3) [3A47A570] (AR v2)
Copy OK

Track 4

Filename Z:\Antonio Vivaldi - Concerti (Pieter Wispelwey, Florigelium) (1997) [FLAC] {Channel Classics CCS 10097}\04 - Concerto in a minor, Allegro, from RV 421.wav

Peak level 87.9 %
Extraction speed 4.1 X
Track quality 99.9 %
Test CRC 08DECB3F
Copy CRC 08DECB3F
Accurately ripped (confidence 3) [731141AE] (AR v2)
Copy OK

Track 5

Filename Z:\Antonio Vivaldi - Concerti (Pieter Wispelwey, Florigelium) (1997) [FLAC] {Channel Classics CCS 10097}\05 - Largo in F Major, from violin concerto RV 190 (orig. C Major).wav

Pre-gap length 0:00:05.13

Peak level 59.4 %
Extraction speed 5.5 X
Track quality 100.0 %
Test CRC 09E2086A
Copy CRC 09E2086A
Accurately ripped (confidence 3) [D0A3F7FB] (AR v2)
Copy OK

Track 6

Filename Z:\Antonio Vivaldi - Concerti (Pieter Wispelwey, Florigelium) (1997) [FLAC] {Channel Classics CCS 10097}\06 - Concerto in F Major, Allegro, from RV 410.wav

Pre-gap length 0:00:05.12

Peak level 100.0 %
Extraction speed 6.1 X
Track quality 100.0 %
Test CRC 744DB800
Copy CRC 744DB800
Accurately ripped (confidence 3) [84E4BD71] (AR v2)
Copy OK

Track 7

Filename Z:\Antonio Vivaldi - Concerti (Pieter Wispelwey, Florigelium) (1997) [FLAC] {Channel Classics CCS 10097}\07 - Concerto in F Major, Largo, from RV 407 (orig g minor).wav

Peak level 59.7 %
Extraction speed 6.4 X
Track quality 100.0 %
Test CRC 79327C4B
Copy CRC 79327C4B
Accurately ripped (confidence 3) [9EA849DA] (AR v2)
Copy OK

Track 8

Filename Z:\Antonio Vivaldi - Concerti (Pieter Wispelwey, Florigelium) (1997) [FLAC] {Channel Classics CCS 10097}\08 - Concerto in F Major, Allegro molto, from RV 411.wav

Peak level 96.6 %
Extraction speed 5.8 X
Track quality 100.0 %
Test CRC 87191270
Copy CRC 87191270
Accurately ripped (confidence 3) [EF10FA38] (AR v2)
Copy OK

Track 9

Filename Z:\Antonio Vivaldi - Concerti (Pieter Wispelwey, Florigelium) (1997) [FLAC] {Channel Classics CCS 10097}\09 - Adagio in C Major, from concerto for strings RV 109.wav

Pre-gap length 0:00:06.20

Peak level 46.4 %
Extraction speed 6.1 X
Track quality 100.0 %
Test CRC CBFB7B6D
Copy CRC CBFB7B6D
Accurately ripped (confidence 3) [A7A4E007] (AR v2)
Copy OK

Track 10

Filename Z:\Antonio Vivaldi - Concerti (Pieter Wispelwey, Florigelium) (1997) [FLAC] {Channel Classics CCS 10097}\10 - Allegro Vivace in D Major, from RV 404 (3rd movement).wav

Pre-gap length 0:00:07.73

Peak level 100.0 %
Extraction speed 6.5 X
Track quality 100.0 %
Test CRC 16052659
Copy CRC 16052659
Accurately ripped (confidence 3) [E4BAA222] (AR v2)
Copy OK

Track 11

Filename Z:\Antonio Vivaldi - Concerti (Pieter Wispelwey, Florigelium) (1997) [FLAC] {Channel Classics CCS 10097}\11 - Largo in D Major, from violin concerto RV 226.wav

Pre-gap length 0:00:04.05

Peak level 26.8 %
Extraction speed 5.7 X
Track quality 100.0 %
Test CRC 5295E90B
Copy CRC 5295E90B
Accurately ripped (confidence 3) [6F3CEEB0] (AR v2)
Copy OK

Track 12

Filename Z:\Antonio Vivaldi - Concerti (Pieter Wispelwey, Florigelium) (1997) [FLAC] {Channel Classics CCS 10097}\12 - Concerto in b minor RV 424; I. Allegro non molto.wav

Pre-gap length 0:00:03.40

Peak level 83.8 %
Extraction speed 7.6 X
Track quality 100.0 %
Test CRC 843299FA
Copy CRC 843299FA
Accurately ripped (confidence 3) [517102F4] (AR v2)
Copy OK

Track 13

Filename Z:\Antonio Vivaldi - Concerti (Pieter Wispelwey, Florigelium) (1997) [FLAC] {Channel Classics CCS 10097}\13 - II. Largo.wav

Peak level 42.6 %
Extraction speed 7.3 X
Track quality 100.0 %
Test CRC B6A85612
Copy CRC B6A85612
Accurately ripped (confidence 3) [7A9E75C2] (AR v2)
Copy OK

Track 14

Filename Z:\Antonio Vivaldi - Concerti (Pieter Wispelwey, Florigelium) (1997) [FLAC] {Channel Classics CCS 10097}\14 - III. Allegro.wav

Peak level 97.9 %
Extraction speed 7.6 X
Track quality 100.0 %
Test CRC E15907A2
Copy CRC E15907A2
Accurately ripped (confidence 3) [4D6AD9BC] (AR v2)
Copy OK

Track 15

Filename Z:\Antonio Vivaldi - Concerti (Pieter Wispelwey, Florigelium) (1997) [FLAC] {Channel Classics CCS 10097}\15 - Largo in C Major, from violin concerto RV 383 (orig. B flat Major).wav

Pre-gap length 0:00:06.00

Peak level 42.4 %
Extraction speed 7.8 X
Track quality 100.0 %
Test CRC 58A6705B
Copy CRC 58A6705B
Accurately ripped (confidence 3) [72105DD5] (AR v2)
Copy OK

Track 16

Filename Z:\Antonio Vivaldi - Concerti (Pieter Wispelwey, Florigelium) (1997) [FLAC] {Channel Classics CCS 10097}\16 - Concerto for Cello in G major, RV 413; I. Allegro.wav

Pre-gap length 0:00:05.33

Peak level 88.0 %
Extraction speed 7.8 X
Track quality 100.0 %
Test CRC 1AC9D01D
Copy CRC 1AC9D01D
Accurately ripped (confidence 3) [429A6B82] (AR v2)
Copy OK

Track 17

Filename Z:\Antonio Vivaldi - Concerti (Pieter Wispelwey, Florigelium) (1997) [FLAC] {Channel Classics CCS 10097}\17 - II. Largo.wav

Peak level 45.5 %
Extraction speed 8.1 X
Track quality 100.0 %
Test CRC 69EFAF76
Copy CRC 69EFAF76
Accurately ripped (confidence 3) [ED60F53C] (AR v2)
Copy OK

Track 18

Filename Z:\Antonio Vivaldi - Concerti (Pieter Wispelwey, Florigelium) (1997) [FLAC] {Channel Classics CCS 10097}\18 - III. Allegro.wav

Peak level 85.4 %
Extraction speed 7.9 X
Track quality 100.0 %
Test CRC 7BFCFDA6
Copy CRC 7BFCFDA6
Accurately ripped (confidence 3) [A192E547] (AR v2)
Copy OK

Track 19

Filename Z:\Antonio Vivaldi - Concerti (Pieter Wispelwey, Florigelium) (1997) [FLAC] {Channel Classics CCS 10097}\19 - Largo in G Major, from violin concerto RV 341 (orig, A Major) (violoncello picollo).wav

Pre-gap length 0:00:05.33

Peak level 32.4 %
Extraction speed 7.5 X
Track quality 100.0 %
Test CRC 0D746444
Copy CRC 0D746444
Accurately ripped (confidence 3) [B0AEDF88] (AR v2)
Copy OK

Track 20

Filename Z:\Antonio Vivaldi - Concerti (Pieter Wispelwey, Florigelium) (1997) [FLAC] {Channel Classics CCS 10097}\20 - Concerto in a minor RV422 (single strings); I. Allegro non troppo.wav

Pre-gap length 0:00:05.30

Peak level 93.5 %
Extraction speed 8.2 X
Track quality 100.0 %
Test CRC D021EE4C
Copy CRC D021EE4C
Accurately ripped (confidence 2) [62FCEA13] (AR v2)
Copy OK

Track 21

Filename Z:\Antonio Vivaldi - Concerti (Pieter Wispelwey, Florigelium) (1997) [FLAC] {Channel Classics CCS 10097}\21 - II. Largo.wav

Peak level 53.4 %
Extraction speed 4.8 X
Track quality 99.8 %
Test CRC 7A8D3DD1
Copy CRC 7A8D3DD1
Accurately ripped (confidence 3) [C534DF24] (AR v2)
Copy OK

Track 22

Filename Z:\Antonio Vivaldi - Concerti (Pieter Wispelwey, Florigelium) (1997) [FLAC] {Channel Classics CCS 10097}\22 - III. Allegro.wav

Peak level 98.8 %
Extraction speed 8.0 X
Track quality 100.0 %
Test CRC 3AD460ED
Copy CRC 3AD460ED
Accurately ripped (confidence 3) [61A0C954] (AR v2)
Copy OK

Track 23

Filename Z:\Antonio Vivaldi - Concerti (Pieter Wispelwey, Florigelium) (1997) [FLAC] {Channel Classics CCS 10097}\23 - Alla Breve in G Major, from violoncello concerto RV 415 ( 3rd Movement) (violoncello picollo).wav

Pre-gap length 0:00:04.30

Peak level 97.3 %
Extraction speed 9.0 X
Track quality 100.0 %
Test CRC 68049191
Copy CRC 68049191
Accurately ripped (confidence 2) [E790D3B6] (AR v2)
Copy OK


All tracks accurately ripped

No errors occurred

End of status report

==== Log checksum D2737B803D3D662FF0B34C984EB0DCA0F713C11595C33D4512A79154AA63A68B ====

auCDtect: CD records authenticity detector, version 0.8.2
Copyright © 2004 Oleg Berngardt. All rights reserved.
Copyright © 2004 Alexander Djourik. All rights reserved.

Detect mode (0..40 with 0 = most accurate): 2


––––––––––––––––––––––––––––––
[01 - Larghetto in d minor, from F Major violin concerto RV 295.wav]
Detected average hi-boundary frequency: 2.034188e+004 Hz
Detected average lo-boundary frequency: 1.440283e+004 Hz
Detected average hi-cut frequency: 2.059362e+004 Hz
Detected average lo-cut frequency: 1.206196e+004 Hz
Maximum probablis boundary frequency: 2.189100e+004 Hz
Coefficient of nonlinearity of a phase: 2.235900e+000
First order smothness: 2.300885e-001
Second order smothness: 7.492625e-001
––––––––––––––––––––––––––––––
This track looks like CDDA with probability 100%.

––––––––––––––––––––––––––––––
[02 - Concerto in a minor, Allegro, from RV 421.wav]
Detected average hi-boundary frequency: 2.041926e+004 Hz
Detected average lo-boundary frequency: 1.453505e+004 Hz
Detected average hi-cut frequency: 2.108608e+004 Hz
Detected average lo-cut frequency: 1.260724e+004 Hz
Maximum probablis boundary frequency: 2.189600e+004 Hz
Coefficient of nonlinearity of a phase: 1.596192e+000
First order smothness: 2.587519e-001
Second order smothness: 7.716895e-001
––––––––––––––––––––––––––––––
This track looks like CDDA with probability 100%.

––––––––––––––––––––––––––––––
[03 - Concerto in a minor, Siciliano, from RV 415 (orig. G Major).wav]
Detected average hi-boundary frequency: 2.039597e+004 Hz
Detected average lo-boundary frequency: 1.386528e+004 Hz
Detected average hi-cut frequency: 2.051039e+004 Hz
Detected average lo-cut frequency: 1.357065e+004 Hz
Maximum probablis boundary frequency: 2.189100e+004 Hz
Coefficient of nonlinearity of a phase: 1.925291e+000
First order smothness: 2.445415e-001
Second order smothness: 8.005822e-001
––––––––––––––––––––––––––––––
This track looks like CDDA with probability 100%.

––––––––––––––––––––––––––––––
[04 - Concerto in a minor, Allegro, from RV 421.wav]
Detected average hi-boundary frequency: 2.027230e+004 Hz
Detected average lo-boundary frequency: 1.462721e+004 Hz
Detected average hi-cut frequency: 2.107837e+004 Hz
Detected average lo-cut frequency: 1.212069e+004 Hz
Maximum probablis boundary frequency: 2.190200e+004 Hz
Coefficient of nonlinearity of a phase: 1.686096e+000
First order smothness: 2.551020e-001
Second order smothness: 7.193878e-001
––––––––––––––––––––––––––––––
This track looks like CDDA with probability 99%.

––––––––––––––––––––––––––––––
[05 - Largo in F Major, from violin concerto RV 190 (orig. C Major).wav]
Detected average hi-boundary frequency: 2.010402e+004 Hz
Detected average lo-boundary frequency: 1.407640e+004 Hz
Detected average hi-cut frequency: 2.045869e+004 Hz
Detected average lo-cut frequency: 1.140606e+004 Hz
Maximum probablis boundary frequency: 2.189100e+004 Hz
Coefficient of nonlinearity of a phase: 2.307780e+000
First order smothness: 2.912966e-001
Second order smothness: 6.909414e-001
––––––––––––––––––––––––––––––
This track looks like CDDA with probability 100%.

––––––––––––––––––––––––––––––
[06 - Concerto in F Major, Allegro, from RV 410.wav]
Detected average hi-boundary frequency: 2.036094e+004 Hz
Detected average lo-boundary frequency: 1.484948e+004 Hz
Detected average hi-cut frequency: 2.105150e+004 Hz
Detected average lo-cut frequency: 1.534680e+004 Hz
Maximum probablis boundary frequency: 2.189100e+004 Hz
Coefficient of nonlinearity of a phase: 1.722434e+000
First order smothness: 3.878158e-001
Second order smothness: 8.023774e-001
––––––––––––––––––––––––––––––
This track looks like CDDA with probability 100%.

––––––––––––––––––––––––––––––
[07 - Concerto in F Major, Largo, from RV 407 (orig g minor).wav]
Detected average hi-boundary frequency: 2.035191e+004 Hz
Detected average lo-boundary frequency: 1.367865e+004 Hz
Detected average hi-cut frequency: 2.039292e+004 Hz
Detected average lo-cut frequency: 7.629615e+003 Hz
Maximum probablis boundary frequency: 2.190200e+004 Hz
Coefficient of nonlinearity of a phase: 2.152592e+000
First order smothness: 2.794349e-001
Second order smothness: 6.357928e-001
––––––––––––––––––––––––––––––
This track looks like CDDA with probability 100%.

––––––––––––––––––––––––––––––
[08 - Concerto in F Major, Allegro molto, from RV 411.wav]
Detected average hi-boundary frequency: 2.015223e+004 Hz
Detected average lo-boundary frequency: 1.213479e+004 Hz
Detected average hi-cut frequency: 2.078023e+004 Hz
Detected average lo-cut frequency: 1.205837e+004 Hz
Maximum probablis boundary frequency: 2.189100e+004 Hz
Coefficient of nonlinearity of a phase: 1.573722e+000
First order smothness: 2.888889e-001
Second order smothness: 7.012346e-001
––––––––––––––––––––––––––––––
This track looks like CDDA with probability 100%.

––––––––––––––––––––––––––––––
[09 - Adagio in C Major, from concerto for strings RV 109.wav]
Detected average hi-boundary frequency: 2.036046e+004 Hz
Detected average lo-boundary frequency: 1.495764e+004 Hz
Detected average hi-cut frequency: 2.052427e+004 Hz
Detected average lo-cut frequency: 1.368150e+004 Hz
Maximum probablis boundary frequency: 2.190200e+004 Hz
Coefficient of nonlinearity of a phase: 2.156345e+000
First order smothness: 2.250000e-001
Second order smothness: 7.937500e-001
––––––––––––––––––––––––––––––
This track looks like CDDA with probability 100%.

––––––––––––––––––––––––––––––
[10 - Allegro Vivace in D Major, from RV 404 (3rd movement).wav]
Detected average hi-boundary frequency: 2.037048e+004 Hz
Detected average lo-boundary frequency: 1.433821e+004 Hz
Detected average hi-cut frequency: 2.102052e+004 Hz
Detected average lo-cut frequency: 1.121842e+004 Hz
Maximum probablis boundary frequency: 2.190200e+004 Hz
Coefficient of nonlinearity of a phase: 1.133362e+000
First order smothness: 2.832370e-001
Second order smothness: 6.377649e-001
––––––––––––––––––––––––––––––
This track looks like CDDA with probability 100%.

––––––––––––––––––––––––––––––
[11 - Largo in D Major, from violin concerto RV 226.wav]
Detected average hi-boundary frequency: 2.038186e+004 Hz
Detected average lo-boundary frequency: 1.338032e+004 Hz
Detected average hi-cut frequency: 2.030223e+004 Hz
Detected average lo-cut frequency: 1.371296e+004 Hz
Maximum probablis boundary frequency: 2.189600e+004 Hz
Coefficient of nonlinearity of a phase: 2.352059e+000
First order smothness: 2.743363e-001
Second order smothness: 7.964602e-001
––––––––––––––––––––––––––––––
This track looks like CDDA with probability 100%.

––––––––––––––––––––––––––––––
[12 - Concerto in b minor RV 424; I. Allegro non molto.wav]
Detected average hi-boundary frequency: 2.030015e+004 Hz
Detected average lo-boundary frequency: 1.405455e+004 Hz
Detected average hi-cut frequency: 2.082785e+004 Hz
Detected average lo-cut frequency: 1.204134e+004 Hz
Maximum probablis boundary frequency: 2.189100e+004 Hz
Coefficient of nonlinearity of a phase: 1.862056e+000
First order smothness: 2.424242e-001
Second order smothness: 7.770563e-001
––––––––––––––––––––––––––––––
This track looks like CDDA with probability 100%.

––––––––––––––––––––––––––––––
[13 - II. Largo.wav]
Detected average hi-boundary frequency: 2.027523e+004 Hz
Detected average lo-boundary frequency: 1.403196e+004 Hz
Detected average hi-cut frequency: 2.020073e+004 Hz
Detected average lo-cut frequency: 9.352247e+003 Hz
Maximum probablis boundary frequency: 2.189100e+004 Hz
Coefficient of nonlinearity of a phase: 1.781320e+000
First order smothness: 3.003597e-001
Second order smothness: 6.906475e-001
––––––––––––––––––––––––––––––
This track looks like CDDA with probability 100%.

––––––––––––––––––––––––––––––
[14 - III. Allegro.wav]
Detected average hi-boundary frequency: 2.015655e+004 Hz
Detected average lo-boundary frequency: 1.322822e+004 Hz
Detected average hi-cut frequency: 2.064725e+004 Hz
Detected average lo-cut frequency: 1.014356e+004 Hz
Maximum probablis boundary frequency: 2.189100e+004 Hz
Coefficient of nonlinearity of a phase: 1.853714e+000
First order smothness: 2.658960e-001
Second order smothness: 6.676301e-001
––––––––––––––––––––––––––––––
This track looks like CDDA with probability 100%.

––––––––––––––––––––––––––––––
[15 - Largo in C Major, from violin concerto RV 383 (orig. B flat Major).wav]
Detected average hi-boundary frequency: 2.024953e+004 Hz
Detected average lo-boundary frequency: 1.472982e+004 Hz
Detected average hi-cut frequency: 2.096901e+004 Hz
Detected average lo-cut frequency: 1.425862e+004 Hz
Maximum probablis boundary frequency: 2.170800e+004 Hz
Coefficient of nonlinearity of a phase: 1.933146e+000
First order smothness: 2.261905e-001
Second order smothness: 8.146259e-001
––––––––––––––––––––––––––––––
This track looks like CDDA with probability 99%.

––––––––––––––––––––––––––––––
[16 - Concerto for Cello in G major, RV 413; I. Allegro.wav]
Detected average hi-boundary frequency: 2.031348e+004 Hz
Detected average lo-boundary frequency: 1.435971e+004 Hz
Detected average hi-cut frequency: 2.069311e+004 Hz
Detected average lo-cut frequency: 1.058961e+004 Hz
Maximum probablis boundary frequency: 2.189100e+004 Hz
Coefficient of nonlinearity of a phase: 1.532328e+000
First order smothness: 2.655462e-001
Second order smothness: 6.470588e-001
––––––––––––––––––––––––––––––
This track looks like CDDA with probability 100%.

––––––––––––––––––––––––––––––
[17 - II. Largo.wav]
Detected average hi-boundary frequency: 2.034674e+004 Hz
Detected average lo-boundary frequency: 1.421261e+004 Hz
Detected average hi-cut frequency: 2.039089e+004 Hz
Detected average lo-cut frequency: 1.046506e+004 Hz
Maximum probablis boundary frequency: 2.189100e+004 Hz
Coefficient of nonlinearity of a phase: 1.896535e+000
First order smothness: 2.747748e-001
Second order smothness: 7.297297e-001
––––––––––––––––––––––––––––––
This track looks like CDDA with probability 100%.

––––––––––––––––––––––––––––––
[18 - III. Allegro.wav]
Detected average hi-boundary frequency: 2.021399e+004 Hz
Detected average lo-boundary frequency: 1.491879e+004 Hz
Detected average hi-cut frequency: 2.097164e+004 Hz
Detected average lo-cut frequency: 1.246517e+004 Hz
Maximum probablis boundary frequency: 2.169700e+004 Hz
Coefficient of nonlinearity of a phase: 1.776676e+000
First order smothness: 2.423664e-001
Second order smothness: 7.309160e-001
––––––––––––––––––––––––––––––
This track looks like CDDA with probability 99%.

––––––––––––––––––––––––––––––
[19 - Largo in G Major, from violin concerto RV 341 (orig, A Major) (violoncello picollo).wav]
Detected average hi-boundary frequency: 2.017358e+004 Hz
Detected average lo-boundary frequency: 1.500879e+004 Hz
Detected average hi-cut frequency: 2.016751e+004 Hz
Detected average lo-cut frequency: 9.722030e+003 Hz
Maximum probablis boundary frequency: 2.189100e+004 Hz
Coefficient of nonlinearity of a phase: 2.312154e+000
First order smothness: 2.793734e-001
Second order smothness: 7.075718e-001
––––––––––––––––––––––––––––––
This track looks like CDDA with probability 100%.

––––––––––––––––––––––––––––––
[20 - Concerto in a minor RV 422 (single strings); I. Allegro non troppo.wav]
Detected average hi-boundary frequency: 2.034201e+004 Hz
Detected average lo-boundary frequency: 1.362449e+004 Hz
Detected average hi-cut frequency: 2.072669e+004 Hz
Detected average lo-cut frequency: 1.046894e+004 Hz
Maximum probablis boundary frequency: 2.189600e+004 Hz
Coefficient of nonlinearity of a phase: 1.801639e+000
First order smothness: 3.226891e-001
Second order smothness: 6.806723e-001
––––––––––––––––––––––––––––––
This track looks like CDDA with probability 100%.

––––––––––––––––––––––––––––––
[21 - II. Largo.wav]
Detected average hi-boundary frequency: 2.063784e+004 Hz
Detected average lo-boundary frequency: 1.515254e+004 Hz
Detected average hi-cut frequency: 2.093985e+004 Hz
Detected average lo-cut frequency: 1.642880e+004 Hz
Maximum probablis boundary frequency: 2.189600e+004 Hz
Coefficient of nonlinearity of a phase: 2.309484e+000
First order smothness: 2.920635e-001
Second order smothness: 8.698413e-001
––––––––––––––––––––––––––––––
This track looks like CDDA with probability 100%.

––––––––––––––––––––––––––––––
[22 - III. Allegro.wav]
Detected average hi-boundary frequency: 2.033092e+004 Hz
Detected average lo-boundary frequency: 1.444829e+004 Hz
Detected average hi-cut frequency: 2.087853e+004 Hz
Detected average lo-cut frequency: 9.672849e+003 Hz
Maximum probablis boundary frequency: 2.189100e+004 Hz
Coefficient of nonlinearity of a phase: 1.488429e+000
First order smothness: 3.234672e-001
Second order smothness: 6.321353e-001
––––––––––––––––––––––––––––––
This track looks like CDDA with probability 99%.

––––––––––––––––––––––––––––––
[23 - Alla Breve in G Major, from violoncello concerto RV 415 ( 3rd Movement) (violoncello picollo).wav]
Detected average hi-boundary frequency: 2.053593e+004 Hz
Detected average lo-boundary frequency: 1.442273e+004 Hz
Detected average hi-cut frequency: 2.109936e+004 Hz
Detected average lo-cut frequency: 1.414217e+004 Hz
Maximum probablis boundary frequency: 2.189100e+004 Hz
Coefficient of nonlinearity of a phase: 2.045342e+000
First order smothness: 2.613636e-001
Second order smothness: 7.987013e-001
––––––––––––––––––––––––––––––
This track looks like CDDA with probability 100%.

foobar2000 1.1.7 / Dynamic Range Meter 1.1.1
log date: 2012-08-23 21:30:38

––––––––––––––––––––––––––––––––––––––––
Analyzed: Pieter Wispelwey, Florigelium / Antonio Vivaldi - Concerti
––––––––––––––––––––––––––––––––––––––––

DR Peak RMS Duration Track
––––––––––––––––––––––––––––––––––––––––
DR12 -5.10 dB -23.37 dB 1:34 01-Larghetto in d minor, from F Major violin concerto RV 295
DR14 -0.89 dB -17.68 dB 3:03 02-Concerto in a minor, Allegro, from RV 421
DR13 -3.95 dB -22.52 dB 3:11 03-Concerto in a minor, Siciliano, from RV 415 (orig. G Major)
DR13 -1.12 dB -18.52 dB 2:44 04-Concerto in a minor, Allegro, from RV 421
DR12 -4.51 dB -22.67 dB 2:37 05-Largo in F Major, from violin concerto RV 190 (orig. C Major)
DR13 0.00 dB -17.57 dB 3:07 06-Concerto in F Major, Allegro, from RV 410
DR11 -4.47 dB -20.95 dB 2:57 07-Concerto in F Major, Largo, from RV 407 (orig g minor)
DR12 -0.29 dB -17.69 dB 1:53 08-Concerto in F Major, Allegro molto, from RV 411
DR9 -6.67 dB -19.94 dB 2:14 09-Adagio in C Major, from concerto for strings RV 109
DR12 0.00 dB -17.41 dB 2:25 10-Allegro Vivace in D Major, from RV 404 (3rd movement)
DR10 -11.42 dB -26.12 dB 1:34 11-Largo in D Major, from violin concerto RV 226
DR13 -1.53 dB -19.72 dB 4:17 12-Concerto in b minor RV 424; I. Allegro non molto
DR12 -7.40 dB -25.32 dB 2:35 13-II. Largo
DR13 -0.18 dB -17.53 dB 3:13 14-III. Allegro
DR12 -7.45 dB -22.22 dB 2:44 15-Largo in C Major, from violin concerto RV 383 (orig. B flat Major)
DR14 -1.11 dB -20.81 dB 2:46 16-Concerto for Cello in G major, RV 413; I. Allegro
DR13 -6.83 dB -23.67 dB 3:05 17-II. Largo
DR13 -1.37 dB -20.03 dB 2:26 18-III. Allegro
DR12 -9.78 dB -26.05 dB 1:47 19-Largo in G Major, from violin concerto RV 341 (orig, A Major) (violoncello picollo)
DR13 -0.58 dB -17.60 dB 2:46 20-Concerto in a minor RV 422 (single strings); I. Allegro non troppo
DR11 -5.45 dB -21.76 dB 1:28 21-II. Largo
DR12 -0.10 dB -16.01 dB 2:12 22-III. Allegro
DR12 -0.23 dB -16.17 dB 2:51 23-Alla Breve in G Major, from violoncello concerto RV 415 ( 3rd Movement) (violoncello picollo)
––––––––––––––––––––––––––––––––––––––––

Number of tracks: 23
Official DR value: DR12

Samplerate: 44100 Hz
Channels: 2
Bits per sample: 16
Bitrate: 789 kbps
Codec: FLAC
================================================================================



CD Info:

Antonio Vivaldi (1678-1741) - Pieter Wispelwey & Florigelium - Concerti for cello and orchestra

Label: Channel Classics
Catalog#: CCS 10097
Format: CD, Album
Country: UK & Europe
Released: 1997
Genre: Classical
Style: 1997

Tracklist:

01 Larghetto in d minor, from F Major violin concerto RV 295 1:34
02 Concerto in a minor, Allegro, from RV 421 3:03
03 Concerto in a minor, Siciliano, from RV 415 (orig. G Major) 3:11
04 Concerto in a minor, Allegro, from RV 421 2:44
05 Largo in F Major, from violin concerto RV 190 (orig. C Major) 2:37
06 Concerto in F Major, Allegro, from RV 410 3:07
07 Concerto in F Major, Largo, from RV 407 (orig g minor) 2:57
08 Concerto in F Major, Allegro molto, from RV 411 1:53
09 Adagio in C Major, from concerto for strings RV 109 2:14
10 Allegro Vivace in D Major, from RV 404 (3rd movement) 2:25
11 Largo in D Major, from violin concerto RV 226 1:34
12 Concerto in b minor RV 424; I. Allegro non molto 4:17
13 II. Largo 2:35
14 III. Allegro 3:13
15 Largo in C Major, from violin concerto RV 383 (orig. B flat Major) 2:44
16 Concerto for Cello in G major, RV 413; I. Allegro 2:46
17 II. Largo 3:05
18 III. Allegro 2:26
19 Largo in G Major, from violin concerto RV 341 (orig, A Major) (violoncello picollo) 1:47
20 Concerto in a minor RV 422 (single strings); I. Allegro non troppo 2:46
21 II. Largo 1:28
22 III. Allegro 2:12
23 Alla Breve in G Major, from violoncello concerto RV 415 ( 3rd Movement) 2:51

Vivaldi - Wispelwey, Florigelium - Concerti For Cello And Orchestra (1997, Channel Classics # CCS 10097) [RE-UP]


It's not often that a befuddled, over exposed critic is moved to tears, and even less often thrilled to the point of turning academically unnerved by a recording's brilliance. Just about the time one thinks he's heard it all, some revelation like this comes along to transform everything one has been thaught or discovered about a given composer or period. (…) but I've never before encountered a disc which so utterly delighted me, or so thoroughly transformed my vision of the composer's worth. (…) (…) What Pieter Wispelwey does for this disc is refurbish and renovate playing that's almost inhuman in its intelligence as well as craftsmanship. (…) (…) Intonation, articulation and timbre sound magnificent (…) (…) the superb support of Florilegium , the British Baroque Orchestra. How they manage to maintain such ensemble and balance during the breakneck speed of the very quick movements, is anybody's guess. Enchanting!! (…) (…) A special bravo is due the continuo players, who subtly shift around between theorbo, baroque guitar, harpsichord or small organ. And they're recorded as they ought to sound, as a kind of backdrop halo of harmonic support. No small part of that is due to Channel's customized recording equipment and production staff, which produces one of the finest sonic achievements of recent years. This release joins the elite of great recordings, performances that will likely to be enjoyed for as long as music endures. (…) (…) If you think Vivaldi a bore, try this and experience conversion.
~In Tune Magazine, February 1997

Originally uploaded by pr3ss. Thanks a lot!