Subcategories

Vox Luminis, Lionel Meunier - J.S. Bach, J.C. Bach & J.M. Bach: Motetten (2015)

Posted By: shamanicus
Vox Luminis, Lionel Meunier - J.S. Bach, J.C. Bach & J.M. Bach: Motetten (2015)

Vox Luminis, Lionel Meunier - J.S. Bach, J.C. Bach & J.M. Bach: Motetten (2015)
EAC Rip | FLAC (tracks+.cue, log) | Covers | 541 mb | MP3 CBR 320kbps | RAR | 325 mb
Classical, Baroque | Label: Ricercar / RIC 347

After its successes in the field of German Baroque religious music, here VOX LUMINIS proposes the first complete recording of the motets by Johann Sebastian Bach's ancestors. These motets, most of which are written for double choir, blend the old tradition inherited from the polyphony of the Renaissance with expressive work inspired by the fashions of the madrigal. The chorale melodies that are quite frequently associated with these motets contribute this colour typical of the Lutheran liturgical repertoire.

Johann Sebastian Bach drew on the family tradition in large part when tackling this genre and mastered this writing that was archaic for its time. The proximity between his compositions and those of his ancestors is astounding, and it is not without reason that the motet providing the title for this recording, Ich lasse dich nicht, is attributed sometimes to Johann Sebastian, sometimes to his uncle Johann Christoph. But beyond the historical considerations, these motets are filled with touching, humble and profound emotion that the talent of the Vox Luminis singers carry to the exceptional level to which the ensemble has accustomed us!
Recommended for Bach fans.


Tracklist:

CD1 (15 / 1:12:20)

01. Sei nun wieder zufrieden Meine Seele
02. Unser Leben ist ein Schatten
03. Weint nict om meiniem Tod
04. Der Gerechte, ob er gleich zi zeitlich stirbt
05. Der Mensch, von Weine geboren
06. Sein getreu bis in den Tod
07. Halt, was du hast
08. Ich weis das mein Erlöser lebt
09. Herr, wenn ich nur dich habe
10. Herr, ich warte auf dein Heil
11. Unser Leben währet sienzig Jahr
12. Herr, du lässest mich erfahren
13. Dem Mensch ist gesetzt, einmal zu sterben
14. Mit Weinen hebt sich an
15. Ich lasse dich nicht


CD2 (18 / 1:09:20)

01. Das Blut Jesu Christe, motet for 5 voices
02. Motet in eight voices 'Nun hab ich überwunden'
03. Fürchte dich nicht, motet for 5 voices
04. Lieber Herr Gott, motet for 8 voices
05. Fürchtet euch nicht, motet for 8 voices
06. Allein Gott in der Höh sei Ehr, chorale for organ
07. Merk auf, mein Herz, und sieh dorthin, motet for double chorus (formerly attrib. to J.S. Bach, BWV Anh. 163): Merk auf, mein Herz
08. Merk auf, mein Herz, und sieh dorthin, motet for double chorus (formerly attrib. to J.S. Bach, BWV Anh. 163): Es ist der Herr Christ, unser Gott
09. Merk auf, mein Herz, und sieh dorthin, motet for double chorus (formerly attrib. to J.S. Bach, BWV Anh. 163): Des laßt uns alle fröhlich sein
10. Merk auf, mein Herz, und sieh dorthin, motet for double chorus (formerly attrib. to J.S. Bach, BWV Anh. 163): Bist willkommen
11. Merk auf, mein Herz, und sieh dorthin, motet for double chorus (formerly attrib. to J.S. Bach, BWV Anh. 163): Ach, Herr, Du Schöpfer aller Ding
12. Merk auf, mein Herz, und sieh dorthin, motet for double chorus (formerly attrib. to J.S. Bach, BWV Anh. 163): Ach, mein herzliebes Jesulein
13. Merk auf, mein Herz, und sieh dorthin, motet for double chorus (formerly attrib. to J.S. Bach, BWV Anh. 163): Lob, Ehr sei Gott im höchsten Thron
14. Sei lieber Tag willkommen, motet for 6 voices
15. Nun treten wir ins neue Jahr, motet
16. Herr, nun lässest du deinen Diener, motet for 8 voices
17. Unsers Herzens Freude, motet for 8 voices
18. Es ist nun aus, aria for 4 voices & continuo

Vox Luminis, Lionel Meunier - J.S. Bach, J.C. Bach & J.M. Bach: Motetten (2015)



Sara Jäggi, Zsuzsi Tóth, Kristen Witmer – sopranos
Helen Cassano – mezzo-soprano
Barnabás Hegyi, Jan Kullmann, Daniel Elgersma – conter-tenors
Olivier Berten, Robert Buckland, Philippe Froeliger – tenors
Achim Hoffmann – bariton
Bertrand Delvaux. Lionel Meunier, Matthias Lutze – basses


Masato Suzuki, Haru Kitamika, Claudio Ribeiro, David Van Bouwel – organ

artistic direction: Lionel Meunier

Scorpio Collectief: Eva Godard, Simen Van Mechelen (artistic direction), Adam Woolf, Charlotte Van Passen, Adam Bregman

Exact Audio Copy V1.3 from 2. September 2016

EAC extraction logfile from 18. October 2016, 23:19

Lionel Meunier / Motetten

Used drive : PLDS DVD-RW DU8A5SH Adapter: 1 ID: 0

Read mode : Secure
Utilize accurate stream : Yes
Defeat audio cache : Yes
Make use of C2 pointers : No

Read offset correction : 6
Overread into Lead-In and Lead-Out : No
Fill up missing offset samples with silence : Yes
Delete leading and trailing silent blocks : No
Null samples used in CRC calculations : Yes
Used interface : Native Win32 interface for Win NT & 2000
Gap handling : Appended to previous track

Used output format : User Defined Encoder
Selected bitrate : 1024 kBit/s
Quality : High
Add ID3 tag : No
Command line compressor : C:\Program Files (x86)\Exact Audio Copy\FLAC\flac.exe
Additional command line options : -8 -e -V -T "ARTIST=%artist%" -T "TITLE=%title%" -T "ALBUM=%albumtitle%" -T "DATE=%year%" -T "TRACKNUMBER=%tracknr%" -T "GENRE=%genre%" -T "PERFORMER=%albuminterpret%" -T "COMPOSER=%composer%" %haslyrics%–tag-from-file=LYRICS="%lyricsfile%"%haslyrics% -T "ALBUMARTIST=%albumartist%" -T "DISCNUMBER=%cdnumber%" -T "TOTALDISCS=%totalcds%" -T "TOTALTRACKS=%numtracks%" -T "COMMENT=%comment%" %source% -o %dest%


TOC of the extracted CD

Track | Start | Length | Start sector | End sector
––––––––––––––––––––––––––––-
1 | 0:00.00 | 3:33.51 | 0 | 16025
2 | 3:33.51 | 7:35.12 | 16026 | 50162
3 | 11:08.63 | 6:25.16 | 50163 | 79053
4 | 17:34.04 | 4:51.68 | 79054 | 100946
5 | 22:25.72 | 3:38.68 | 100947 | 117364
6 | 26:04.65 | 3:55.50 | 117365 | 135039
7 | 30:00.40 | 5:26.10 | 135040 | 159499
8 | 35:26.50 | 2:50.54 | 159500 | 172303
9 | 38:17.29 | 3:14.21 | 172304 | 186874
10 | 41:31.50 | 4:52.33 | 186875 | 208807
11 | 46:24.08 | 3:54.54 | 208808 | 226411
12 | 50:18.62 | 4:28.15 | 226412 | 246526
13 | 54:47.02 | 6:21.74 | 246527 | 275175
14 | 61:09.01 | 6:24.61 | 275176 | 304036
15 | 67:33.62 | 4:46.16 | 304037 | 325502


Track 1

Filename D:\music\EAC rips\01 - Sei nun wieder zufrieden Meine Seele.wav

Pre-gap length 0:00:02.00

Peak level 55.4 %
Extraction speed 1.9 X
Track quality 100.0 %
Test CRC B527C076
Copy CRC B527C076
Accurately ripped (confidence 5) [439C11B6] (AR v2)
Copy OK

Track 2

Filename D:\music\EAC rips\02 - Unser Leben ist ein Schatten.wav

Peak level 75.2 %
Extraction speed 2.0 X
Track quality 99.9 %
Test CRC 574FB491
Copy CRC 574FB491
Accurately ripped (confidence 5) [C27366C4] (AR v2)
Copy OK

Track 3

Filename D:\music\EAC rips\03 - Weint nict om meiniem Tod.wav

Peak level 36.2 %
Extraction speed 2.6 X
Track quality 100.0 %
Test CRC ECEAD13D
Copy CRC ECEAD13D
Accurately ripped (confidence 5) [265E231E] (AR v2)
Copy OK

Track 4

Filename D:\music\EAC rips\04 - Der Gerechte, ob er gleich zi zeitlich stirbt.wav

Peak level 68.3 %
Extraction speed 2.8 X
Track quality 100.0 %
Test CRC 7EF556AD
Copy CRC 7EF556AD
Accurately ripped (confidence 5) [C07F11F1] (AR v2)
Copy OK

Track 5

Filename D:\music\EAC rips\05 - Der Mensch, von Weine geboren.wav

Peak level 67.9 %
Extraction speed 2.8 X
Track quality 100.0 %
Test CRC A80ACAC5
Copy CRC A80ACAC5
Accurately ripped (confidence 5) [791805FC] (AR v2)
Copy OK

Track 6

Filename D:\music\EAC rips\06 - Sein getreu bis in den Tod.wav

Peak level 38.7 %
Extraction speed 3.0 X
Track quality 100.0 %
Test CRC 272D2BF0
Copy CRC 272D2BF0
Accurately ripped (confidence 5) [9A151449] (AR v2)
Copy OK

Track 7

Filename D:\music\EAC rips\07 - Halt, was du hast.wav

Peak level 95.1 %
Extraction speed 3.2 X
Track quality 100.0 %
Test CRC C81D7FE9
Copy CRC C81D7FE9
Accurately ripped (confidence 5) [5257462C] (AR v2)
Copy OK

Track 8

Filename D:\music\EAC rips\08 - Ich weis das mein Erlöser lebt.wav

Peak level 49.4 %
Extraction speed 2.9 X
Track quality 100.0 %
Test CRC 09D6CEED
Copy CRC 09D6CEED
Accurately ripped (confidence 5) [5523520B] (AR v2)
Copy OK

Track 9

Filename D:\music\EAC rips\09 - Herr, wenn ich nur dich habe.wav

Peak level 50.5 %
Extraction speed 3.2 X
Track quality 100.0 %
Test CRC 4D58E385
Copy CRC 4D58E385
Accurately ripped (confidence 5) [ACFDF7E6] (AR v2)
Copy OK

Track 10

Filename D:\music\EAC rips\10 - Herr, ich warte auf dein Heil.wav

Peak level 80.8 %
Extraction speed 3.4 X
Track quality 100.0 %
Test CRC A610959E
Copy CRC A610959E
Accurately ripped (confidence 5) [CFBEF2DD] (AR v2)
Copy OK

Track 11

Filename D:\music\EAC rips\11 - Unser Leben währet sienzig Jahr.wav

Peak level 46.6 %
Extraction speed 2.5 X
Track quality 99.9 %
Test CRC 144098D1
Copy CRC 144098D1
Accurately ripped (confidence 5) [0CCD8E7B] (AR v2)
Copy OK

Track 12

Filename D:\music\EAC rips\12 - Herr, du lässest mich erfahren.wav

Peak level 47.6 %
Extraction speed 0.2 X
Track quality 99.6 %
Test CRC 0D87FB90
Copy CRC 0D87FB90
Accurately ripped (confidence 5) [61846000] (AR v2)
Copy OK

Track 13

Filename D:\music\EAC rips\13 - Dem Mensch ist gesetzt, einmal zu sterben.wav

Peak level 51.0 %
Extraction speed 0.4 X
Track quality 99.8 %
Test CRC EBA6360B
Copy CRC EBA6360B
Accurately ripped (confidence 5) [D6FA104E] (AR v2)
Copy OK

Track 14

Filename D:\music\EAC rips\14 - Mit Weinen hebt sich an.wav

Peak level 57.5 %
Extraction speed 0.5 X
Track quality 99.9 %
Test CRC EF06791F
Copy CRC EF06791F
Accurately ripped (confidence 5) [4C94C4FF] (AR v2)
Copy OK

Track 15

Filename D:\music\EAC rips\15 - Ich lasse dich nicht.wav

Peak level 56.1 %
Extraction speed 0.6 X
Track quality 100.0 %
Test CRC F9FCFA3A
Copy CRC F9FCFA3A
Accurately ripped (confidence 5) [216FBCE7] (AR v2)
Copy OK


All tracks accurately ripped

No errors occurred

End of status report

–– CUETools DB Plugin V2.1.6

[CTDB TOCID: EFaDE9AjRwNBk9yA_TBsUUx3vBQ-] found
Submit result: EFaDE9AjRwNBk9yA_TBsUUx3vBQ- has been confirmed
Track | CTDB Status
1 | (11/12) Accurately ripped
2 | (12/12) Accurately ripped
3 | (12/12) Accurately ripped
4 | (12/12) Accurately ripped
5 | (12/12) Accurately ripped
6 | (12/12) Accurately ripped
7 | (12/12) Accurately ripped
8 | (12/12) Accurately ripped
9 | (12/12) Accurately ripped
10 | (12/12) Accurately ripped
11 | (12/12) Accurately ripped
12 | (12/12) Accurately ripped
13 | (12/12) Accurately ripped
14 | (12/12) Accurately ripped
15 | (12/12) Accurately ripped


==== Log checksum 039F3F842D52EF50E37085D320DFB8594CFA46840D9E32E23887F14BEC8FA934 ====

Exact Audio Copy V1.3 from 2. September 2016

EAC extraction logfile from 22. October 2016, 10:59

Vox Luminis; Lionel Meunier / Johann Bach, Johann Christoph Bach, Johann Michael Bach: Motetten, Disc 2

Used drive : PLDS DVD-RW DU8A5SH Adapter: 1 ID: 0

Read mode : Secure
Utilize accurate stream : Yes
Defeat audio cache : Yes
Make use of C2 pointers : No

Read offset correction : 6
Overread into Lead-In and Lead-Out : No
Fill up missing offset samples with silence : Yes
Delete leading and trailing silent blocks : No
Null samples used in CRC calculations : Yes
Used interface : Native Win32 interface for Win NT & 2000
Gap handling : Appended to previous track

Used output format : User Defined Encoder
Selected bitrate : 1024 kBit/s
Quality : High
Add ID3 tag : No
Command line compressor : C:\Program Files (x86)\Exact Audio Copy\FLAC\flac.exe
Additional command line options : -8 -e -V -T "ARTIST=%artist%" -T "TITLE=%title%" -T "ALBUM=%albumtitle%" -T "DATE=%year%" -T "TRACKNUMBER=%tracknr%" -T "GENRE=%genre%" -T "PERFORMER=%albuminterpret%" -T "COMPOSER=%composer%" %haslyrics%–tag-from-file=LYRICS="%lyricsfile%"%haslyrics% -T "ALBUMARTIST=%albumartist%" -T "DISCNUMBER=%cdnumber%" -T "TOTALDISCS=%totalcds%" -T "TOTALTRACKS=%numtracks%" -T "COMMENT=%comment%" %source% -o %dest%


TOC of the extracted CD

Track | Start | Length | Start sector | End sector
––––––––––––––––––––––––––––-
1 | 0:00.00 | 4:56.68 | 0 | 22267
2 | 4:56.68 | 3:26.21 | 22268 | 37738
3 | 8:23.14 | 4:35.02 | 37739 | 58365
4 | 12:58.16 | 4:16.31 | 58366 | 77596
5 | 17:14.47 | 3:10.42 | 77597 | 91888
6 | 20:25.14 | 3:29.55 | 91889 | 107618
7 | 23:54.69 | 1:35.44 | 107619 | 114787
8 | 25:30.38 | 1:26.49 | 114788 | 121286
9 | 26:57.12 | 1:30.33 | 121287 | 128069
10 | 28:27.45 | 2:18.67 | 128070 | 138486
11 | 30:46.37 | 2:03.17 | 138487 | 147728
12 | 32:49.54 | 2:21.70 | 147729 | 158373
13 | 35:11.49 | 1:59.11 | 158374 | 167309
14 | 37:10.60 | 4:44.06 | 167310 | 188615
15 | 41:54.66 | 3:36.28 | 188616 | 204843
16 | 45:31.19 | 5:32.08 | 204844 | 229751
17 | 51:03.27 | 8:13.30 | 229752 | 266756
18 | 59:16.57 | 10:02.72 | 266757 | 311978


Track 1

Filename D:\music\EAC rips\01 - Das Blut Jesu Christe, motet for 5 voices.wav

Pre-gap length 0:00:02.00

Peak level 51.1 %
Extraction speed 1.3 X
Track quality 100.0 %
Test CRC 6DE3E924
Copy CRC 6DE3E924
Accurately ripped (confidence 4) [4771A429] (AR v2)
Copy OK

Track 2

Filename D:\music\EAC rips\02 - Motet in eight voices ''Nun hab ich überwunden''.wav

Peak level 42.4 %
Extraction speed 1.3 X
Track quality 100.0 %
Test CRC 1989D666
Copy CRC 1989D666
Accurately ripped (confidence 4) [602B5313] (AR v2)
Copy OK

Track 3

Filename D:\music\EAC rips\03 - Fürchte dich nicht, motet for 5 voices.wav

Peak level 30.1 %
Extraction speed 1.5 X
Track quality 100.0 %
Test CRC 6234675D
Copy CRC 6234675D
Accurately ripped (confidence 4) [617826E4] (AR v2)
Copy OK

Track 4

Filename D:\music\EAC rips\04 - Lieber Herr Gott, motet for 8 voices.wav

Peak level 57.5 %
Extraction speed 1.6 X
Track quality 100.0 %
Test CRC EEF2A315
Copy CRC EEF2A315
Accurately ripped (confidence 4) [608ADB02] (AR v2)
Copy OK

Track 5

Filename D:\music\EAC rips\05 - Fürchtet euch nicht, motet for 8 voices.wav

Peak level 58.8 %
Extraction speed 1.4 X
Track quality 99.9 %
Test CRC B8642CD6
Copy CRC B8642CD6
Accurately ripped (confidence 4) [3BD4B83E] (AR v2)
Copy OK

Track 6

Filename D:\music\EAC rips\06 - Allein Gott in der Höh sei Ehr, chorale for organ.wav

Peak level 81.2 %
Extraction speed 1.7 X
Track quality 100.0 %
Test CRC AE9153E4
Copy CRC AE9153E4
Accurately ripped (confidence 4) [ED4A513B] (AR v2)
Copy OK

Track 7

Filename D:\music\EAC rips\07 - Merk auf, mein Herz, und sieh dorthin, motet for double chorus (formerly attrib. to J.S. Bach, BWV Anh. 163)- Merk auf, mein Herz.wav

Peak level 48.1 %
Extraction speed 1.2 X
Track quality 99.8 %
Test CRC E36D801C
Copy CRC E36D801C
Accurately ripped (confidence 4) [BCF953D0] (AR v2)
Copy OK

Track 8

Filename D:\music\EAC rips\08 - Merk auf, mein Herz, und sieh dorthin, motet for double chorus (formerly attrib. to J.S. Bach, BWV Anh. 163)- Es ist der Herr Christ, unser Gott.wav

Peak level 72.4 %
Extraction speed 1.1 X
Track quality 99.8 %
Test CRC 9576D499
Copy CRC 9576D499
Accurately ripped (confidence 4) [FB760F07] (AR v2)
Copy OK

Track 9

Filename D:\music\EAC rips\09 - Merk auf, mein Herz, und sieh dorthin, motet for double chorus (formerly attrib. to J.S. Bach, BWV Anh. 163)- Des laßt uns alle fröhlich sein.wav

Peak level 53.3 %
Extraction speed 1.5 X
Track quality 100.0 %
Test CRC F29CF4D4
Copy CRC F29CF4D4
Accurately ripped (confidence 4) [B42DD6C8] (AR v2)
Copy OK

Track 10

Filename D:\music\EAC rips\10 - Merk auf, mein Herz, und sieh dorthin, motet for double chorus (formerly attrib. to J.S. Bach, BWV Anh. 163)- Bist willkommen.wav

Peak level 84.6 %
Extraction speed 1.7 X
Track quality 100.0 %
Test CRC 12A31342
Copy CRC 12A31342
Accurately ripped (confidence 4) [0033A488] (AR v2)
Copy OK

Track 11

Filename D:\music\EAC rips\11 - Merk auf, mein Herz, und sieh dorthin, motet for double chorus (formerly attrib. to J.S. Bach, BWV Anh. 163)- Ach, Herr, Du Schöpfer aller Ding.wav

Peak level 54.4 %
Extraction speed 1.7 X
Track quality 100.0 %
Test CRC A7D240BC
Copy CRC A7D240BC
Accurately ripped (confidence 4) [B19D4332] (AR v2)
Copy OK

Track 12

Filename D:\music\EAC rips\12 - Merk auf, mein Herz, und sieh dorthin, motet for double chorus (formerly attrib. to J.S. Bach, BWV Anh. 163)- Ach, mein herzliebes Jesulein.wav

Peak level 41.6 %
Extraction speed 1.8 X
Track quality 100.0 %
Test CRC AC5D600A
Copy CRC AC5D600A
Accurately ripped (confidence 4) [D810D75F] (AR v2)
Copy OK

Track 13

Filename D:\music\EAC rips\13 - Merk auf, mein Herz, und sieh dorthin, motet for double chorus (formerly attrib. to J.S. Bach, BWV Anh. 163)- Lob, Ehr sei Gott im höchsten Thron.wav

Peak level 40.0 %
Extraction speed 1.8 X
Track quality 100.0 %
Test CRC 82E2D086
Copy CRC 82E2D086
Accurately ripped (confidence 4) [4481C148] (AR v2)
Copy OK

Track 14

Filename D:\music\EAC rips\14 - Sei lieber Tag willkommen, motet for 6 voices.wav

Peak level 59.3 %
Extraction speed 2.1 X
Track quality 100.0 %
Test CRC DE530D98
Copy CRC DE530D98
Accurately ripped (confidence 4) [81FBE8A0] (AR v2)
Copy OK

Track 15

Filename D:\music\EAC rips\15 - Nun treten wir ins neue Jahr, motet.wav

Peak level 74.6 %
Extraction speed 2.1 X
Track quality 100.0 %
Test CRC 0D1450B8
Copy CRC 0D1450B8
Accurately ripped (confidence 4) [DA95079A] (AR v2)
Copy OK

Track 16

Filename D:\music\EAC rips\16 - Herr, nun lässest du deinen Diener, motet for 8 voices.wav

Peak level 69.5 %
Extraction speed 2.3 X
Track quality 100.0 %
Test CRC 101726BA
Copy CRC 101726BA
Accurately ripped (confidence 4) [881E6B97] (AR v2)
Copy OK

Track 17

Filename D:\music\EAC rips\17 - Unsers Herzens Freude, motet for 8 voices.wav

Peak level 92.8 %
Extraction speed 0.8 X
Track quality 100.0 %
Test CRC DFEA7A93
Copy CRC DFEA7A93
Accurately ripped (confidence 4) [C9B81DDB] (AR v2)
Copy OK

Track 18

Filename D:\music\EAC rips\18 - Es ist nun aus, aria for 4 voices & continuo.wav

Peak level 44.2 %
Extraction speed 0.7 X
Track quality 100.0 %
Test CRC 31805854
Copy CRC 31805854
Accurately ripped (confidence 4) [D9F0D1EC] (AR v2)
Copy OK


All tracks accurately ripped

No errors occurred

End of status report

–– CUETools DB Plugin V2.1.6

[CTDB TOCID: E3RXBrwb..dFGh6zpIM3pmR0K0U-] found
Submit result: E3RXBrwb..dFGh6zpIM3pmR0K0U- has been confirmed
Track | CTDB Status
1 | (14/14) Accurately ripped
2 | (14/14) Accurately ripped
3 | (14/14) Accurately ripped
4 | (14/14) Accurately ripped
5 | (14/14) Accurately ripped
6 | (14/14) Accurately ripped
7 | (14/14) Accurately ripped
8 | (14/14) Accurately ripped
9 | (14/14) Accurately ripped
10 | (14/14) Accurately ripped
11 | (14/14) Accurately ripped
12 | (14/14) Accurately ripped
13 | (14/14) Accurately ripped
14 | (14/14) Accurately ripped
15 | (14/14) Accurately ripped
16 | (14/14) Accurately ripped
17 | (14/14) Accurately ripped
18 | (14/14) Accurately ripped


==== Log checksum 0D092A7E6085B5ADD8266CF1B4D379875D1D995C22E3BC47D4A8DBAB67D786DF ====



Thanks to the Original customer.