Subcategories

Wadada Leo Smith & Adam Rudolph - Compassion (2006) [Meta-Kabell 010}

Posted By: ruskaval
Wadada Leo Smith & Adam Rudolph - Compassion (2006) [Meta-Kabell 010}

Wadada Leo Smith & Adam Rudolph - Compassion (2006) {Meta-Kabell 010}
EAC rip (secure mode) | FLAC (image)+CUE+LOG -> 236 Mb | MP3 @320 -> 125 Mb
Full Artwork @ 300 dpi (png) -> 30 Mb | 5% repair rar
© 2006 Meta Records / Kabell Records | 010
Jazz / Modern Creative / Post Bop / World Fusion / Trumpet / Percussion

Long-time occasional collaborators Wadada Leo Smith and Adam Rudolph perform improvised/composed duets from a 2002 performance live at Venice's Electric Lodge on Compassion, newly released on Rudolph's Meta Records. Both are masters of their mediums: Rudolph plays a variety of percussion instruments and at least one wind instrument to sonically shade, color, and texturize; Smith uses trumpet and flugelhorn in conventional and extended ways to complement him. With improvisers of this depth, the journey takes many unexpected turns, all rewarding.

The spacious and exotic Beauty: Aquamarine Night allows each musician to display subtlety and understatement while interacting with unhurried delicacy. Rudolph blows a double-reed instrument fanfare on "Sun Ray Colors and Rainbow Images, with Smith's flugelhorn circulating. Returning to percussion, Rudolph marks silence with gong flares, scratches, and shakers as Smith slides around the rich toned flugelhorn. "Fragrance of Light finds the percussionist offering a brief glimpse of his remarkable skill on hand drums, while Smith blows muted and clear toned trumpet jet trails.

Adding his distinctive vocalese chant to propulsive drumming, Rudolph simmers on the skins while Smith essays a scorching musical thread on Love Rhythms, Heart Songs. Smith leads the "Song of Humanity, a reedy introspective muted meditation complimented by Rudolph's melodic drum work. Appropriately, "The Caller and the Called finds Smith in full voice, hitting gorgeous tones with congas resonating. Part two is pure Codona: Rudolph maintains a pulse on the rhythmic dousn'goni; Smith is more muscular than Cherry, but still a muted brass butterfly.

Musicians
Adam Rudolph - handrumset, dusu’ngoni, sibsi, vocal, kalimbas, gongs, cymbals, percussion
Wadada Leo Smith - trumpet, flugelhorn

Music composed by Wadada Leo Smith and Adam Rudolph
Recorded live in concert June 29, 2002 at The Electric Lodge, Venice, CA


Track Listing
01 - Beauty: Aquamarine Night - 3:30
02 - Sun Ray Colors and Rainbow Images - 10:16
03 - Fragrance of Light - 3:11
04 - Love Rhythms, Heart Songs - 13:06
05 - Song of Humanity - 4:30
06 - Silver Dream Circle - 7:13
07 - The Caller and the Called - 4:49

Exact Audio Copy V0.99 prebeta 4 from 23. January 2008

EAC extraction logfile from 15. May 2010, 12:30

Wadada Leo Smith / Adam Rudolph / Compassion

Used drive : TSSTcorpCD/DVDW SH-S182M Adapter: 2 ID: 0

Read mode : Secure
Utilize accurate stream : Yes
Defeat audio cache : Yes
Make use of C2 pointers : No

Read offset correction : 6
Overread into Lead-In and Lead-Out : No
Fill up missing offset samples with silence : Yes
Delete leading and trailing silent blocks : No
Null samples used in CRC calculations : Yes
Used interface : Installed external ASPI interface

Used output format : User Defined Encoder
Selected bitrate : 1024 kBit/s
Quality : High
Add ID3 tag : No
Command line compressor : C:\Program Files\Exact Audio Copy\Flac\flac.exe
Additional command line options : -6 -V -T "ARTIST=%a" -T "TITLE=%t" -T "ALBUM=%g" -T "DATE=%y" -T "TRACKNUMBER=%n" -T "GENRE=%m" -T "COMMENT=EAC FLAC -6" %s


TOC of the extracted CD

Track | Start | Length | Start sector | End sector
––––––––––––––––––––––––––––-
1 | 0:00.00 | 3:40.12 | 0 | 16511
2 | 3:40.12 | 10:24.00 | 16512 | 63311
3 | 14:04.12 | 3:16.55 | 63312 | 78066
4 | 17:20.67 | 13:11.23 | 78067 | 137414
5 | 30:32.15 | 4:35.55 | 137415 | 158094
6 | 35:07.70 | 7:19.02 | 158095 | 191021
7 | 42:26.72 | 4:48.59 | 191022 | 212680


Range status and errors

Selected range

Filename C:\Users\Igor\Music\eac\Wadada Leo Smith & Adam Rudolph - Compassion.wav

Peak level 99.4 %
Range quality 100.0 %
Test CRC 4FD2182B
Copy CRC 4FD2182B
Copy OK

No errors occurred


AccurateRip summary

Track 1 accurately ripped (confidence 2) [D0559A4E]
Track 2 accurately ripped (confidence 2) [82752C9F]
Track 3 accurately ripped (confidence 2) [91918CAA]
Track 4 accurately ripped (confidence 2) [254D4D33]
Track 5 accurately ripped (confidence 2) [03477B29]
Track 6 accurately ripped (confidence 2) [DCEC5EEF]
Track 7 accurately ripped (confidence 2) [04ECB3B9]

All tracks accurately ripped

End of status report


Wadada Leo Smith & Adam Rudolph - Compassion (2006) [Meta-Kabell 010}

Wadada Leo Smith & Adam Rudolph - Compassion (2006) [Meta-Kabell 010}


see more Adam Rudolph…

NEXT -> more Adam Rudolph on the way…


===