Subcategories

Wayanay Inka - Enchanted Feelings (1999)

Posted By: firepower
Wayanay Inka - Enchanted Feelings (1999)

Wayanay Inka - Enchanted Feelings (1999)
EAC, FLAC image, CUE+LOG - 299 MB | MP3 320 CBR - 96 MB | Complete 600dpi Art, JPG - 59 MB or TIF - 170 MB
Ethnic, Native American | 1999 Wayanay Inka Records WIR CD Vol. 3 | 5% recovery record | Source: My CD

Native Americans performing ethnic music. I have watched this group perform several times locally and find them quite good. They have recorded several CDs but this is the only one I have.
Wayanay Inka - Enchanted Feelings (1999)

Tracklist:

01 - Coral (Coral)
02 - Road to Antigua (Camino A Antigua)
03 - Come Back My Love (Regresa Amor)
04 - Bamboo (Bambú)
05 - The Eagle Pass (Paso del Aguila)
06 - Shepherd Girl (Pastorcita)
07 - Inka's Dreams (Sueños del Inka)
08 - Our Anniversary (Nuestro Aniversario)
09 - Tikal (Tikal)
10 - Sweet Jazmine (Dulce Jazmine)
Wayanay Inka - Enchanted Feelings (1999)

Wayanay Inka - Enchanted Feelings (1999)

Exact Audio Copy V1.0 beta 2 from 29. April 2011

EAC extraction logfile from 24. November 2015, 9:50

Wayanay Inka / Enchanted Feelings

Used drive : LITE-ON LTR-52327S Adapter: 0 ID: 1

Read mode : Secure
Utilize accurate stream : Yes
Defeat audio cache : Yes
Make use of C2 pointers : No

Read offset correction : 6
Overread into Lead-In and Lead-Out : No
Fill up missing offset samples with silence : Yes
Delete leading and trailing silent blocks : No
Null samples used in CRC calculations : Yes
Used interface : Native Win32 interface for Win NT & 2000

Used output format : User Defined Encoder
Selected bitrate : 768 kBit/s
Quality : High
Add ID3 tag : No
Command line compressor : C:\Program Files (x86)\EAC 1.0 beta 2\Exact Audio Copy\Flac\flac.exe
Additional command line options : -0 -V -T "ARTIST=%artist%" -T "TITLE=%title%" -T "ALBUM=%albumtitle%" -T "DATE=%year%" -T "TRACKNUMBER=%tracknr%" -T "GENRE=%genre%" -T "COMMENT=ExactAudioCopy v1.0b2 rip by firepower at Avaxhome" -T "BAND=%albuminterpret%"


TOC of the extracted CD

Track | Start | Length | Start sector | End sector
––––––––––––––––––––––––––––-
1 | 0:00.00 | 4:12.04 | 0 | 18903
2 | 4:12.04 | 3:19.67 | 18904 | 33895
3 | 7:31.71 | 4:20.64 | 33896 | 53459
4 | 11:52.60 | 3:28.41 | 53460 | 69100
5 | 15:21.26 | 4:39.62 | 69101 | 90087
6 | 20:01.13 | 5:04.59 | 90088 | 112946
7 | 25:05.72 | 3:15.65 | 112947 | 127636
8 | 28:21.62 | 3:37.26 | 127637 | 143937
9 | 31:59.13 | 4:48.19 | 143938 | 165556
10 | 36:47.32 | 3:27.47 | 165557 | 181128


Range status and errors

Selected range

Filename J:\Avaxhome\firepower\Wayanay Inka - Enchanted Feelings.wav

Peak level 100.0 %
Extraction speed 5.7 X
Range quality 100.0 %
Test CRC 730BA160
Copy CRC 730BA160
Copy OK

No errors occurred


AccurateRip summary

Track 1 cannot be verified as accurate (confidence 1) [335375C7], AccurateRip returned [939FE645] (AR v2)
Track 2 cannot be verified as accurate (confidence 1) [49CCDDDF], AccurateRip returned [268A49D6] (AR v2)
Track 3 cannot be verified as accurate (confidence 1) [C9D89DBB], AccurateRip returned [9B65373C] (AR v2)
Track 4 cannot be verified as accurate (confidence 1) [EE2301A4], AccurateRip returned [D75C0B02] (AR v2)
Track 5 cannot be verified as accurate (confidence 1) [FBF6B4BC], AccurateRip returned [60EFD882] (AR v2)
Track 6 cannot be verified as accurate (confidence 1) [CC1C829D], AccurateRip returned [606B6130] (AR v2)
Track 7 cannot be verified as accurate (confidence 1) [DA93CEE5], AccurateRip returned [31D06EC6] (AR v2)
Track 8 cannot be verified as accurate (confidence 1) [66AB5145], AccurateRip returned [F69D52C6] (AR v2)
Track 9 cannot be verified as accurate (confidence 1) [C8092614], AccurateRip returned [4EA26AD8] (AR v2)
Track 10 cannot be verified as accurate (confidence 1) [623DEB73], AccurateRip returned [DFCF08E4] (AR v2)

No tracks could be verified as accurate
You may have a different pressing from the one(s) in the database

End of status report

==== Log checksum C80CBF99E3AD2ACEA83647243081684C6E3AD1C6F5D8F1F9D279F27B6A09140B ====

Notes:
This issue has no booklet, only a folded insert.
There is no artwork included in the music archives.
JPG and TIF are available as separate archives.
JPG setting is 100. FLAC is level 0.
Scans are 600dpi using a Mustek A3 1200S scanner.
All files are fully tagged.
5% recovery record
-NF-

Password = avaxhome