Subcategories

Wayne Shorter - Moto Grosso Feio (1970) {Blue Note Japan BNLA Series 24-bit Remaster TOCJ-50501 rel 2012}

Posted By: ruskaval
Wayne Shorter - Moto Grosso Feio (1970) {Blue Note Japan BNLA Series 24-bit Remaster TOCJ-50501 rel 2012}

Wayne Shorter - Moto Grosso Feio (1970) {Blue Note Japan BNLA Series 24-bit Remaster TOCJ-50501 rel 2012}
EAC rip (secure mode) | FLAC (tracks)+CUE+LOG -> 244 Mb | MP3 @320 -> 99 Mb
Full Artwork @ 600 dpi (png) -> 174 Mb | 5% repair rar | 24bit 192kHz remaster
© 1970, 2012 Blue Note / EMI Music Japan | TOCJ-50501
Jazz / Post Bop / Saxophone

A perfect illustration of the rich new directions Wayne Shorter was taking at the start of the 70s – an amazing flurry of sounds and styles that's light years ahead of where he began in the 60s! Shorter's one of those players who was already great at the start – an amazing tenorist, both on his own and with the groups of Art Blakey and Miles Davis – yet by the time of this record, he'd absorbed a huge amount of influences from Brazilian music, modal jazz, the spiritual underground, and even the free European scene – all of which come to play on the long, complex tunes on the set!
Wayne Shorter - Moto Grosso Feio (1970) {Blue Note Japan BNLA Series 24-bit Remaster TOCJ-50501 rel 2012}

The record has Shorter working with some other key contemporaries of this new moment in jazz – John McLaughlin on 12 string guitar, Chick Corea on marimba and percussion, Dave Holland and Miroslav Vitous on bass, and Ron Carter on cello – all players who have the same open, exploratory vibe as Wayne's own lines on tenor and soprano sax. Titles include an excellent cover of Milton Nascimento's "Vera Cruz", plus the tracks "Antiqua", "Iska", and "Montezuma".
Wayne Shorter - Moto Grosso Feio (1970) {Blue Note Japan BNLA Series 24-bit Remaster TOCJ-50501 rel 2012}


Personnel:
Wayne Shorter — soprano saxophone, tenor saxophone
John McLaughlin — 12 string guitar
Chick Corea — marimba, drums, percussion
Ron Carter — bass, cello
Dave Holland — acoustic guitar, bass
Miroslav Vitouš — bass (uncredited on album cover but mentioned as part of sessions in liner notes)
Micheline Pelzer (credited as Michelin Prell) — drums, percussion

tracklist:
01 - Moto Grosso Feio
02 - Montezuma
03 - Antigua
04 - Vera Cruz
05 - Iska

Exact Audio Copy V1.0 beta 4 from 7. December 2014

EAC extraction logfile from 1. April 2015, 20:02

Wayne Shorter / Moto Grosso Feio

Used drive : TSSTcorpCDDVDW SE-208DB Adapter: 1 ID: 1

Read mode : Secure
Utilize accurate stream : Yes
Defeat audio cache : Yes
Make use of C2 pointers : No

Read offset correction : 6
Overread into Lead-In and Lead-Out : No
Fill up missing offset samples with silence : Yes
Delete leading and trailing silent blocks : No
Null samples used in CRC calculations : Yes
Used interface : Native Win32 interface for Win NT & 2000
Gap handling : Appended to previous track

Used output format : User Defined Encoder
Selected bitrate : 1024 kBit/s
Quality : High
Add ID3 tag : No
Command line compressor : C:\Program Files (x86)\FLAC Frontend\tools\flac.exe
Additional command line options : -8 -V -T "ARTIST=%artist%" -T "TITLE=%title%" -T "ALBUM=%albumtitle%" -T "DATE=%year%" -T "TRACKNUMBER=%tracknr%" -T "TOTALTRACKS=%numtracks%" -T "GENRE=%genre%" -T "ALBUMARTIST=%albumartist%" -T "ALBUM ARTIST=%albumartist%" -T "COMMENT=EAC Secure Mode, Test & Copy, AccurateRip, FLAC -8" %source%


TOC of the extracted CD

Track | Start | Length | Start sector | End sector
––––––––––––––––––––––––––––-
1 | 0:00.00 | 12:28.38 | 0 | 56137
2 | 12:28.38 | 7:52.38 | 56138 | 91575
3 | 20:21.01 | 5:24.39 | 91576 | 115914
4 | 25:45.40 | 5:11.58 | 115915 | 139297
5 | 30:57.23 | 11:20.67 | 139298 | 190364


Track 1

Filename D:\_EAC\Wayne Shorter - Moto Grosso Feio (1970) [FLAC] {2012 Japanese BNLA Series 24-bit Remaster}\01 - Moto Grosso Feio.wav

Pre-gap length 0:00:02.00

Peak level 96.9 %
Extraction speed 1.2 X
Track quality 100.0 %
Test CRC 3FD11738
Copy CRC 3FD11738
Accurately ripped (confidence 5) [4DE0F085] (AR v2)
Copy OK

Track 2

Filename D:\_EAC\Wayne Shorter - Moto Grosso Feio (1970) [FLAC] {2012 Japanese BNLA Series 24-bit Remaster}\02 - Montezuma.wav

Pre-gap length 0:00:01.43

Peak level 97.5 %
Extraction speed 1.4 X
Track quality 100.0 %
Test CRC 1CC53D39
Copy CRC 1CC53D39
Accurately ripped (confidence 5) [1842FC38] (AR v2)
Copy OK

Track 3

Filename D:\_EAC\Wayne Shorter - Moto Grosso Feio (1970) [FLAC] {2012 Japanese BNLA Series 24-bit Remaster}\03 - Antigua.wav

Pre-gap length 0:00:01.43

Peak level 96.8 %
Extraction speed 1.5 X
Track quality 100.0 %
Test CRC 144D187C
Copy CRC 144D187C
Accurately ripped (confidence 5) [6CD4FEF5] (AR v2)
Copy OK

Track 4

Filename D:\_EAC\Wayne Shorter - Moto Grosso Feio (1970) [FLAC] {2012 Japanese BNLA Series 24-bit Remaster}\04 - Vera Cruz.wav

Pre-gap length 0:00:01.43

Peak level 96.9 %
Extraction speed 1.4 X
Track quality 99.9 %
Test CRC 43719246
Copy CRC 43719246
Accurately ripped (confidence 5) [A4A0BE6E] (AR v2)
Copy OK

Track 5

Filename D:\_EAC\Wayne Shorter - Moto Grosso Feio (1970) [FLAC] {2012 Japanese BNLA Series 24-bit Remaster}\05 - Iska.wav

Pre-gap length 0:00:01.43

Peak level 97.0 %
Extraction speed 1.8 X
Track quality 100.0 %
Test CRC D8B41234
Copy CRC D8B41234
Accurately ripped (confidence 5) [E08A397F] (AR v2)
Copy OK


All tracks accurately ripped

No errors occurred

End of status report

==== Log checksum 14A418D78836063163BF567A2DC3138A6FCC62CD26A8B3F1CFE0E0FD989F5B3D ====


Wayne Shorter - Moto Grosso Feio (1970) {Blue Note Japan BNLA Series 24-bit Remaster TOCJ-50501 rel 2012}

Wayne Shorter - Moto Grosso Feio (1970) {Blue Note Japan BNLA Series 24-bit Remaster TOCJ-50501 rel 2012}


see more BNLA Series…

NEXT -> more Japan BNLA Series on the way…


===