Subcategories

Wayne Shorter - Super Nova (1969) {Blue Note Japan SHM-CD UCCQ-5054 rel 2014} (24-192 remaster)

Posted By: ruskaval
Wayne Shorter - Super Nova (1969) {Blue Note Japan SHM-CD UCCQ-5054 rel 2014} (24-192 remaster)

Wayne Shorter - Super Nova (1969) {Blue Note Japan SHM-CD UCCQ-5054 rel 2014} (24-192 remaster)
EAC rip (secure mode) | FLAC (tracks)+CUE+LOG -> 261 Mb | MP3 @320 -> 90 Mb
Full Artwork @ 600 dpi (png) -> 234 Mb | 5% repair rar | 24-bit 192 kHz remaster
© 1969, 2014 Universal Japan / Blue Note | BN 75th The Masterworks | UCCQ-5054
Jazz / Post Bop / Fusion / Saxophone

Reissue. Features the high-fidelity SHM-CD format (compatible with standard CD player) and the latest 24bit 192kHz remastering. A bit of a hint of the 70's work by Shorter – as he plays here with a slightly larger group, and a bit of an electric sound. Sonny Sharrock and John McLaughlin play guitar, Airto plays percussion, and Maria Booker sings vocals on a rendition of "Dindi" – and this complicted larger group gives Shorter a quite different sound than some of his earlier Blue Note quartet and quintet sides. The session's got a great spiritual soul jazz undercurrent – pointing the way towards aspects of jazz in the 70s – and titles include "Super Nova", "Swee Pea", "Water Babies", and "Capricorn".
Wayne Shorter - Super Nova (1969) {Blue Note Japan SHM-CD UCCQ-5054 rel 2014} (24-192 remaster)

This CD reissue brings back an important transitional album for tenor-saxophonist Wayne Shorter. Doubling on soprano (which he had recently begun playing), Shorter interprets five of his originals (including "Water Babies" which had been recorded previously by Miles Davis) and Antonio Carlos Jobim's "Dindi." He definitely used a forward-looking group of sidemen for his "backup band" includes guitarists John McLaughlin and Sonny Sharrock, Walter Booker (normally a bassist) on classical guitar for "Dindi," bassist Miroslav Vitous, both Jack DeJohnette and Chick Corea (!) on drums and percussionist Airto; Maria Booker takes a vocal on the touching version of "Dindi." The influence of Miles Davis' early fusion period is felt throughout the music but there is nothing derivative about the often-surprising results. As with Wayne Shorter's best albums, this set rewards repeated listenings.
Wayne Shorter - Super Nova (1969) {Blue Note Japan SHM-CD UCCQ-5054 rel 2014} (24-192 remaster)


Personnel:
Wayne Shorter — soprano saxophone
John McLaughlin — acoustic and electric guitar
Sonny Sharrock — electric guitar
Chick Corea — drums, keyboards, vibes
Miroslav Vitouš — bass
Jack DeJohnette — drums, kalimba
Airto Moreira — percussion
Walter Booker — acoustic guitar
Maria Booker — vocal

tracklist:
01 - Super Nova
02 - Swee-Pea
03 - Dindi
04 - Water Babies
05 - Capricorn
06 - More Than Human

Exact Audio Copy V1.1 from 23. June 2015

EAC extraction logfile from 8. August 2015, 19:05

Wayne Shorter / Super Nova

Used drive : TSSTcorpCDDVDW SE-208DB Adapter: 7 ID: 0

Read mode : Secure
Utilize accurate stream : Yes
Defeat audio cache : Yes
Make use of C2 pointers : No

Read offset correction : 6
Overread into Lead-In and Lead-Out : No
Fill up missing offset samples with silence : Yes
Delete leading and trailing silent blocks : No
Null samples used in CRC calculations : Yes
Used interface : Installed external ASPI interface
Gap handling : Appended to previous track

Used output format : User Defined Encoder
Selected bitrate : 1024 kBit/s
Quality : High
Add ID3 tag : No
Command line compressor : C:\Program Files (x86)\FLAC Frontend\tools\flac.exe
Additional command line options : -8 -V -T "ARTIST=%artist%" -T "TITLE=%title%" -T "ALBUM=%albumtitle%" -T "DATE=%year%" -T "TRACKNUMBER=%tracknr%" -T "TOTALTRACKS=%numtracks%" -T "GENRE=%genre%" -T "ALBUMARTIST=%albumartist%" -T "ALBUM ARTIST=%albumartist%" -T "COMMENT=EAC Secure Mode, Test & Copy, AccurateRip, FLAC -8" %source%


TOC of the extracted CD

Track | Start | Length | Start sector | End sector
––––––––––––––––––––––––––––-
1 | 0:00.00 | 4:52.14 | 0 | 21913
2 | 4:52.14 | 4:37.16 | 21914 | 42704
3 | 9:29.30 | 9:36.69 | 42705 | 85973
4 | 19:06.24 | 4:55.36 | 85974 | 108134
5 | 24:01.60 | 7:48.42 | 108135 | 143276
6 | 31:50.27 | 6:11.21 | 143277 | 171122


Track 1

Filename M:\_EAC\Wayne Shorter - Super Nova (1969) [FLAC] {2014 Japan SHM-CD Blue Note 24-192 Remaster}\01 - Super Nova.wav

Pre-gap length 0:00:02.00

Peak level 98.1 %
Extraction speed 1.0 X
Track quality 100.0 %
Test CRC BAD6502C
Copy CRC BAD6502C
Accurately ripped (confidence 1) [A65084E8] (AR v2)
Copy OK

Track 2

Filename M:\_EAC\Wayne Shorter - Super Nova (1969) [FLAC] {2014 Japan SHM-CD Blue Note 24-192 Remaster}\02 - Swee-Pea.wav

Pre-gap length 0:00:02.28

Peak level 97.0 %
Extraction speed 1.0 X
Track quality 99.9 %
Test CRC 15BBAA23
Copy CRC 15BBAA23
Accurately ripped (confidence 1) [2B5FCEEF] (AR v2)
Copy OK

Track 3

Filename M:\_EAC\Wayne Shorter - Super Nova (1969) [FLAC] {2014 Japan SHM-CD Blue Note 24-192 Remaster}\03 - Dindi.wav

Pre-gap length 0:00:02.28

Peak level 100.0 %
Extraction speed 1.4 X
Track quality 100.0 %
Test CRC 0E906764
Copy CRC 0E906764
Accurately ripped (confidence 1) [9475F61C] (AR v2)
Copy OK

Track 4

Filename M:\_EAC\Wayne Shorter - Super Nova (1969) [FLAC] {2014 Japan SHM-CD Blue Note 24-192 Remaster}\04 - Water Babies.wav

Pre-gap length 0:00:02.43

Peak level 98.2 %
Extraction speed 1.2 X
Track quality 99.9 %
Test CRC 91FEA560
Copy CRC 91FEA560
Accurately ripped (confidence 1) [5143A816] (AR v2)
Copy OK

Track 5

Filename M:\_EAC\Wayne Shorter - Super Nova (1969) [FLAC] {2014 Japan SHM-CD Blue Note 24-192 Remaster}\05 - Capricorn.wav

Pre-gap length 0:00:02.28

Peak level 97.3 %
Extraction speed 1.6 X
Track quality 100.0 %
Test CRC 52E217A5
Copy CRC 52E217A5
Accurately ripped (confidence 1) [3F61A057] (AR v2)
Copy OK

Track 6

Filename M:\_EAC\Wayne Shorter - Super Nova (1969) [FLAC] {2014 Japan SHM-CD Blue Note 24-192 Remaster}\06 - More Than Human.wav

Pre-gap length 0:00:02.28

Peak level 97.5 %
Extraction speed 1.7 X
Track quality 100.0 %
Test CRC 45CB9A76
Copy CRC 45CB9A76
Accurately ripped (confidence 1) [F3173E84] (AR v2)
Copy OK


All tracks accurately ripped

No errors occurred

End of status report

==== Log checksum A24F1A5E0C3BCFF33C87DD5486675D83C3D18F9B4BB206F1CCCAE514992BF348 ====


Wayne Shorter - Super Nova (1969) {Blue Note Japan SHM-CD UCCQ-5054 rel 2014} (24-192 remaster)

Wayne Shorter - Super Nova (1969) {Blue Note Japan SHM-CD UCCQ-5054 rel 2014} (24-192 remaster)


see more Blue Note Japan 75th Anniversary The Masterworks…


===