Subcategories

Weird Al Yankovic - 14 Albums, 18cds

Posted By: firepower
Weird Al Yankovic - 14 Albums, 18cds

Weird Al Yankovic - 14 Albums, 18cds
EAC, Flac tracks, CUE+LOG 5.6gb | Front covers only
Comedy/Novelty | 1983-2009 | 5% recovery record | Source: internet

The foremost song parodist of the MTV era, "Weird Al" Yankovic carried the torch of musical humor more proudly and more successfully than any performer since Allan Sherman. In the world of novelty records – a genre noted for its extensive back catalog of flashes-in-the-pan and one-hit wonders – Yankovic was king, scoring smash after smash over the course of an enduring career which found him topically mocking everything from new wave to gangsta rap.
Album list:

Dare To Be Stupid (1985)
Even Worse (1988)
Greatest Hits (1988)
Greatest Hits Volume II (1994)
In 3-D (1984)
Off The Deep End (1992)
Permanent Record- Al In The Box (1994) 4cd
Polka Party! (1986)
Running With Scissors (1999)
Straight Outta Lynwood (2006)
The Essential (2009) 2cd
The Food Album (1992)
UHF (1989)
Weird Al Yankovic (1983)

Dare To Be Stupid (1985) 01 - Like A Surgeon
Dare To Be Stupid (1985) 02 - Dare To Be Stupid
Dare To Be Stupid (1985) 03 - I Want A New Duck
Dare To Be Stupid (1985) 04 - One More Minute
Dare To Be Stupid (1985) 05 - Yoda
Dare To Be Stupid (1985) 06 - George of the Jungle
Dare To Be Stupid (1985) 07 - Slime Creatures From Outer Space
Dare To Be Stupid (1985) 08 - Girls Just Want To Have Lunch
Dare To Be Stupid (1985) 09 - This Is The Life
Dare To Be Stupid (1985) 10 - Cable TV
Dare To Be Stupid (1985) 11 - Hooked On Polkas

Even Worse (1988) 01 - Fat
Even Worse (1988) 02 - Stuck In A Closet With Vanna White
Even Worse (1988) 03 - (This Song's Just) Six Words Long
Even Worse (1988) 04 - You Make Me
Even Worse (1988) 05 - I Think I'm A Clone Now
Even Worse (1988) 06 - Lasagna
Even Worse (1988) 07 - Melanie
Even Worse (1988) 08 - Alimony
Even Worse (1988) 09 - Velvet Elvis
Even Worse (1988) 10 - Twister
Even Worse (1988) 11 - Good Old Days

Greatest Hits (1988) 01 Fat
Greatest Hits (1988) 02 Eat It
Greatest Hits (1988) 03 Like A Surgeon
Greatest Hits (1988) 04 Ricky
Greatest Hits (1988) 05 Addicted To Spuds
Greatest Hits (1988) 06 Living With A Hernia
Greatest Hits (1988) 07 Dare To Be Stupid
Greatest Hits (1988) 08 Lasagna
Greatest Hits (1988) 09 I Lost On Jeopardy
Greatest Hits (1988) 10 One More Minute

Greatest Hits Volume II (1994) 01 Headline News
Greatest Hits Volume II (1994) 02 Bedrock Anthem
Greatest Hits Volume II (1994) 03 You Don't Love Me Anymore
Greatest Hits Volume II (1994) 04 Smells Like Nirvana
Greatest Hits Volume II (1994) 05 Achy Breaky Song
Greatest Hits Volume II (1994) 06 UHF
Greatest Hits Volume II (1994) 07 Money For Nothing,Beverly Hillbillies
Greatest Hits Volume II (1994) 08 Jurassic Park
Greatest Hits Volume II (1994) 09 This Is The Life
Greatest Hits Volume II (1994) 10 Polka Your Eyes Out
Greatest Hits Volume II (1994) 11 Yoda
Greatest Hits Volume II (1994) 12 Christmas At Ground Zero

In 3-D (1984) 01 - Eat It
In 3-D (1984) 02 - Midnight Star
In 3-D (1984) 03 - The Brady Bunch
In 3-D (1984) 04 - Buy Me A Condo
In 3-D (1984) 05 - I Lost On Jeopardy
In 3-D (1984) 06 - Polkas On 45
In 3-D (1984) 07 - Mr. Popeil
In 3-D (1984) 08 - King Of Suede
In 3-D (1984) 09 - That Boy Could Dance
In 3-D (1984) 10 - Theme From Rocky XIII
In 3-D (1984) 11 - Nature Trail To Hell

Off The Deep End (1992) 01 - Smells Like Nirvana
Off The Deep End (1992) 02 - Trigger Happy
Off The Deep End (1992) 03 - I Can't Watch This
Off The Deep End (1992) 04 - Polka Your Eyes Out
Off The Deep End (1992) 05 - I Was Only Kidding
Off The Deep End (1992) 06 - The White Stuff
Off The Deep End (1992) 07 - When I Was Your Age
Off The Deep End (1992) 08 - Taco Grande
Off The Deep End (1992) 09 - Airline Amy
Off The Deep End (1992) 10 - The Plumbing Song
Off The Deep End (1992) 11 - You Don't Love Me Anymore

Permanent Record- Al In The Box (1994) 4cd Disc 1 01 My Bologna
Permanent Record- Al In The Box (1994) 4cd Disc 1 02 Another One Rides the Bus
Permanent Record- Al In The Box (1994) 4cd Disc 1 03 Happy Birthday
Permanent Record- Al In The Box (1994) 4cd Disc 1 04 I Love Rocky Road
Permanent Record- Al In The Box (1994) 4cd Disc 1 05 Ricky
Permanent Record- Al In The Box (1994) 4cd Disc 1 06 Polkas on 45
Permanent Record- Al In The Box (1994) 4cd Disc 1 07 Midnight Star
Permanent Record- Al In The Box (1994) 4cd Disc 1 08 Eat It
Permanent Record- Al In The Box (1994) 4cd Disc 1 09 Mr. Popeil
Permanent Record- Al In The Box (1994) 4cd Disc 1 10 I Lost on Jeopardy
Permanent Record- Al In The Box (1994) 4cd Disc 1 11 Buy Me a Condo
Permanent Record- Al In The Box (1994) 4cd Disc 1 12 King of Suede

Permanent Record- Al In The Box (1994) 4cd Disc 2 01 Yoda
Permanent Record- Al In The Box (1994) 4cd Disc 2 02 This Is The Life
Permanent Record- Al In The Box (1994) 4cd Disc 2 03 Like A Surgeon
Permanent Record- Al In The Box (1994) 4cd Disc 2 04 One More Minute
Permanent Record- Al In The Box (1994) 4cd Disc 2 05 I Want A New Duck
Permanent Record- Al In The Box (1994) 4cd Disc 2 06 Dare To Be Stupid
Permanent Record- Al In The Box (1994) 4cd Disc 2 07 Hooked On Polkas
Permanent Record- Al In The Box (1994) 4cd Disc 2 08 Addicted To Spuds
Permanent Record- Al In The Box (1994) 4cd Disc 2 09 Dog Eat Dog
Permanent Record- Al In The Box (1994) 4cd Disc 2 10 Here's Johnny
Permanent Record- Al In The Box (1994) 4cd Disc 2 11 Living With A Hernia
Permanent Record- Al In The Box (1994) 4cd Disc 2 12 Chrismas At Ground Zero

Permanent Record- Al In The Box (1994) 4cd Disc 3 01 Lasagna
Permanent Record- Al In The Box (1994) 4cd Disc 3 02 Good Old Days
Permanent Record- Al In The Box (1994) 4cd Disc 3 03 Fat
Permanent Record- Al In The Box (1994) 4cd Disc 3 04 Melanie
Permanent Record- Al In The Box (1994) 4cd Disc 3 05 I Think I'm A Clone Now
Permanent Record- Al In The Box (1994) 4cd Disc 3 06 You Make Me
Permanent Record- Al In The Box (1994) 4cd Disc 3 07 Alimony
Permanent Record- Al In The Box (1994) 4cd Disc 3 08 UHF (single version)
Permanent Record- Al In The Box (1994) 4cd Disc 3 09 Money For Nothing , Beverly Hillbillies
Permanent Record- Al In The Box (1994) 4cd Disc 3 10 The Biggest Ball Of Twine In Minnesota
Permanent Record- Al In The Box (1994) 4cd Disc 3 11 Spam
Permanent Record- Al In The Box (1994) 4cd Disc 3 12 Generic Blues

Permanent Record- Al In The Box (1994) 4cd Disc 4 01 Polka Your Eyes Out
Permanent Record- Al In The Box (1994) 4cd Disc 4 02 You Don't Love Me Anymore
Permanent Record- Al In The Box (1994) 4cd Disc 4 03 Smells Like Nirvana
Permanent Record- Al In The Box (1994) 4cd Disc 4 04 When I Was Your Age
Permanent Record- Al In The Box (1994) 4cd Disc 4 05 I Can't Watch This
Permanent Record- Al In The Box (1994) 4cd Disc 4 06 Trigger Happy
Permanent Record- Al In The Box (1994) 4cd Disc 4 07 Taco Grande
Permanent Record- Al In The Box (1994) 4cd Disc 4 08 Bedrock Anthem
Permanent Record- Al In The Box (1994) 4cd Disc 4 09 Harvey The Wonder Hamster
Permanent Record- Al In The Box (1994) 4cd Disc 4 10 Achy Breaky Song
Permanent Record- Al In The Box (1994) 4cd Disc 4 11 Livin' In The Fridge
Permanent Record- Al In The Box (1994) 4cd Disc 4 12 Frank's 2000'' TV
Permanent Record- Al In The Box (1994) 4cd Disc 4 13 Jurassic Park
Permanent Record- Al In The Box (1994) 4cd Disc 4 14 Headline News

Polka Party! (1986) 01 - Living With A Hernia
Polka Party! (1986) 02 - Dog Eat Dog
Polka Party! (1986) 03 - Addicted To Spuds
Polka Party! (1986) 04 - One Of Those Days
Polka Party! (1986) 05 - Polka Party!
Polka Party! (1986) 06 - Here's Johnny
Polka Party! (1986) 07 - Don't Wear Those Shoes
Polka Party! (1986) 08 - Toothless People
Polka Party! (1986) 09 - Good Enough For Now
Polka Party! (1986) 10 - Christmas At Ground Zero

Running With Scissors (1999) 01 - The Saga Begins
Running With Scissors (1999) 02 - My Baby's In Love With Eddie Vedder
Running With Scissors (1999) 03 - Pretty Fly For A Rabbi
Running With Scissors (1999) 04 - The Weird Al Show Theme
Running With Scissors (1999) 05 - Jerry Springer
Running With Scissors (1999) 06 - Germs
Running With Scissors (1999) 07 - Polka Power!
Running With Scissors (1999) 08 - Your Horoscope For Today
Running With Scissors (1999) 09 - It's All About The Pentiums
Running With Scissors (1999) 10 - Truck Drivin' Song
Running With Scissors (1999) 11 - Grapefruit Diet
Running With Scissors (1999) 12 - Albuquerque

Straight Outta Lynwood (2006) 01 - White & Nerdy
Straight Outta Lynwood (2006) 02 - Pancreas
Straight Outta Lynwood (2006) 03 - Canadian Idiot
Straight Outta Lynwood (2006) 04 - I'll Sue Ya
Straight Outta Lynwood (2006) 05 - Polkarama!
Straight Outta Lynwood (2006) 06 - Virus Alert
Straight Outta Lynwood (2006) 07 - Confessions Part III
Straight Outta Lynwood (2006) 08 - Weasel Stomping Day
Straight Outta Lynwood (2006) 09 - Close But No Cigar
Straight Outta Lynwood (2006) 10 - Do I Creep You Out
Straight Outta Lynwood (2006) 11 - Trapped in the Drive Thru
Straight Outta Lynwood (2006) 12 - Don't Download This Song

The Essential (2009) 2cd Disc 1 01 - Another One Rides the Bus
The Essential (2009) 2cd Disc 1 02 - Polkas on 45
The Essential (2009) 2cd Disc 1 03 - Eat It
The Essential (2009) 2cd Disc 1 04 - I Lost on Jeopardy
The Essential (2009) 2cd Disc 1 05 - Yoda
The Essential (2009) 2cd Disc 1 06 - One More Minute
The Essential (2009) 2cd Disc 1 07 - Like a Surgeon
The Essential (2009) 2cd Disc 1 08 - Dare to Be Stupid
The Essential (2009) 2cd Disc 1 09 - Dog Eat Dog
The Essential (2009) 2cd Disc 1 10 - Lasagna
The Essential (2009) 2cd Disc 1 11 - Melanie
The Essential (2009) 2cd Disc 1 12 - Fat
The Essential (2009) 2cd Disc 1 13 - UHF (single version)
The Essential (2009) 2cd Disc 1 14 - The Biggest Ball of Twine in Minnesota
The Essential (2009) 2cd Disc 1 15 - Trigger Happy
The Essential (2009) 2cd Disc 1 16 - Smells Like Nirvana
The Essential (2009) 2cd Disc 1 17 - You Don't Love Me Anymore
The Essential (2009) 2cd Disc 1 18 - Bedrock Anthem
The Essential (2009) 2cd Disc 1 19 - Frank's 2000 TV
The Essential (2009) 2cd Disc 1 20 - Jurassic Park

The Essential (2009) 2cd Disc 2 01 - Since You've Been Gone
The Essential (2009) 2cd Disc 2 02 - Amish Paradise
The Essential (2009) 2cd Disc 2 03 - Gump
The Essential (2009) 2cd Disc 2 04 - Everything You Know Is Wrong
The Essential (2009) 2cd Disc 2 05 - The Night Santa Went Crazy (Extra Gory version)
The Essential (2009) 2cd Disc 2 06 - Your Horoscope for Today
The Essential (2009) 2cd Disc 2 07 - It's All About the Pentiums
The Essential (2009) 2cd Disc 2 08 - The Saga Begins
The Essential (2009) 2cd Disc 2 09 - Albuquerque
The Essential (2009) 2cd Disc 2 10 - eBay
The Essential (2009) 2cd Disc 2 11 - Bob
The Essential (2009) 2cd Disc 2 12 - Hardware Store
The Essential (2009) 2cd Disc 2 13 - I'll Sue Ya
The Essential (2009) 2cd Disc 2 14 - Canadian Idiot
The Essential (2009) 2cd Disc 2 15 - Pancreas
The Essential (2009) 2cd Disc 2 16 - Don't Download This Song
The Essential (2009) 2cd Disc 2 17 - White & Nerdy
The Essential (2009) 2cd Disc 2 18 - Trapped in the Drive-Thru

The Food Album (1992) 01 - Fat
The Food Album (1992) 02 - Lasagna
The Food Album (1992) 03 - Addicted To Spuds
The Food Album (1992) 04 - I Love Rocky Road
The Food Album (1992) 05 - Spam
The Food Album (1992) 06 - Eat It
The Food Album (1992) 07 - The White Stuff
The Food Album (1992) 08 - My Bologna
The Food Album (1992) 09 - Taco Grande
The Food Album (1992) 10 - The Rye Or The Kaiser (Theme From Rocky XIII)

UHF (1989) 01 - Money for Nothing,Beverly Hillbillies
UHF (1989) 02 - Ghandi II
UHF (1989) 03 - Attack of the Radioactive Hamsters from a Planet Near Mars
UHF (1989) 04 - Isle Thing
UHF (1989) 05 - The Hot Rocks Polka
UHF (1989) 06 - UHF
UHF (1989) 07 - Let Me Be Your Hog
UHF (1989) 08 - She Drivers Like Crazy
UHF (1989) 09 - Generic Blues
UHF (1989) 10 - Spatula City
UHF (1989) 11 - Fun Zone
UHF (1989) 12 - Spam
UHF (1989) 13 - The Biggest Ball of Twine in Minnesota

Weird Al Yankovic (1983) 01 - Ricky
Weird Al Yankovic (1983) 02 - Gotta Boogie
Weird Al Yankovic (1983) 03 - I Love Rocky Road
Weird Al Yankovic (1983) 04 - Buckingham Blues
Weird Al Yankovic (1983) 05 - Happy Birthday
Weird Al Yankovic (1983) 06 - Stop Draggin' My Car Around
Weird Al Yankovic (1983) 07 - My Bologna
Weird Al Yankovic (1983) 08 - The Check's In The Mail
Weird Al Yankovic (1983) 09 - Another One Rides The Bus
Weird Al Yankovic (1983) 10 - I'll Be Mellow When I'm Dead
Weird Al Yankovic (1983) 11 - Such A Groovy Guy
Weird Al Yankovic (1983) 12 - Mr. Frump In The Iron Lung



Exact Audio Copy V0.99 prebeta 3 from 28. July 2007

EAC extraction logfile from 14. November 2007, 15:21

Weird Al Yankovic / Dare To Be Stupid

Used drive : TSSTcorpCD/DVDW SH-S182M Adapter: 3 ID: 0

Read mode : Secure
Utilize accurate stream : Yes
Defeat audio cache : Yes
Make use of C2 pointers : No

Read offset correction : 6
Overread into Lead-In and Lead-Out : No
Fill up missing offset samples with silence : Yes
Delete leading and trailing silent blocks : No
Null samples used in CRC calculations : Yes
Used interface : Installed external ASPI interface
Gap handling : Appended to previous track

Used output format : User Defined Encoder
Selected bitrate : 192 kBit/s
Quality : High
Add ID3 tag : No
Command line compressor : H:\Program Files\Exact Audio Copy\flac.exe
Additional command line options : -8 -A tukey(0.25) -A gauss(0.1875) -b 4096 -V -T "artist=%a" -T "title=%t" -T "album=%g" -T "date=%y" -T "tracknumber=%n" -T "genre=%m" %s –sector-align


TOC of the extracted CD

Track | Start | Length | Start sector | End sector
––––––––––––––––––––––––––––-
1 | 0:00.00 | 3:33.15 | 0 | 15989
2 | 3:33.15 | 3:25.65 | 15990 | 31429
3 | 6:59.05 | 3:04.10 | 31430 | 45239
4 | 10:03.15 | 4:04.15 | 45240 | 63554
5 | 14:07.30 | 3:59.40 | 63555 | 81519
6 | 18:06.70 | 1:04.55 | 81520 | 86374
7 | 19:11.50 | 4:23.67 | 86375 | 106166
8 | 23:35.42 | 2:48.45 | 106167 | 118811
9 | 26:24.12 | 3:06.20 | 118812 | 132781
10 | 29:30.32 | 3:38.55 | 132782 | 149186
11 | 33:09.12 | 3:51.53 | 149187 | 166564


Track 1

Filename H:\Weird Al Yankovic - Dare To Be Stupid FLAC\01 - Weird Al Yankovic - Like A Surgeon.wav

Pre-gap length 0:00:02.00

Peak level 83.1 %
Track quality 99.9 %
Test CRC EE494E3F
Copy CRC EE494E3F
Track not present in AccurateRip database
Copy OK

Track 2

Filename H:\Weird Al Yankovic - Dare To Be Stupid FLAC\02 - Weird Al Yankovic - Dare To Be Stupid.wav

Pre-gap length 0:00:02.30

Peak level 79.5 %
Track quality 99.9 %
Test CRC 43F8E915
Copy CRC 43F8E915
Track not present in AccurateRip database
Copy OK

Track 3

Filename H:\Weird Al Yankovic - Dare To Be Stupid FLAC\03 - Weird Al Yankovic - I Want A New Duck.wav

Pre-gap length 0:00:01.10

Peak level 84.8 %
Track quality 100.0 %
Test CRC 7081E65E
Copy CRC 7081E65E
Track not present in AccurateRip database
Copy OK

Track 4

Filename H:\Weird Al Yankovic - Dare To Be Stupid FLAC\04 - Weird Al Yankovic - One More Minute.wav

Pre-gap length 0:00:02.20

Peak level 85.3 %
Track quality 100.0 %
Test CRC 346B0BFB
Copy CRC 346B0BFB
Track not present in AccurateRip database
Copy OK

Track 5

Filename H:\Weird Al Yankovic - Dare To Be Stupid FLAC\05 - Weird Al Yankovic - Yoda.wav

Pre-gap length 0:00:01.33

Peak level 85.0 %
Track quality 100.0 %
Test CRC 9DF8024D
Copy CRC 9DF8024D
Track not present in AccurateRip database
Copy OK

Track 6

Filename H:\Weird Al Yankovic - Dare To Be Stupid FLAC\06 - Weird Al Yankovic - George of the Jungle.wav

Pre-gap length 0:00:02.73

Peak level 70.5 %
Track quality 99.8 %
Test CRC 01A09E57
Copy CRC 01A09E57
Track not present in AccurateRip database
Copy OK

Track 7

Filename H:\Weird Al Yankovic - Dare To Be Stupid FLAC\07 - Weird Al Yankovic - Slime Creatures From Outer Space.wav

Pre-gap length 0:00:01.40

Peak level 86.2 %
Track quality 100.0 %
Test CRC 1AC7C193
Copy CRC 1AC7C193
Track not present in AccurateRip database
Copy OK

Track 8

Filename H:\Weird Al Yankovic - Dare To Be Stupid FLAC\08 - Weird Al Yankovic - Girls Just Want To Have Lunch.wav

Pre-gap length 0:00:02.76

Peak level 79.8 %
Track quality 100.0 %
Test CRC ABA59678
Copy CRC ABA59678
Track not present in AccurateRip database
Copy OK

Track 9

Filename H:\Weird Al Yankovic - Dare To Be Stupid FLAC\09 - Weird Al Yankovic - This Is The Life.wav

Pre-gap length 0:00:02.20

Peak level 82.7 %
Track quality 99.9 %
Test CRC 3C35C5EB
Copy CRC 3C35C5EB
Track not present in AccurateRip database
Copy OK

Track 10

Filename H:\Weird Al Yankovic - Dare To Be Stupid FLAC\10 - Weird Al Yankovic - Cable TV.wav

Pre-gap length 0:00:02.76

Peak level 85.7 %
Track quality 100.0 %
Test CRC 8F2D2E2D
Copy CRC 8F2D2E2D
Track not present in AccurateRip database
Copy OK

Track 11

Filename H:\Weird Al Yankovic - Dare To Be Stupid FLAC\11 - Weird Al Yankovic - Hooked On Polkas.wav

Pre-gap length 0:00:01.82

Peak level 81.4 %
Track quality 100.0 %
Test CRC CAE39CCC
Copy CRC CAE39CCC
Track not present in AccurateRip database
Copy OK


None of the tracks are present in the AccurateRip database

No errors occurred

End of status report

Exact Audio Copy V0.99 prebeta 4 from 23. January 2008

EAC extraction logfile from 3. August 2008, 7:34

"Weird Al" Yankovic / Even Worse

Used drive : SAMSUNG CD-R/RW SW-252B Adapter: 0 ID: 1

Read mode : Secure
Utilize accurate stream : Yes
Defeat audio cache : Yes
Make use of C2 pointers : No

Read offset correction : 97
Overread into Lead-In and Lead-Out : No
Fill up missing offset samples with silence : Yes
Delete leading and trailing silent blocks : No
Null samples used in CRC calculations : Yes
Used interface : Installed external ASPI interface
Gap handling : Appended to previous track

Used output format : User Defined Encoder
Selected bitrate : 1024 kBit/s
Quality : High
Add ID3 tag : No
Command line compressor : C:\Program Files\FLAC\flac.exe
Additional command line options : -8 -A tukey(0.25) -A gauss(0.1875) -b 4096 -V -T "artist=%a" -T "title=%t" -T "album=%g" -T "date=%y" -T "tracknumber=%n" -T "genre=%m" %s –sector-align


TOC of the extracted CD

Track | Start | Length | Start sector | End sector
––––––––––––––––––––––––––––-
1 | 0:00.32 | 3:37.53 | 32 | 16359
2 | 3:38.10 | 5:01.20 | 16360 | 38954
3 | 8:39.30 | 3:37.20 | 38955 | 55249
4 | 12:16.50 | 3:05.25 | 55250 | 69149
5 | 15:22.00 | 3:20.08 | 69150 | 84157
6 | 18:42.08 | 2:46.65 | 84158 | 96672
7 | 21:28.73 | 3:58.60 | 96673 | 114582
8 | 25:27.58 | 3:16.22 | 114583 | 129304
9 | 28:44.05 | 4:30.20 | 129305 | 149574
10 | 33:14.25 | 1:03.30 | 149575 | 154329
11 | 34:17.55 | 3:21.57 | 154330 | 169461


Track 1

Filename C:\mp3s\'Weird Al' Yankovic\Even Worse\01 - Fat.wav

Pre-gap length 0:00:02.42

Peak level 100.0 %
Track quality 100.0 %
Test CRC 470DF725
Copy CRC 470DF725
Copy OK

Track 2

Filename C:\mp3s\'Weird Al' Yankovic\Even Worse\02 - Stuck In A Closet With Vanna White.wav

Pre-gap length 0:00:01.20

Peak level 91.7 %
Track quality 100.0 %
Test CRC 9B3E9718
Copy CRC 9B3E9718
Copy OK

Track 3

Filename C:\mp3s\'Weird Al' Yankovic\Even Worse\03 - (This Song's Just) Six Words Long.wav

Pre-gap length 0:00:01.93

Peak level 96.2 %
Track quality 100.0 %
Test CRC 0B621301
Copy CRC 0B621301
Copy OK

Track 4

Filename C:\mp3s\'Weird Al' Yankovic\Even Worse\04 - You Make Me.wav

Pre-gap length 0:00:01.20

Peak level 89.2 %
Track quality 100.0 %
Test CRC AC97631F
Copy CRC AC97631F
Copy OK

Track 5

Filename C:\mp3s\'Weird Al' Yankovic\Even Worse\05 - I Think I'm A Clone Now.wav

Pre-gap length 0:00:00.42

Peak level 95.9 %
Track quality 100.0 %
Test CRC BEED8A4D
Copy CRC BEED8A4D
Copy OK

Track 6

Filename C:\mp3s\'Weird Al' Yankovic\Even Worse\06 - Lasagna.wav

Pre-gap length 0:00:02.33

Peak level 89.5 %
Track quality 100.0 %
Test CRC 490AF84B
Copy CRC 490AF84B
Copy OK

Track 7

Filename C:\mp3s\'Weird Al' Yankovic\Even Worse\07 - Melanie.wav

Pre-gap length 0:00:01.73

Peak level 97.4 %
Track quality 100.0 %
Test CRC 4A8A9F5D
Copy CRC 4A8A9F5D
Copy OK

Track 8

Filename C:\mp3s\'Weird Al' Yankovic\Even Worse\08 - Alimony.wav

Pre-gap length 0:00:01.13

Peak level 93.2 %
Track quality 100.0 %
Test CRC 60BD925F
Copy CRC 60BD925F
Copy OK

Track 9

Filename C:\mp3s\'Weird Al' Yankovic\Even Worse\09 - Velvet Elvis.wav

Pre-gap length 0:00:02.33

Peak level 84.2 %
Track quality 100.0 %
Test CRC ACF64E2D
Copy CRC ACF64E2D
Copy OK

Track 10

Filename C:\mp3s\'Weird Al' Yankovic\Even Worse\10 - Twister.wav

Pre-gap length 0:00:02.96

Peak level 82.0 %
Track quality 99.8 %
Test CRC 44B2E2EE
Copy CRC 44B2E2EE
Copy OK

Track 11

Filename C:\mp3s\'Weird Al' Yankovic\Even Worse\11 - Good Old Days.wav

Pre-gap length 0:00:00.06

Peak level 98.6 %
Track quality 100.0 %
Test CRC 5DA2E7D9
Copy CRC 5DA2E7D9
Copy OK

No errors occurred

End of status report

Exact Audio Copy V0.99 prebeta 4 from 23. January 2008

EAC extraction logfile from 27. December 2008, 22:36

Weird Al Yankovic / Greatest Hits

Used drive : MATSHITADVD-ROM SR-8175 Adapter: 1 ID: 0

Read mode : Secure
Utilize accurate stream : Yes
Defeat audio cache : Yes
Make use of C2 pointers : No

Read offset correction : 691
Overread into Lead-In and Lead-Out : No
Fill up missing offset samples with silence : Yes
Delete leading and trailing silent blocks : No
Null samples used in CRC calculations : Yes
Used interface : Native Win32 interface for Win NT & 2000
Gap handling : Appended to previous track

Used output format : User Defined Encoder
Selected bitrate : 768 kBit/s
Quality : High
Add ID3 tag : No
Command line compressor : C:\Program Files\Exact Audio Copy\FLAC\FLAC.EXE
Additional command line options : -6 -V -T "ARTIST=%a" -T "TITLE=%t" -T "ALBUM=%g" -T "DATE=%y" -T "TRACKNUMBER=%n" -T "GENRE=%m" -T "COMMENT=%e" %s -o %d


TOC of the extracted CD

Track | Start | Length | Start sector | End sector
––––––––––––––––––––––––––––-
1 | 0:00.32 | 3:37.20 | 32 | 16326
2 | 3:37.52 | 3:21.60 | 16327 | 31461
3 | 6:59.37 | 3:31.58 | 31462 | 47344
4 | 10:31.20 | 2:36.37 | 47345 | 59081
5 | 13:07.57 | 3:52.55 | 59082 | 76536
6 | 17:00.37 | 3:20.38 | 76537 | 91574
7 | 20:21.00 | 3:25.47 | 91575 | 106996
8 | 23:46.47 | 2:47.00 | 106997 | 119521
9 | 26:33.47 | 3:29.00 | 119522 | 135196
10 | 30:02.47 | 4:03.28 | 135197 | 153449


Track 1

Filename F:\My Documents\Backup and Documents\Torrents\Weird Al Yankovic - Greatest Hits [1988] [FLAC]\01 Fat.wav

Pre-gap length 0:00:02.32

Peak level 99.5 %
Track quality 100.0 %
Test CRC 12612FA7
Copy CRC 12612FA7
Accurately ripped (confidence 11) [0063FD48]
Copy OK

Track 2

Filename F:\My Documents\Backup and Documents\Torrents\Weird Al Yankovic - Greatest Hits [1988] [FLAC]\02 Eat It.wav

Peak level 100.0 %
Track quality 100.0 %
Test CRC DF8F5010
Copy CRC DF8F5010
Accurately ripped (confidence 11) [C1B610FD]
Copy OK

Track 3

Filename F:\My Documents\Backup and Documents\Torrents\Weird Al Yankovic - Greatest Hits [1988] [FLAC]\03 Like A Surgeon.wav

Peak level 95.5 %
Track quality 100.0 %
Test CRC 44FC739D
Copy CRC 44FC739D
Accurately ripped (confidence 10) [9C94E3F2]
Copy OK

Track 4

Filename F:\My Documents\Backup and Documents\Torrents\Weird Al Yankovic - Greatest Hits [1988] [FLAC]\04 Ricky.wav

Peak level 87.6 %
Track quality 100.0 %
Test CRC 2DEEC153
Copy CRC 2DEEC153
Accurately ripped (confidence 11) [0231F1FF]
Copy OK

Track 5

Filename F:\My Documents\Backup and Documents\Torrents\Weird Al Yankovic - Greatest Hits [1988] [FLAC]\05 Addicted To Spuds.wav

Peak level 100.0 %
Track quality 100.0 %
Test CRC 1FB5A836
Copy CRC 1FB5A836
Accurately ripped (confidence 11) [95713A93]
Copy OK

Track 6

Filename F:\My Documents\Backup and Documents\Torrents\Weird Al Yankovic - Greatest Hits [1988] [FLAC]\06 Living With A Hernia.wav

Peak level 90.2 %
Track quality 100.0 %
Test CRC D478423F
Copy CRC D478423F
Accurately ripped (confidence 11) [DACBD081]
Copy OK

Track 7

Filename F:\My Documents\Backup and Documents\Torrents\Weird Al Yankovic - Greatest Hits [1988] [FLAC]\07 Dare To Be Stupid.wav

Peak level 79.4 %
Track quality 100.0 %
Test CRC 05BAD106
Copy CRC 05BAD106
Accurately ripped (confidence 10) [0772C197]
Copy OK

Track 8

Filename F:\My Documents\Backup and Documents\Torrents\Weird Al Yankovic - Greatest Hits [1988] [FLAC]\08 Lasagna.wav

Peak level 78.8 %
Track quality 100.0 %
Test CRC 17B7793A
Copy CRC 17B7793A
Accurately ripped (confidence 11) [D03AB404]
Copy OK

Track 9

Filename F:\My Documents\Backup and Documents\Torrents\Weird Al Yankovic - Greatest Hits [1988] [FLAC]\09 I Lost On Jeopardy.wav

Peak level 99.2 %
Track quality 100.0 %
Test CRC 6B71C203
Copy CRC 6B71C203
Accurately ripped (confidence 11) [B095F76D]
Copy OK

Track 10

Filename F:\My Documents\Backup and Documents\Torrents\Weird Al Yankovic - Greatest Hits [1988] [FLAC]\10 One More Minute.wav

Peak level 95.3 %
Track quality 100.0 %
Test CRC D919FB41
Copy CRC D919FB41
Accurately ripped (confidence 11) [60ED237A]
Copy OK


All tracks accurately ripped

No errors occurred

End of status report

Exact Audio Copy V0.99 prebeta 4 from 23. January 2008

EAC extraction logfile from 28. December 2008, 0:34

Weird Al Yankovic / Greatest Hits Volume II

Used drive : MATSHITADVD-ROM SR-8175 Adapter: 1 ID: 0

Read mode : Secure
Utilize accurate stream : Yes
Defeat audio cache : Yes
Make use of C2 pointers : No

Read offset correction : 691
Overread into Lead-In and Lead-Out : No
Fill up missing offset samples with silence : Yes
Delete leading and trailing silent blocks : No
Null samples used in CRC calculations : Yes
Used interface : Native Win32 interface for Win NT & 2000
Gap handling : Appended to previous track

Used output format : User Defined Encoder
Selected bitrate : 768 kBit/s
Quality : High
Add ID3 tag : No
Command line compressor : C:\Program Files\Exact Audio Copy\FLAC\FLAC.EXE
Additional command line options : -6 -V -T "ARTIST=%a" -T "TITLE=%t" -T "ALBUM=%g" -T "DATE=%y" -T "TRACKNUMBER=%n" -T "GENRE=%m" -T "COMMENT=%e" %s -o %d


TOC of the extracted CD

Track | Start | Length | Start sector | End sector
––––––––––––––––––––––––––––-
1 | 0:00.32 | 3:48.30 | 32 | 17161
2 | 3:48.62 | 3:45.05 | 17162 | 34041
3 | 7:33.67 | 4:04.10 | 34042 | 52351
4 | 11:38.02 | 3:45.40 | 52352 | 69266
5 | 15:23.42 | 3:24.73 | 69267 | 84639
6 | 18:48.40 | 3:52.02 | 84640 | 102041
7 | 22:40.42 | 3:14.73 | 102042 | 116664
8 | 25:55.40 | 3:57.42 | 116665 | 134481
9 | 29:53.07 | 3:07.63 | 134482 | 148569
10 | 33:00.70 | 3:52.72 | 148570 | 166041
11 | 36:53.67 | 3:59.48 | 166042 | 184014
12 | 40:53.40 | 3:10.00 | 184015 | 198264


Track 1

Filename F:\My Documents\Backup and Documents\Torrents\Weird Al Yankovic - Greatest Hits Volume II [1994] [FLAC]\01 Headline News.wav

Pre-gap length 0:00:02.32

Peak level 97.2 %
Track quality 100.0 %
Test CRC 3BED02A5
Copy CRC 3BED02A5
Accurately ripped (confidence 8) [D3667B9F]
Copy OK

Track 2

Filename F:\My Documents\Backup and Documents\Torrents\Weird Al Yankovic - Greatest Hits Volume II [1994] [FLAC]\02 Bedrock Anthem.wav

Peak level 98.2 %
Track quality 100.0 %
Test CRC A9E2FB94
Copy CRC A9E2FB94
Accurately ripped (confidence 8) [3ADF1257]
Copy OK

Track 3

Filename F:\My Documents\Backup and Documents\Torrents\Weird Al Yankovic - Greatest Hits Volume II [1994] [FLAC]\03 You Don't Love Me Anymore.wav

Peak level 90.7 %
Track quality 100.0 %
Test CRC 32496976
Copy CRC 32496976
Accurately ripped (confidence 8) [99BEE2EC]
Copy OK

Track 4

Filename F:\My Documents\Backup and Documents\Torrents\Weird Al Yankovic - Greatest Hits Volume II [1994] [FLAC]\04 Smells Like Nirvana.wav

Peak level 94.4 %
Track quality 100.0 %
Test CRC C30061EE
Copy CRC C30061EE
Accurately ripped (confidence 8) [A44AB722]
Copy OK

Track 5

Filename F:\My Documents\Backup and Documents\Torrents\Weird Al Yankovic - Greatest Hits Volume II [1994] [FLAC]\05 Achy Breaky Song.wav

Peak level 100.0 %
Track quality 100.0 %
Test CRC 9835EE15
Copy CRC 9835EE15
Accurately ripped (confidence 8) [E85EB3C1]
Copy OK

Track 6

Filename F:\My Documents\Backup and Documents\Torrents\Weird Al Yankovic - Greatest Hits Volume II [1994] [FLAC]\06 UHF.wav

Peak level 100.0 %
Track quality 100.0 %
Test CRC F65B002B
Copy CRC F65B002B
Accurately ripped (confidence 8) [3AB32CD4]
Copy OK

Track 7

Filename F:\My Documents\Backup and Documents\Torrents\Weird Al Yankovic - Greatest Hits Volume II [1994] [FLAC]\07 Money For Nothing,Beverly Hillbillies.wav

Peak level 100.0 %
Track quality 100.0 %
Test CRC 2EC18EC5
Copy CRC 2EC18EC5
Accurately ripped (confidence 8) [96168AD7]
Copy OK

Track 8

Filename F:\My Documents\Backup and Documents\Torrents\Weird Al Yankovic - Greatest Hits Volume II [1994] [FLAC]\08 Jurassic Park.wav

Peak level 100.0 %
Track quality 100.0 %
Test CRC 378B86F5
Copy CRC 378B86F5
Accurately ripped (confidence 8) [9156973B]
Copy OK

Track 9

Filename F:\My Documents\Backup and Documents\Torrents\Weird Al Yankovic - Greatest Hits Volume II [1994] [FLAC]\09 This Is The Life.wav

Peak level 97.9 %
Track quality 100.0 %
Test CRC 8AF64346
Copy CRC 8AF64346
Accurately ripped (confidence 8) [8954C75C]
Copy OK

Track 10

Filename F:\My Documents\Backup and Documents\Torrents\Weird Al Yankovic - Greatest Hits Volume II [1994] [FLAC]\10 Polka Your Eyes Out.wav

Peak level 99.9 %
Track quality 100.0 %
Test CRC C7713521
Copy CRC C7713521
Accurately ripped (confidence 8) [0312D359]
Copy OK

Track 11

Filename F:\My Documents\Backup and Documents\Torrents\Weird Al Yankovic - Greatest Hits Volume II [1994] [FLAC]\11 Yoda.wav

Peak level 99.9 %
Track quality 100.0 %
Test CRC 7C780C59
Copy CRC 7C780C59
Accurately ripped (confidence 8) [B0985BEB]
Copy OK

Track 12

Filename F:\My Documents\Backup and Documents\Torrents\Weird Al Yankovic - Greatest Hits Volume II [1994] [FLAC]\12 Christmas At Ground Zero.wav

Peak level 99.6 %
Track quality 100.0 %
Test CRC CA9D774E
Copy CRC CA9D774E
Accurately ripped (confidence 8) [D8F89B14]
Copy OK


All tracks accurately ripped

No errors occurred

End of status report

Exact Audio Copy V0.99 prebeta 4 from 23. January 2008

EAC extraction logfile from 3. August 2008, 1:21

"Weird Al" Yankovic / In 3-D

Used drive : LITE-ON DVDRW LH-20A1S Adapter: 3 ID: 0

Read mode : Secure
Utilize accurate stream : Yes
Defeat audio cache : Yes
Make use of C2 pointers : No

Read offset correction : 6
Overread into Lead-In and Lead-Out : No
Fill up missing offset samples with silence : Yes
Delete leading and trailing silent blocks : No
Null samples used in CRC calculations : Yes
Used interface : Installed external ASPI interface
Gap handling : Appended to previous track

Used output format : User Defined Encoder
Selected bitrate : 1024 kBit/s
Quality : High
Add ID3 tag : No
Command line compressor : C:\Program Files\FLAC\flac.exe
Additional command line options : -8 -A tukey(0.25) -A gauss(0.1875) -b 4096 -V -T "artist=%a" -T "title=%t" -T "album=%g" -T "date=%y" -T "tracknumber=%n" -T "genre=%m" %s –sector-align


TOC of the extracted CD

Track | Start | Length | Start sector | End sector
––––––––––––––––––––––––––––-
1 | 0:00.00 | 3:21.20 | 0 | 15094
2 | 3:21.20 | 4:35.27 | 15095 | 35746
3 | 7:56.47 | 2:41.58 | 35747 | 47879
4 | 10:38.30 | 3:53.22 | 47880 | 65376
5 | 14:31.52 | 3:28.73 | 65377 | 81049
6 | 18:00.50 | 4:20.22 | 81050 | 100571
7 | 22:20.72 | 4:42.70 | 100572 | 121791
8 | 27:03.67 | 4:15.18 | 121792 | 140934
9 | 31:19.10 | 3:34.55 | 140935 | 157039
10 | 34:53.65 | 3:37.62 | 157040 | 173376
11 | 38:31.52 | 5:50.53 | 173377 | 199679


Track 1

Filename E:\FLAC\new\'Weird Al' Yankovic\In 3-D\01 - Eat It.wav

Pre-gap length 0:00:02.00

Peak level 99.6 %
Track quality 100.0 %
Test CRC 605B7DFF
Copy CRC 605B7DFF
Accurately ripped (confidence 17) [38B8C902]
Copy OK

Track 2

Filename E:\FLAC\new\'Weird Al' Yankovic\In 3-D\02 - Midnight Star.wav

Pre-gap length 0:00:01.64

Peak level 79.5 %
Track quality 100.0 %
Test CRC 691120FC
Copy CRC 691120FC
Accurately ripped (confidence 17) [EEE07A16]
Copy OK

Track 3

Filename E:\FLAC\new\'Weird Al' Yankovic\In 3-D\03 - The Brady Bunch.wav

Pre-gap length 0:00:02.33

Peak level 87.1 %
Track quality 100.0 %
Test CRC C2D3F4F5
Copy CRC C2D3F4F5
Accurately ripped (confidence 17) [493E57BE]
Copy OK

Track 4

Filename E:\FLAC\new\'Weird Al' Yankovic\In 3-D\04 - Buy Me A Condo.wav

Pre-gap length 0:00:01.73

Peak level 74.8 %
Track quality 100.0 %
Test CRC 5A3B2189
Copy CRC 5A3B2189
Accurately ripped (confidence 17) [FDD49F1E]
Copy OK

Track 5

Filename E:\FLAC\new\'Weird Al' Yankovic\In 3-D\05 - I Lost On Jeopardy.wav

Pre-gap length 0:00:02.40

Peak level 80.1 %
Track quality 100.0 %
Test CRC E1EE431D
Copy CRC E1EE431D
Accurately ripped (confidence 17) [7E07F4C9]
Copy OK

Track 6

Filename E:\FLAC\new\'Weird Al' Yankovic\In 3-D\06 - Polkas On 45.wav

Pre-gap length 0:00:01.20

Peak level 84.5 %
Track quality 100.0 %
Test CRC 9A5ADC3D
Copy CRC 9A5ADC3D
Accurately ripped (confidence 17) [95B8B278]
Copy OK

Track 7

Filename E:\FLAC\new\'Weird Al' Yankovic\In 3-D\07 - Mr. Popeil.wav

Pre-gap length 0:00:01.40

Peak level 91.5 %
Track quality 99.9 %
Test CRC 75EDDAA7
Copy CRC 75EDDAA7
Accurately ripped (confidence 17) [4BD43371]
Copy OK

Track 8

Filename E:\FLAC\new\'Weird Al' Yankovic\In 3-D\08 - King Of Suede.wav

Pre-gap length 0:00:02.26

Peak level 84.1 %
Track quality 100.0 %
Test CRC 2E1C6B69
Copy CRC 2E1C6B69
Accurately ripped (confidence 17) [8C76B5FC]
Copy OK

Track 9

Filename E:\FLAC\new\'Weird Al' Yankovic\In 3-D\09 - That Boy Could Dance.wav

Pre-gap length 0:00:02.44

Peak level 96.7 %
Track quality 100.0 %
Test CRC 1E679D31
Copy CRC 1E679D31
Accurately ripped (confidence 16) [B95E3F2A]
Copy OK

Track 10

Filename E:\FLAC\new\'Weird Al' Yankovic\In 3-D\10 - Theme From Rocky XIII.wav

Pre-gap length 0:00:03.00

Peak level 80.0 %
Track quality 99.9 %
Test CRC A45215CB
Copy CRC A45215CB
Accurately ripped (confidence 17) [6FD216BD]
Copy OK

Track 11

Filename E:\FLAC\new\'Weird Al' Yankovic\In 3-D\11 - Nature Trail To Hell.wav

Pre-gap length 0:00:02.49

Peak level 71.5 %
Track quality 100.0 %
Test CRC 843CC5D8
Copy CRC 843CC5D8
Accurately ripped (confidence 16) [ED5687D4]
Copy OK


All tracks accurately ripped

No errors occurred

End of status report

Exact Audio Copy V0.99 prebeta 3 from 28. July 2007

EAC extraction logfile from 13. February 2008, 9:58

Weird Al Yankovic / Off The Deep End

Used drive : HL-DT-STDVD+RW GCA-4040N Adapter: 1 ID: 0

Read mode : Secure
Utilize accurate stream : Yes
Defeat audio cache : Yes
Make use of C2 pointers : No

Read offset correction : 48
Overread into Lead-In and Lead-Out : Yes
Fill up missing offset samples with silence : Yes
Delete leading and trailing silent blocks : No
Null samples used in CRC calculations : Yes
Used interface : Native Win32 interface for Win NT & 2000
Gap handling : Appended to previous track

Used output format : User Defined Encoder
Selected bitrate : 1024 kBit/s
Quality : High
Add ID3 tag : No
Command line compressor : C:\Program Files\Exact Audio Copy\FLAC\FLAC.EXE
Additional command line options : -T "artist=%a" -T "title=%t" -T "album=%g" -T "date=%y" -T "tracknumber=%n" -T "genre=%m" %s


TOC of the extracted CD

Track | Start | Length | Start sector | End sector
––––––––––––––––––––––––––––-
1 | 0:00.00 | 3:43.15 | 0 | 16739
2 | 3:43.15 | 3:47.25 | 16740 | 33789
3 | 7:30.40 | 3:31.30 | 33790 | 49644
4 | 11:01.70 | 3:50.32 | 49645 | 66926
5 | 14:52.27 | 3:30.58 | 66927 | 82734
6 | 18:23.10 | 2:42.70 | 82735 | 94954
7 | 21:06.05 | 4:35.72 | 94955 | 115651
8 | 25:42.02 | 3:44.48 | 115652 | 132499
9 | 29:26.50 | 3:50.42 | 132500 | 149791
10 | 33:17.17 | 4:06.08 | 149792 | 168249
11 | 37:23.25 | 14:09.40 | 168250 | 231964


Track 1

Filename E:\My Downloads\uTorrent DLs\- What.cd\Weird Al - Off the Deep End\01 Weird Al Yankovic - Smells Like Nirvana.wav

Pre-gap length 0:00:02.00

Peak level 96.2 %
Track quality 100.0 %
Test CRC CFC79AC5
Copy CRC CFC79AC5
Track not present in AccurateRip database
Copy OK

Track 2

Filename E:\My Downloads\uTorrent DLs\- What.cd\Weird Al - Off the Deep End\02 Weird Al Yankovic - Trigger Happy.wav

Peak level 96.1 %
Track quality 100.0 %
Test CRC 2BA0633A
Copy CRC 2BA0633A
Track not present in AccurateRip database
Copy OK

Track 3

Filename E:\My Downloads\uTorrent DLs\- What.cd\Weird Al - Off the Deep End\03 Weird Al Yankovic - I Can't Watch This.wav

Pre-gap length 0:00:01.13

Peak level 94.5 %
Track quality 100.0 %
Test CRC F790446F
Copy CRC F790446F
Track not present in AccurateRip database
Copy OK

Track 4

Filename E:\My Downloads\uTorrent DLs\- What.cd\Weird Al - Off the Deep End\04 Weird Al Yankovic - Polka Your Eyes Out.wav

Peak level 97.5 %
Track quality 100.0 %
Test CRC 3D91DFB7
Copy CRC 3D91DFB7
Track not present in AccurateRip database
Copy OK

Track 5

Filename E:\My Downloads\uTorrent DLs\- What.cd\Weird Al - Off the Deep End\05 Weird Al Yankovic - I Was Only Kidding.wav

Pre-gap length 0:00:01.12

Peak level 98.0 %
Track quality 100.0 %
Test CRC 259B7FDE
Copy CRC 259B7FDE
Track not present in AccurateRip database
Copy OK

Track 6

Filename E:\My Downloads\uTorrent DLs\- What.cd\Weird Al - Off the Deep End\06 Weird Al Yankovic - The White Stuff.wav

Peak level 96.5 %
Track quality 100.0 %
Test CRC 5FC1C201
Copy CRC 5FC1C201
Track not present in AccurateRip database
Copy OK

Track 7

Filename E:\My Downloads\uTorrent DLs\- What.cd\Weird Al - Off the Deep End\07 Weird Al Yankovic - When I Was Your Age.wav

Peak level 100.0 %
Track quality 99.9 %
Test CRC 148B5C1D
Copy CRC 148B5C1D
Track not present in AccurateRip database
Copy OK

Track 8

Filename E:\My Downloads\uTorrent DLs\- What.cd\Weird Al - Off the Deep End\08 Weird Al Yankovic - Taco Grande.wav

Peak level 100.0 %
Track quality 100.0 %
Test CRC E7D008D4
Copy CRC E7D008D4
Track not present in AccurateRip database
Copy OK

Track 9

Filename E:\My Downloads\uTorrent DLs\- What.cd\Weird Al - Off the Deep End\09 Weird Al Yankovic - Airline Amy.wav

Peak level 100.0 %
Track quality 100.0 %
Test CRC 1E204665
Copy CRC 1E204665
Track not present in AccurateRip database
Copy OK

Track 10

Filename E:\My Downloads\uTorrent DLs\- What.cd\Weird Al - Off the Deep End\10 Weird Al Yankovic - The Plumbing Song.wav

Peak level 99.7 %
Track quality 100.0 %
Test CRC BD10C771
Copy CRC BD10C771
Track not present in AccurateRip database
Copy OK

Track 11

Filename E:\My Downloads\uTorrent DLs\- What.cd\Weird Al - Off the Deep End\11 Weird Al Yankovic - You Don't Love Me Anymore.wav

Peak level 94.9 %
Track quality 100.0 %
Test CRC 7B36F151
Copy CRC 7B36F151
Track not present in AccurateRip database
Copy OK


None of the tracks are present in the AccurateRip database

No errors occurred

End of status report

Exact Audio Copy V0.99 prebeta 4 from 23. January 2008

EAC extraction logfile from 10. March 2009, 23:55

"Weird Al" Yankovic / Permanent Record - Al in the Box - Disc 1

Used drive : LITE-ON DVDRW SHW-160P6S Adapter: 0 ID: 0

Read mode : Secure
Utilize accurate stream : Yes
Defeat audio cache : Yes
Make use of C2 pointers : No

Read offset correction : 6
Overread into Lead-In and Lead-Out : No
Fill up missing offset samples with silence : Yes
Delete leading and trailing silent blocks : No
Null samples used in CRC calculations : Yes
Used interface : Native Win32 interface for Win NT & 2000
Gap handling : Appended to previous track

Used output format : User Defined Encoder
Selected bitrate : 768 kBit/s
Quality : High
Add ID3 tag : No
Command line compressor : C:\Program Files (x86)\FLAC\flac.exe
Additional command line options : -V -8 -T "artist=%a" -T "title=%t" -T "album=%g" -T "date=%y" -T "tracknumber=%n" -T "genre=%m" %s


TOC of the extracted CD

Track | Start | Length | Start sector | End sector
––––––––––––––––––––––––––––-
1 | 0:00.00 | 2:23.05 | 0 | 10729
2 | 2:23.05 | 2:38.20 | 10730 | 22599
3 | 5:01.25 | 2:39.30 | 22600 | 34554
4 | 7:40.55 | 2:37.25 | 34555 | 46354
5 | 10:18.05 | 2:38.12 | 46355 | 58216
6 | 12:56.17 | 4:22.38 | 58217 | 77904
7 | 17:18.55 | 4:37.45 | 77905 | 98724
8 | 21:56.25 | 3:23.65 | 98725 | 114014
9 | 25:20.15 | 4:44.40 | 114015 | 135354
10 | 30:04.55 | 3:30.50 | 135355 | 151154
11 | 33:35.30 | 3:54.20 | 151155 | 168724
12 | 37:29.50 | 4:14.35 | 168725 | 187809


Track 1

Filename C:\Music\Permanent Record - Al in the Box - Disc 1\01 My Bologna.wav

Pre-gap length 0:00:02.00

Peak level 88.5 %
Track quality 100.0 %
Test CRC 490522B7
Copy CRC 490522B7
Cannot be verified as accurate (confidence 3) [FA212DA0], AccurateRip returned [8698024B]
Copy OK

Track 2

Filename C:\Music\Permanent Record - Al in the Box - Disc 1\02 Another One Rides the Bus.wav

Pre-gap length 0:00:02.30

Peak level 93.3 %
Track quality 100.0 %
Test CRC 620BD454
Copy CRC 620BD454
Cannot be verified as accurate (confidence 3) [69F3092F], AccurateRip returned [69F99896]
Copy OK

Track 3

Filename C:\Music\Permanent Record - Al in the Box - Disc 1\03 Happy Birthday.wav

Pre-gap length 0:00:02.90

Peak level 92.4 %
Track quality 99.9 %
Test CRC 28CD9281
Copy CRC 28CD9281
Cannot be verified as accurate (confidence 3) [394548A1], AccurateRip returned [232B3E2B]
Copy OK

Track 4

Filename C:\Music\Permanent Record - Al in the Box - Disc 1\04 I Love Rocky Road.wav

Pre-gap length 0:00:03.40

Peak level 95.8 %
Track quality 100.0 %
Test CRC 921585CF
Copy CRC 921585CF
Cannot be verified as accurate (confidence 3) [B6D7438D], AccurateRip returned [3799892B]
Copy OK

Track 5

Filename C:\Music\Permanent Record - Al in the Box - Disc 1\05 Ricky.wav

Pre-gap length 0:00:03.54

Peak level 94.1 %
Track quality 100.0 %
Test CRC 64BDDBA1
Copy CRC 64BDDBA1
Cannot be verified as accurate (confidence 3) [597E44C2], AccurateRip returned [6417D31A]
Copy OK

Track 6

Filename C:\Music\Permanent Record - Al in the Box - Disc 1\06 Polkas on 45.wav

Pre-gap length 0:00:03.36

Peak level 96.9 %
Track quality 100.0 %
Test CRC 0EA5CE89
Copy CRC 0EA5CE89
Cannot be verified as accurate (confidence 3) [41B2EBAA], AccurateRip returned [D8551929]
Copy OK

Track 7

Filename C:\Music\Permanent Record - Al in the Box - Disc 1\07 Midnight Star.wav

Pre-gap length 0:00:03.06

Peak level 99.2 %
Track quality 99.9 %
Test CRC 25A83FAD
Copy CRC 25A83FAD
Cannot be verified as accurate (confidence 3) [16220B16], AccurateRip returned [887AF595]
Copy OK

Track 8

Filename C:\Music\Permanent Record - Al in the Box - Disc 1\08 Eat It.wav

Pre-gap length 0:00:03.44

Peak level 98.7 %
Track quality 99.9 %
Test CRC 17043852
Copy CRC 17043852
Cannot be verified as accurate (confidence 3) [25B1548C], AccurateRip returned [EA3345A6]
Copy OK

Track 9

Filename C:\Music\Permanent Record - Al in the Box - Disc 1\09 Mr. Popeil.wav

Pre-gap length 0:00:03.24

Peak level 100.0 %
Track quality 100.0 %
Test CRC 9F40046B
Copy CRC 9F40046B
Cannot be verified as accurate (confidence 3) [25FC32BA], AccurateRip returned [F05B3EF5]
Copy OK

Track 10

Filename C:\Music\Permanent Record - Al in the Box - Disc 1\10 I Lost on Jeopardy.wav

Pre-gap length 0:00:03.64

Peak level 100.0 %
Track quality 100.0 %
Test CRC 2517247A
Copy CRC 2517247A
Cannot be verified as accurate (confidence 3) [00AD298B], AccurateRip returned [02E9B54E]
Copy OK

Track 11

Filename C:\Music\Permanent Record - Al in the Box - Disc 1\11 Buy Me a Condo.wav

Pre-gap length 0:00:03.20

Peak level 99.0 %
Track quality 100.0 %
Test CRC CBC6016D
Copy CRC CBC6016D
Cannot be verified as accurate (confidence 3) [E449AE18], AccurateRip returned [D2A280FC]
Copy OK

Track 12

Filename C:\Music\Permanent Record - Al in the Box - Disc 1\12 King of Suede.wav

Pre-gap length 0:00:03.17

Peak level 97.8 %
Track quality 100.0 %
Test CRC DA0E69B9
Copy CRC DA0E69B9
Cannot be verified as accurate (confidence 3) [C3E09CFD], AccurateRip returned [0057C553]
Copy OK


No tracks could be verified as accurate
You may have a different pressing from the one(s) in the database

No errors occurred

End of status report

Exact Audio Copy V0.99 prebeta 4 from 23. January 2008

EAC extraction logfile from 11. March 2009, 13:13

"Weird Al" Yankovic / Permanent Record - Al In The Box - Disc 2

Used drive : LITE-ON DVDRW SHW-160P6S Adapter: 0 ID: 0

Read mode : Secure
Utilize accurate stream : Yes
Defeat audio cache : Yes
Make use of C2 pointers : No

Read offset correction : 6
Overread into Lead-In and Lead-Out : No
Fill up missing offset samples with silence : Yes
Delete leading and trailing silent blocks : No
Null samples used in CRC calculations : Yes
Used interface : Native Win32 interface for Win NT & 2000
Gap handling : Appended to previous track

Used output format : User Defined Encoder
Selected bitrate : 768 kBit/s
Quality : High
Add ID3 tag : No
Command line compressor : C:\Program Files (x86)\FLAC\flac.exe
Additional command line options : -V -8 -T "artist=%a" -T "title=%t" -T "album=%g" -T "date=%y" -T "tracknumber=%n" -T "genre=%m" %s


TOC of the extracted CD

Track | Start | Length | Start sector | End sector
––––––––––––––––––––––––––––-
1 | 0:00.00 | 3:59.12 | 0 | 17936
2 | 3:59.12 | 3:07.13 | 17937 | 31974
3 | 7:06.25 | 3:33.12 | 31975 | 47961
4 | 10:39.37 | 4:05.25 | 47962 | 66361
5 | 14:44.62 | 3:05.25 | 66362 | 80261
6 | 17:50.12 | 3:30.50 | 80262 | 96061
7 | 21:20.62 | 3:26.63 | 96062 | 111574
8 | 24:47.50 | 3:53.20 | 111575 | 129069
9 | 28:40.70 | 3:45.42 | 129070 | 145986
10 | 32:26.37 | 3:27.00 | 145987 | 161511
11 | 35:53.37 | 3:22.50 | 161512 | 176711
12 | 39:16.12 | 3:12.60 | 176712 | 191171


Track 1

Filename C:\Music\Permanent Record - Al In The Box - Disc 2\01 Yoda.wav

Pre-gap length 0:00:02.00

Peak level 99.0 %
Track quality 100.0 %
Test CRC 6C532FB7
Copy CRC 6C532FB7
Cannot be verified as accurate (confidence 3) [52037A91], AccurateRip returned [22CEDE5C]
Copy OK

Track 2

Filename C:\Music\Permanent Record - Al In The Box - Disc 2\02 This Is The Life.wav

Pre-gap length 0:00:02.49

Peak level 100.0 %
Track quality 100.0 %
Test CRC 049986F8
Copy CRC 049986F8
Cannot be verified as accurate (confidence 3) [7FD6F639], AccurateRip returned [0868DA8D]
Copy OK

Track 3

Filename C:\Music\Permanent Record - Al In The Box - Disc 2\03 Like A Surgeon.wav

Pre-gap length 0:00:02.93

Peak level 98.9 %
Track quality 99.9 %
Test CRC 1EF5ADB2
Copy CRC 1EF5ADB2
Cannot be verified as accurate (confidence 3) [E02F71B7], AccurateRip returned [30EA2BB6]
Copy OK

Track 4

Filename C:\Music\Permanent Record - Al In The Box - Disc 2\04 One More Minute.wav

Pre-gap length 0:00:01.33

Peak level 99.7 %
Track quality 100.0 %
Test CRC 794D5391
Copy CRC 794D5391
Cannot be verified as accurate (confidence 3) [946FBC94], AccurateRip returned [406A1742]
Copy OK

Track 5

Filename C:\Music\Permanent Record - Al In The Box - Disc 2\05 I Want A New Duck.wav

Pre-gap length 0:00:02.66

Peak level 100.0 %
Track quality 100.0 %
Test CRC D9CF1785
Copy CRC D9CF1785
Cannot be verified as accurate (confidence 3) [65AE23BE], AccurateRip returned [207B1A5E]
Copy OK

Track 6

Filename C:\Music\Permanent Record - Al In The Box - Disc 2\06 Dare To Be Stupid.wav

Pre-gap length 0:00:03.49

Peak level 99.0 %
Track quality 100.0 %
Test CRC 21B39946
Copy CRC 21B39946
Cannot be verified as accurate (confidence 3) [189C2B4E], AccurateRip returned [D1338FB2]
Copy OK

Track 7

Filename C:\Music\Permanent Record - Al In The Box - Disc 2\07 Hooked On Polkas.wav

Pre-gap length 0:00:02.96

Peak level 94.4 %
Track quality 100.0 %
Test CRC D54237C0
Copy CRC D54237C0
Cannot be verified as accurate (confidence 3) [54C377A1], AccurateRip returned [8D105C36]
Copy OK

Track 8

Filename C:\Music\Permanent Record - Al In The Box - Disc 2\08 Addicted To Spuds.wav

Pre-gap length 0:00:02.30

Peak level 100.0 %
Track quality 100.0 %
Test CRC 2D515488
Copy CRC 2D515488
Cannot be verified as accurate (confidence 3) [236C846E], AccurateRip returned [4218AC85]
Copy OK

Track 9

Filename C:\Music\Permanent Record - Al In The Box - Disc 2\09 Dog Eat Dog.wav

Pre-gap length 0:00:03.86

Peak level 98.0 %
Track quality 100.0 %
Test CRC 9B448CAD
Copy CRC 9B448CAD
Cannot be verified as accurate (confidence 3) [F65040C0], AccurateRip returned [AA360F3C]
Copy OK

Track 10

Filename C:\Music\Permanent Record - Al In The Box - Disc 2\10 Here's Johnny.wav

Pre-gap length 0:00:02.82

Peak level 96.5 %
Track quality 100.0 %
Test CRC 621B64AE
Copy CRC 621B64AE
Cannot be verified as accurate (confidence 3) [74378BD5], AccurateRip returned [3A5F7EB0]
Copy OK

Track 11

Filename C:\Music\Permanent Record - Al In The Box - Disc 2\11 Living With A Hernia.wav

Pre-gap length 0:00:03.33

Peak level 97.6 %
Track quality 100.0 %
Test CRC F43A6388
Copy CRC F43A6388
Cannot be verified as accurate (confidence 3) [C76A8945], AccurateRip returned [3958736C]
Copy OK

Track 12

Filename C:\Music\Permanent Record - Al In The Box - Disc 2\12 Chrismas At Ground Zero.wav

Pre-gap length 0:00:02.49

Peak level 97.8 %
Track quality 100.0 %
Test CRC 18865CEF
Copy CRC 18865CEF
Cannot be verified as accurate (confidence 3) [D0F32BFA], AccurateRip returned [A1BBE18C]
Copy OK


No tracks could be verified as accurate
You may have a different pressing from the one(s) in the database

No errors occurred

End of status report

Exact Audio Copy V0.99 prebeta 4 from 23. January 2008

EAC extraction logfile from 11. March 2009, 14:01

"Weird Al" Yankovic / Permanent Record - Al in the Box - Disc 3

Used drive : LITE-ON DVDRW SHW-160P6S Adapter: 0 ID: 0

Read mode : Secure
Utilize accurate stream : Yes
Defeat audio cache : Yes
Make use of C2 pointers : No

Read offset correction : 6
Overread into Lead-In and Lead-Out : No
Fill up missing offset samples with silence : Yes
Delete leading and trailing silent blocks : No
Null samples used in CRC calculations : Yes
Used interface : Native Win32 interface for Win NT & 2000
Gap handling : Appended to previous track

Used output format : User Defined Encoder
Selected bitrate : 768 kBit/s
Quality : High
Add ID3 tag : No
Command line compressor : C:\Program Files (x86)\FLAC\flac.exe
Additional command line options : -V -8 -T "artist=%a" -T "title=%t" -T "album=%g" -T "date=%y" -T "tracknumber=%n" -T "genre=%m" %s


TOC of the extracted CD

Track | Start | Length | Start sector | End sector
––––––––––––––––––––––––––––-
1 | 0:00.00 | 2:48.55 | 0 | 12654
2 | 2:48.55 | 3:24.10 | 12655 | 27964
3 | 6:12.65 | 3:39.65 | 27965 | 44454
4 | 9:52.55 | 4:01.20 | 44455 | 62549
5 | 13:54.00 | 3:20.42 | 62550 | 77591
6 | 17:14.42 | 3:07.45 | 77592 | 91661
7 | 20:22.12 | 3:17.08 | 91662 | 106444
8 | 23:39.20 | 3:52.67 | 106445 | 123911
9 | 27:32.12 | 3:13.25 | 123912 | 138411
10 | 30:45.37 | 6:50.13 | 138412 | 169174
11 | 37:35.50 | 3:03.27 | 169175 | 182926
12 | 40:39.02 | 4:38.73 | 182927 | 203849


Track 1

Filename C:\Music\Permanent Record - Al in the Box - Disc 3\01 Lasagna.wav

Pre-gap length 0:00:02.00

Peak level 92.9 %
Track quality 100.0 %
Test CRC 0980A1A6
Copy CRC 0980A1A6
Cannot be verified as accurate (confidence 3) [C95DCBB1], AccurateRip returned [A177C259]
Copy OK

Track 2

Filename C:\Music\Permanent Record - Al in the Box - Disc 3\02 Good Old Days.wav

Pre-gap length 0:00:03.00

Peak level 91.4 %
Track quality 100.0 %
Test CRC EA943301
Copy CRC EA943301
Cannot be verified as accurate (confidence 3) [85FFA451], AccurateRip returned [47F10D7F]
Copy OK

Track 3

Filename C:\Music\Permanent Record - Al in the Box - Disc 3\03 Fat.wav

Pre-gap length 0:00:03.13

Peak level 97.5 %
Track quality 100.0 %
Test CRC 65BF1619
Copy CRC 65BF1619
Cannot be verified as accurate (confidence 3) [6B1AF474], AccurateRip returned [329BA0AD]
Copy OK

Track 4

Filename C:\Music\Permanent Record - Al in the Box - Disc 3\04 Melanie.wav

Pre-gap length 0:00:03.00

Peak level 92.7 %
Track quality 100.0 %
Test CRC FE701812
Copy CRC FE701812
Cannot be verified as accurate (confidence 3) [B0F95B0C], AccurateRip returned [F64F082B]
Copy OK

Track 5

Filename C:\Music\Permanent Record - Al in the Box - Disc 3\05 I Think I'm A Clone Now.wav

Pre-gap length 0:00:03.33

Peak level 96.0 %
Track quality 99.9 %
Test CRC BBE4B0EE
Copy CRC BBE4B0EE
Cannot be verified as accurate (confidence 3) [A7EC2692], AccurateRip returned [412CE3FA]
Copy OK

Track 6

Filename C:\Music\Permanent Record - Al in the Box - Disc 3\06 You Make Me.wav

Pre-gap length 0:00:03.06

Peak level 93.4 %
Track quality 99.9 %
Test CRC A64AFB2C
Copy CRC A64AFB2C
Cannot be verified as accurate (confidence 3) [9BB3BFE1], AccurateRip returned [ABD8C211]
Copy OK

Track 7

Filename C:\Music\Permanent Record - Al in the Box - Disc 3\07 Alimony.wav

Pre-gap length 0:00:03.33

Peak level 95.2 %
Track quality 100.0 %
Test CRC 4D74CBBB
Copy CRC 4D74CBBB
Cannot be verified as accurate (confidence 3) [C2D11FEB], AccurateRip returned [A1B21516]
Copy OK

Track 8

Filename C:\Music\Permanent Record - Al in the Box - Disc 3\08 UHF (single version).wav

Pre-gap length 0:00:02.84

Peak level 99.0 %
Track quality 100.0 %
Test CRC 5AEE987A
Copy CRC 5AEE987A
Cannot be verified as accurate (confidence 3) [34C7CF9B], AccurateRip returned [3A7808F1]
Copy OK

Track 9

Filename C:\Music\Permanent Record - Al in the Box - Disc 3\09 Money For Nothing , Beverly Hillbillies.wav

Pre-gap length 0:00:03.60

Peak level 100.0 %
Track quality 100.0 %
Test CRC AE873CFA
Copy CRC AE873CFA
Cannot be verified as accurate (confidence 3) [3DE7CB20], AccurateRip returned [FB5A302B]
Copy OK

Track 10

Filename C:\Music\Permanent Record - Al in the Box - Disc 3\10 The Biggest Ball Of Twine In Minnesota.wav

Pre-gap length 0:00:03.00

Peak level 97.0 %
Track quality 100.0 %
Test CRC A06C6E44
Copy CRC A06C6E44
Cannot be verified as accurate (confidence 3) [C723FCFA], AccurateRip returned [AE209149]
Copy OK

Track 11

Filename C:\Music\Permanent Record - Al in the Box - Disc 3\11 Spam.wav

Pre-gap length 0:00:03.30

Peak level 95.8 %
Track quality 100.0 %
Test CRC 06321E7E
Copy CRC 06321E7E
Cannot be verified as accurate (confidence 3) [F68B77B5], AccurateRip returned [F600EEA7]
Copy OK

Track 12

Filename C:\Music\Permanent Record - Al in the Box - Disc 3\12 Generic Blues.wav

Pre-gap length 0:00:03.20

Peak level 94.8 %
Track quality 99.9 %
Test CRC 3307877B
Copy CRC 3307877B
Cannot be verified as accurate (confidence 3) [C1ACBEBC], AccurateRip returned [90D3DF39]
Copy OK


No tracks could be verified as accurate
You may have a different pressing from the one(s) in the database

No errors occurred

End of status report

Exact Audio Copy V0.99 prebeta 4 from 23. January 2008

EAC extraction logfile from 11. March 2009, 16:00

''Weird Al'' Yankovic / Permanent Record - Al in the Box - Disc 4

Used drive : LITE-ON DVDRW SHW-160P6S Adapter: 0 ID: 0

Read mode : Secure
Utilize accurate stream : Yes
Defeat audio cache : Yes
Make use of C2 pointers : No

Read offset correction : 6
Overread into Lead-In and Lead-Out : No
Fill up missing offset samples with silence : Yes
Delete leading and trailing silent blocks : No
Null samples used in CRC calculations : Yes
Used interface : Native Win32 interface for Win NT & 2000
Gap handling : Appended to previous track

Used output format : User Defined Encoder
Selected bitrate : 768 kBit/s
Quality : High
Add ID3 tag : No
Command line compressor : C:\Program Files (x86)\FLAC\flac.exe
Additional command line options : -V -8 -T "artist=%a" -T "title=%t" -T "album=%g" -T "date=%y" -T "tracknumber=%n" -T "genre=%m" %s


TOC of the extracted CD

Track | Start | Length | Start sector | End sector
––––––––––––––––––––––––––––-
1 | 0:00.00 | 3:53.47 | 0 | 17521
2 | 3:53.47 | 4:04.13 | 17522 | 35834
3 | 7:57.60 | 3:45.32 | 35835 | 52741
4 | 11:43.17 | 4:38.63 | 52742 | 73654
5 | 16:22.05 | 3:31.42 | 73655 | 89521
6 | 19:53.47 | 3:47.70 | 89522 | 106616
7 | 23:41.42 | 3:46.70 | 106617 | 123636
8 | 27:28.37 | 3:44.40 | 123637 | 140476
9 | 31:13.02 | 0:24.45 | 140477 | 142321
10 | 31:37.47 | 3:25.03 | 142322 | 157699
11 | 35:02.50 | 3:36.62 | 157700 | 173961
12 | 38:39.37 | 4:07.48 | 173962 | 192534
13 | 42:47.10 | 3:57.37 | 192535 | 210346
14 | 46:44.47 | 3:45.68 | 210347 | 227289


Track 1

Filename C:\Music\Permanent Record - Al in the Box - Disc 4\01 Polka Your Eyes Out.wav

Pre-gap length 0:00:02.00

Peak level 99.7 %
Track quality 100.0 %
Test CRC 0FD82EB1
Copy CRC 0FD82EB1
Cannot be verified as accurate (confidence 3) [CC4DC8F4], AccurateRip returned [77B36D23]
Copy OK

Track 2

Filename C:\Music\Permanent Record - Al in the Box - Disc 4\02 You Don't Love Me Anymore.wav

Pre-gap length 0:00:03.93

Peak level 91.1 %
Track quality 100.0 %
Test CRC 1F33CBA0
Copy CRC 1F33CBA0
Cannot be verified as accurate (confidence 3) [778F4EDF], AccurateRip returned [9B9EE6CB]
Copy OK

Track 3

Filename C:\Music\Permanent Record - Al in the Box - Disc 4\03 Smells Like Nirvana.wav

Pre-gap length 0:00:03.50

Peak level 94.3 %
Track quality 100.0 %
Test CRC E24C3A8A
Copy CRC E24C3A8A
Cannot be verified as accurate (confidence 3) [28DCEF49], AccurateRip returned [7FA82F22]
Copy OK

Track 4

Filename C:\Music\Permanent Record - Al in the Box - Disc 4\04 When I Was Your Age.wav

Pre-gap length 0:00:02.82

Peak level 100.0 %
Track quality 100.0 %
Test CRC BC24DC04
Copy CRC BC24DC04
Cannot be verified as accurate (confidence 3) [3C0F0DDD], AccurateRip returned [45DCB524]
Copy OK

Track 5

Filename C:\Music\Permanent Record - Al in the Box - Disc 4\05 I Can't Watch This.wav

Pre-gap length 0:00:03.84

Peak level 97.3 %
Track quality 100.0 %
Test CRC 8984D860
Copy CRC 8984D860
Cannot be verified as accurate (confidence 3) [90F7005F], AccurateRip returned [C049C1A3]
Copy OK

Track 6

Filename C:\Music\Permanent Record - Al in the Box - Disc 4\06 Trigger Happy.wav

Pre-gap length 0:00:02.89

Peak level 98.6 %
Track quality 100.0 %
Test CRC A9AC64DF
Copy CRC A9AC64DF
Cannot be verified as accurate (confidence 3) [E21B6D73], AccurateRip returned [B3D88FBE]
Copy OK

Track 7

Filename C:\Music\Permanent Record - Al in the Box - Disc 4\07 Taco Grande.wav

Pre-gap length 0:00:01.96

Peak level 98.0 %
Track quality 100.0 %
Test CRC 3DCD0C8E
Copy CRC 3DCD0C8E
Cannot be verified as accurate (confidence 3) [F0B57A82], AccurateRip returned [4DFB6CFD]
Copy OK

Track 8

Filename C:\Music\Permanent Record - Al in the Box - Disc 4\08 Bedrock Anthem.wav

Pre-gap length 0:00:03.26

Peak level 99.6 %
Track quality 100.0 %
Test CRC 672F0E17
Copy CRC 672F0E17
Cannot be verified as accurate (confidence 3) [50C0002E], AccurateRip returned [F337ADCE]
Copy OK

Track 9

Filename C:\Music\Permanent Record - Al in the Box - Disc 4\09 Harvey The Wonder Hamster.wav

Pre-gap length 0:00:03.62

Peak level 94.6 %
Track quality 100.0 %
Test CRC D862C747
Copy CRC D862C747
Cannot be verified as accurate (confidence 3) [158C569E], AccurateRip returned [6D5B689A]
Copy OK

Track 10

Filename C:\Music\Permanent Record - Al in the Box - Disc 4\10 Achy Breaky Song.wav

Pre-gap length 0:00:03.09

Peak level 98.7 %
Track quality 100.0 %
Test CRC 5464D76D
Copy CRC 5464D76D
Cannot be verified as accurate (confidence 3) [8FFA1397], AccurateRip returned [C5C0CE1E]
Copy OK

Track 11

Filename C:\Music\Permanent Record - Al in the Box - Disc 4\11 Livin' In The Fridge.wav

Pre-gap length 0:00:02.84

Peak level 97.3 %
Track quality 99.9 %
Test CRC 09D6CA8E
Copy CRC 09D6CA8E
Cannot be verified as accurate (confidence 3) [0800FA06], AccurateRip returned [B9AD597A]
Copy OK

Track 12

Filename C:\Music\Permanent Record - Al in the Box - Disc 4\12 Frank's 2000'' TV.wav

Pre-gap length 0:00:02.76

Peak level 100.0 %
Track quality 100.0 %
Test CRC A4AE40F5
Copy CRC A4AE40F5
Cannot be verified as accurate (confidence 3) [7F9FF304], AccurateRip returned [CC57EB25]
Copy OK

Track 13

Filename C:\Music\Permanent Record - Al in the Box - Disc 4\13 Jurassic Park.wav

Pre-gap length 0:00:02.90

Peak level 97.1 %
Track quality 100.0 %
Test CRC BA327A5B
Copy CRC BA327A5B
Cannot be verified as accurate (confidence 3) [6A1C51C9], AccurateRip returned [6DE57C3B]
Copy OK

Track 14

Filename C:\Music\Permanent Record - Al in the Box - Disc 4\14 Headline News.wav

Pre-gap length 0:00:03.56

Peak level 95.6 %
Track quality 100.0 %
Test CRC 7C08E936
Copy CRC 7C08E936
Cannot be verified as accurate (confidence 3) [6043A2FE], AccurateRip returned [FC974651]
Copy OK


No tracks could be verified as accurate
You may have a different pressing from the one(s) in the database

No errors occurred

End of status report

Exact Audio Copy V0.99 prebeta 3 from 28. July 2007

EAC extraction logfile from 12. February 2008, 17:17

"Weird Al" Yankovic / Polka Party

Used drive : HL-DT-STDVD+RW GCA-4040N Adapter: 1 ID: 0

Read mode : Secure
Utilize accurate stream : Yes
Defeat audio cache : Yes
Make use of C2 pointers : No

Read offset correction : 48
Overread into Lead-In and Lead-Out : Yes
Fill up missing offset samples with silence : Yes
Delete leading and trailing silent blocks : No
Null samples used in CRC calculations : Yes
Used interface : Native Win32 interface for Win NT & 2000
Gap handling : Appended to previous track

Used output format : User Defined Encoder
Selected bitrate : 1024 kBit/s
Quality : High
Add ID3 tag : No
Command line compressor : C:\Program Files\Exact Audio Copy\FLAC\FLAC.EXE
Additional command line options : -T "artist=%a" -T "title=%t" -T "album=%g" -T "date=%y" -T "tracknumber=%n" -T "genre=%m" %s


TOC of the extracted CD

Track | Start | Length | Start sector | End sector
––––––––––––––––––––––––––––-
1 | 0:00.32 | 3:20.38 | 32 | 15069
2 | 3:20.70 | 3:42.50 | 15070 | 31769
3 | 7:03.45 | 3:50.50 | 31770 | 49069
4 | 10:54.20 | 3:18.62 | 49070 | 63981
5 | 14:13.07 | 3:15.60 | 63982 | 78666
6 | 17:28.67 | 3:24.28 | 78667 | 93994
7 | 20:53.20 | 3:36.42 | 93995 | 110236
8 | 24:29.62 | 3:23.35 | 110237 | 125496
9 | 27:53.22 | 3:03.35 | 125497 | 139256
10 | 30:56.57 | 3:09.13 | 139257 | 153444


Track 1

Filename E:\My Downloads\uTorrent DLs\- What.cd\Weird Al - Polka Party\01 'Weird Al' Yankovic - Living With A Hernia.wav

Pre-gap length 0:00:02.32

Peak level 98.1 %
Track quality 100.0 %
Test CRC A5069654
Copy CRC A5069654
Cannot be verified as accurate (confidence 5) [31457465], AccurateRip returned [2B44B95D]
Copy OK

Track 2

Filename E:\My Downloads\uTorrent DLs\- What.cd\Weird Al - Polka Party\02 'Weird Al' Yankovic - Dog Eat Dog.wav

Pre-gap length 0:00:01.25

Peak level 100.0 %
Track quality 100.0 %
Test CRC 4ED8ABE8
Copy CRC 4ED8ABE8
Cannot be verified as accurate (confidence 5) [E98D859F], AccurateRip returned [C40BA739]
Copy OK

Track 3

Filename E:\My Downloads\uTorrent DLs\- What.cd\Weird Al - Polka Party\03 'Weird Al' Yankovic - Addicted To Spuds.wav

Pre-gap length 0:00:00.63

Peak level 98.4 %
Track quality 100.0 %
Test CRC 428CE47C
Copy CRC 428CE47C
Cannot be verified as accurate (confidence 5) [E600CE00], AccurateRip returned [236B7283]
Copy OK

Track 4

Filename E:\My Downloads\uTorrent DLs\- What.cd\Weird Al - Polka Party\04 'Weird Al' Yankovic - One Of Those Days.wav

Pre-gap length 0:00:00.55

Peak level 100.0 %
Track quality 100.0 %
Test CRC AB6BE8B3
Copy CRC AB6BE8B3
Cannot be verified as accurate (confidence 5) [9D6E96A0], AccurateRip returned [4829C31F]
Copy OK

Track 5

Filename E:\My Downloads\uTorrent DLs\- What.cd\Weird Al - Polka Party\05 'Weird Al' Yankovic - Polka Party!.wav

Pre-gap length 0:00:01.45

Peak level 95.2 %
Track quality 100.0 %
Test CRC 03083410
Copy CRC 03083410
Cannot be verified as accurate (confidence 5) [532E64AE], AccurateRip returned [E45D6B4A]
Copy OK

Track 6

Filename E:\My Downloads\uTorrent DLs\- What.cd\Weird Al - Polka Party\06 'Weird Al' Yankovic - Here's Johnny.wav

Pre-gap length 0:00:02.32

Peak level 86.8 %
Track quality 100.0 %
Test CRC F94DF4F9
Copy CRC F94DF4F9
Cannot be verified as accurate (confidence 5) [89C11400], AccurateRip returned [8ED8BD5E]
Copy OK

Track 7

Filename E:\My Downloads\uTorrent DLs\- What.cd\Weird Al - Polka Party\07 'Weird Al' Yankovic - Don't Wear Those Shoes.wav

Pre-gap length 0:00:00.58

Peak level 84.2 %
Track quality 100.0 %
Test CRC F80890E1
Copy CRC F80890E1
Cannot be verified as accurate (confidence 5) [31221A51], AccurateRip returned [26A6DA71]
Copy OK

Track 8

Filename E:\My Downloads\uTorrent DLs\- What.cd\Weird Al - Polka Party\08 'Weird Al' Yankovic - Toothless People.wav

Pre-gap length 0:00:01.60

Peak level 99.4 %
Track quality 100.0 %
Test CRC 3CE8BA7A
Copy CRC 3CE8BA7A
Cannot be verified as accurate (confidence 5) [C56C22B0], AccurateRip returned [EA1F21B0]
Copy OK

Track 9

Filename E:\My Downloads\uTorrent DLs\- What.cd\Weird Al - Polka Party\09 'Weird Al' Yankovic - Good Enough For Now.wav

Pre-gap length 0:00:00.65

Peak level 100.0 %
Track quality 100.0 %
Test CRC 6355F174
Copy CRC 6355F174
Cannot be verified as accurate (confidence 5) [F24581CB], AccurateRip returned [F8EB4A45]
Copy OK

Track 10

Filename E:\My Downloads\uTorrent DLs\- What.cd\Weird Al - Polka Party\10 'Weird Al' Yankovic - Christmas At Ground Zero.wav

Pre-gap length 0:00:00.55

Peak level 76.3 %
Track quality 100.0 %
Test CRC 136BCA0B
Copy CRC 136BCA0B
Cannot be verified as accurate (confidence 4) [4A00F9A8], AccurateRip returned [F4CD805B]
Copy OK


No tracks could be verified as accurate
You may have a different pressing from the one(s) in the database

No errors occurred

End of status report

Exact Audio Copy V0.99 prebeta 4 from 23. January 2008

EAC extraction logfile from 31. December 2008, 0:00

Weird Al Yankovic / Running With Scissors

Used drive : TSSTcorpDVD+-RW TS-H653B Adapter: 0 ID: 0

Read mode : Secure
Utilize accurate stream : Yes
Defeat audio cache : Yes
Make use of C2 pointers : No

Read offset correction : 6
Overread into Lead-In and Lead-Out : No
Fill up missing offset samples with silence : Yes
Delete leading and trailing silent blocks : No
Null samples used in CRC calculations : Yes
Used interface : Native Win32 interface for Win NT & 2000
Gap handling : Appended to previous track

Used output format : User Defined Encoder
Selected bitrate : 192 kBit/s
Quality : High
Add ID3 tag : No
Command line compressor : C:\Program Files\Exact Audio Copy\Flac\flac.exe
Additional command line options : -8 -A tukey(0.25) -A gauss(0.1875) -b 4096 -V -T "artist=%a" -T "title=%t" -T "album=%g" -T "date=%y" -T "tracknumber=%n" -T "genre=%m" %s


TOC of the extracted CD

Track | Start | Length | Start sector | End sector
––––––––––––––––––––––––––––-
1 | 0:00.00 | 5:28.30 | 0 | 24629
2 | 5:28.30 | 3:26.22 | 24630 | 40101
3 | 8:54.52 | 3:02.53 | 40102 | 53804
4 | 11:57.30 | 1:14.00 | 53805 | 59354
5 | 13:11.30 | 2:46.50 | 59355 | 71854
6 | 15:58.05 | 4:38.42 | 71855 | 92746
7 | 20:36.47 | 4:21.25 | 92747 | 112346
8 | 24:57.72 | 3:59.10 | 112347 | 130281
9 | 28:57.07 | 3:34.50 | 130282 | 146381
10 | 32:31.57 | 2:27.30 | 146382 | 157436
11 | 34:59.12 | 3:30.23 | 157437 | 173209
12 | 38:29.35 | 11:23.12 | 173210 | 224446
13 | 52:24.47 | 20:15.34 | 235847 | 327005


Track 1

Filename C:\Documents and Settings\Administrator\Desktop\!Music\Weird Al Yankovic - Running With Scissors FLAC\01 - The Saga Begins.wav

Pre-gap length 0:00:02.00

Peak level 98.9 %
Track quality 99.9 %
Test CRC E2EFFF73
Copy CRC E2EFFF73
Accurately ripped (confidence 57) [29F197E5]
Copy OK

Track 2

Filename C:\Documents and Settings\Administrator\Desktop\!Music\Weird Al Yankovic - Running With Scissors FLAC\02 - My Baby's In Love With Eddie Vedder.wav

Pre-gap length 0:00:00.20

Peak level 98.9 %
Track quality 100.0 %
Test CRC E79D3EE7
Copy CRC E79D3EE7
Accurately ripped (confidence 56) [3623B701]
Copy OK

Track 3

Filename C:\Documents and Settings\Administrator\Desktop\!Music\Weird Al Yankovic - Running With Scissors FLAC\03 - Pretty Fly For A Rabbi.wav

Pre-gap length 0:00:00.22

Peak level 98.9 %
Track quality 100.0 %
Test CRC 18BC0BEB
Copy CRC 18BC0BEB
Accurately ripped (confidence 56) [F88BF844]
Copy OK

Track 4

Filename C:\Documents and Settings\Administrator\Desktop\!Music\Weird Al Yankovic - Running With Scissors FLAC\04 - The Weird Al Show Theme.wav

Peak level 98.9 %
Track quality 100.0 %
Test CRC 49DEBBEF
Copy CRC 49DEBBEF
Accurately ripped (confidence 58) [707F15DB]
Copy OK

Track 5

Filename C:\Documents and Settings\Administrator\Desktop\!Music\Weird Al Yankovic - Running With Scissors FLAC\05 - Jerry Springer.wav

Peak level 98.9 %
Track quality 100.0 %
Test CRC FF6460C6
Copy CRC FF6460C6
Accurately ripped (confidence 58) [4D558C17]
Copy OK

Track 6

Filename C:\Documents and Settings\Administrator\Desktop\!Music\Weird Al Yankovic - Running With Scissors FLAC\06 - Germs.wav

Peak level 98.9 %
Track quality 100.0 %
Test CRC 30486016
Copy CRC 30486016
Accurately ripped (confidence 56) [EDA1E1D4]
Copy OK

Track 7

Filename C:\Documents and Settings\Administrator\Desktop\!Music\Weird Al Yankovic - Running With Scissors FLAC\07 - Polka Power!.wav

Peak level 98.9 %
Track quality 99.9 %
Test CRC 01D07109
Copy CRC 01D07109
Accurately ripped (confidence 57) [25AE7CEF]
Copy OK

Track 8

Filename C:\Documents and Settings\Administrator\Desktop\!Music\Weird Al Yankovic - Running With Scissors FLAC\08 - Your Horoscope For Today.wav

Peak level 98.9 %
Track quality 100.0 %
Test CRC C44F83E8
Copy CRC C44F83E8
Accurately ripped (confidence 57) [568D4D59]
Copy OK

Track 9

Filename C:\Documents and Settings\Administrator\Desktop\!Music\Weird Al Yankovic - Running With Scissors FLAC\09 - It's All About The Pentiums.wav

Peak level 98.9 %
Track quality 100.0 %
Test CRC 7D1BEFB0
Copy CRC 7D1BEFB0
Accurately ripped (confidence 55) [1DF28379]
Copy OK

Track 10

Filename C:\Documents and Settings\Administrator\Desktop\!Music\Weird Al Yankovic - Running With Scissors FLAC\10 - Truck Drivin' Song.wav

Peak level 98.9 %
Track quality 99.9 %
Test CRC 661567D0
Copy CRC 661567D0
Accurately ripped (confidence 56) [6DB82723]
Copy OK

Track 11

Filename C:\Documents and Settings\Administrator\Desktop\!Music\Weird Al Yankovic - Running With Scissors FLAC\11 - Grapefruit Diet.wav

Pre-gap length 0:00:00.02

Peak level 98.9 %
Track quality 100.0 %
Test CRC 5B33D718
Copy CRC 5B33D718
Accurately ripped (confidence 56) [BA21C9A9]
Copy OK

Track 12

Filename C:\Documents and Settings\Administrator\Desktop\!Music\Weird Al Yankovic - Running With Scissors FLAC\12 - Albuquerque.wav

Peak level 98.9 %
Track quality 100.0 %
Test CRC 73C9F1E1
Copy CRC 73C9F1E1
Accurately ripped (confidence 52) [BC7767C7]
Copy OK


All tracks accurately ripped

No errors occurred

End of status report

EAC extraction logfile from 26. September 2006, 23:13 for CD
Weird Al Yankovic / Straight Outta Lynnwood

Used drive : LITE-ON COMBO LTC-48161H Adapter: 0 ID: 0
Read mode : Secure with NO C2, accurate stream, disable cache
Read offset correction : 6
Overread into Lead-In and Lead-Out : No

Used output format : C:\Program Files (x86)\FLAC\flac.exe (User Defined Encoder)
128 kBit/s
Additional command line options : -V -8 -T "artist=%a" -T "title=%t" -T "album=%g" -T "date=%y" -T "tracknumber=%n" -T "genre=%m" %s

Other options :
Fill up missing offset samples with silence : Yes
Delete leading and trailing silent blocks : No
Native Win32 interface for Win NT & 2000


Track 1
Filename C:\Weird Al Yankovic - Straight Outta Lynnwood [2006] [FLAC]\01 - White & Nerdy.wav

Pre-gap length 0:00:02.00

Peak level 98.8 %
Track quality 100.0 %
Test CRC F532DACF
Copy CRC F532DACF
Copy OK

Track 2
Filename C:\Weird Al Yankovic - Straight Outta Lynnwood [2006] [FLAC]\02 - Pancreas.wav

Peak level 98.8 %
Track quality 99.9 %
Test CRC ACC0BBF5
Copy CRC ACC0BBF5
Copy OK

Track 3
Filename C:\Weird Al Yankovic - Straight Outta Lynnwood [2006] [FLAC]\03 - Canadian Idiot.wav

Peak level 98.8 %
Track quality 100.0 %
Test CRC 5CAA66E0
Copy CRC 5CAA66E0
Copy OK

Track 4
Filename C:\Weird Al Yankovic - Straight Outta Lynnwood [2006] [FLAC]\04 - I'll Sue Ya.wav

Peak level 98.8 %
Track quality 100.0 %
Test CRC 32C16B5D
Copy CRC 32C16B5D
Copy OK

Track 5
Filename C:\Weird Al Yankovic - Straight Outta Lynnwood [2006] [FLAC]\05 - Polkarama!.wav

Peak level 98.8 %
Track quality 100.0 %
Test CRC C2EAB28E
Copy CRC C2EAB28E
Copy OK

Track 6
Filename C:\Weird Al Yankovic - Straight Outta Lynnwood [2006] [FLAC]\06 - Virus Alert.wav

Peak level 98.8 %
Track quality 100.0 %
Test CRC 20481B42
Copy CRC 20481B42
Copy OK

Track 7
Filename C:\Weird Al Yankovic - Straight Outta Lynnwood [2006] [FLAC]\07 - Confessions Part III.wav

Peak level 98.8 %
Track quality 100.0 %
Test CRC 75ACA632
Copy CRC 75ACA632
Copy OK

Track 8
Filename C:\Weird Al Yankovic - Straight Outta Lynnwood [2006] [FLAC]\08 - Weasel Stomping Day.wav

Peak level 98.8 %
Track quality 100.0 %
Test CRC 410F87EF
Copy CRC 410F87EF
Copy OK

Track 9
Filename C:\Weird Al Yankovic - Straight Outta Lynnwood [2006] [FLAC]\09 - Close But No Cigar.wav

Peak level 98.8 %
Track quality 100.0 %
Test CRC C0C17211
Copy CRC C0C17211
Copy OK

Track 10
Filename C:\Weird Al Yankovic - Straight Outta Lynnwood [2006] [FLAC]\10 - Do I Creep You Out.wav

Peak level 98.8 %
Track quality 100.0 %
Test CRC 4F4F5C75
Copy CRC 4F4F5C75
Copy OK

Track 11
Filename C:\Weird Al Yankovic - Straight Outta Lynnwood [2006] [FLAC]\11 - Trapped in the Drive Thru.wav

Peak level 100.0 %
Track quality 100.0 %
Test CRC 85B8F1DD
Copy CRC 85B8F1DD
Copy OK

Track 12
Filename C:\Weird Al Yankovic - Straight Outta Lynnwood [2006] [FLAC]\12 - Don't Download This Song.wav

Pre-gap length 0:00:00.01

Peak level 98.8 %
Track quality 99.9 %
Test CRC 5EAFFB34
Copy CRC 5EAFFB34
Copy OK

No errors occured


End of status report

Exact Audio Copy V0.99 prebeta 5 from 4. May 2009

EAC extraction logfile from 27. November 2009, 14:22

"Weird Al" Yankovic / The Essential "Weird Al" Yankovic [CD1]

Used drive : PLEXTOR CD-R PREMIUM Adapter: 1 ID: 1

Read mode : Secure
Utilize accurate stream : Yes
Defeat audio cache : Yes
Make use of C2 pointers : No

Read offset correction : 30
Overread into Lead-In and Lead-Out : Yes
Fill up missing offset samples with silence : Yes
Delete leading and trailing silent blocks : No
Null samples used in CRC calculations : Yes
Used interface : Native Win32 interface for Win NT & 2000
Gap handling : Appended to previous track

Used output format : Internal WAV Routines
Sample format : 44.100 Hz; 16 Bit; Stereo


TOC of the extracted CD

Track | Start | Length | Start sector | End sector
––––––––––––––––––––––––––––-
1 | 0:00.00 | 2:36.58 | 0 | 11757
2 | 2:36.58 | 4:20.30 | 11758 | 31287
3 | 6:57.13 | 3:21.64 | 31288 | 46426
4 | 10:19.02 | 3:28.37 | 46427 | 62063
5 | 13:47.39 | 3:57.71 | 62064 | 79909
6 | 17:45.35 | 4:04.23 | 79910 | 98232
7 | 21:49.58 | 3:31.40 | 98233 | 114097
8 | 25:21.23 | 3:26.00 | 114098 | 129547
9 | 28:47.23 | 3:44.23 | 129548 | 146370
10 | 32:31.46 | 2:47.22 | 146371 | 158917
11 | 35:18.68 | 3:59.58 | 158918 | 176900
12 | 39:18.51 | 3:37.39 | 176901 | 193214
13 | 42:56.15 | 3:51.25 | 193215 | 210564
14 | 46:47.40 | 6:48.50 | 210565 | 241214
15 | 53:36.15 | 3:47.15 | 241215 | 258254
16 | 57:23.30 | 3:45.58 | 258255 | 275187
17 | 61:09.13 | 4:02.53 | 275188 | 293390
18 | 65:11.66 | 3:42.57 | 293391 | 310097
19 | 68:54.48 | 4:06.61 | 310098 | 328608
20 | 73:01.34 | 3:55.28 | 328609 | 346261


Track 1

Filename D:\Waffles.fm Serve\The Essential Weird Al\Disc 1\01 - Another One Rides the Bus.wav

Pre-gap length 0:00:02.00

Peak level 100.0 %
Track quality 100.0 %
Test CRC BDE0BE7D
Copy CRC BDE0BE7D
Accurately ripped (confidence 2) [53935D17]
Copy OK

Track 2

Filename D:\Waffles.fm Serve\The Essential Weird Al\Disc 1\02 - Polkas on 45.wav

Pre-gap length 0:00:01.51

Peak level 100.0 %
Track quality 100.0 %
Test CRC FB045FF2
Copy CRC FB045FF2
Accurately ripped (confidence 2) [E3A54D12]
Copy OK

Track 3

Filename D:\Waffles.fm Serve\The Essential Weird Al\Disc 1\03 - Eat It.wav

Pre-gap length 0:00:00.60

Peak level 100.0 %
Track quality 100.0 %
Test CRC 5047AC0E
Copy CRC 5047AC0E
Accurately ripped (confidence 2) [8BB471CD]
Copy OK

Track 4

Filename D:\Waffles.fm Serve\The Essential Weird Al\Disc 1\04 - I Lost on Jeopardy.wav

Pre-gap length 0:00:01.17

Peak level 100.0 %
Track quality 100.0 %
Test CRC 9AA9DB20
Copy CRC 9AA9DB20
Accurately ripped (confidence 2) [2D8074F9]
Copy OK

Track 5

Filename D:\Waffles.fm Serve\The Essential Weird Al\Disc 1\05 - Yoda.wav

Pre-gap length 0:00:00.46

Peak level 100.0 %
Track quality 100.0 %
Test CRC 2B945FEB
Copy CRC 2B945FEB
Accurately ripped (confidence 2) [437BC195]
Copy OK

Track 6

Filename D:\Waffles.fm Serve\The Essential Weird Al\Disc 1\06 - One More Minute.wav

Pre-gap length 0:00:01.41

Peak level 100.0 %
Track quality 100.0 %
Test CRC 162578AA
Copy CRC 162578AA
Accurately ripped (confidence 2) [60A666FC]
Copy OK

Track 7

Filename D:\Waffles.fm Serve\The Essential Weird Al\Disc 1\07 - Like a Surgeon.wav

Pre-gap length 0:00:00.53

Peak level 100.0 %
Track quality 99.9 %
Test CRC 55B4350E
Copy CRC 55B4350E
Accurately ripped (confidence 2) [E67ECA9D]
Copy OK

Track 8

Filename D:\Waffles.fm Serve\The Essential Weird Al\Disc 1\08 - Dare to Be Stupid.wav

Pre-gap length 0:00:00.68

Peak level 100.0 %
Track quality 100.0 %
Test CRC C810D025
Copy CRC C810D025
Accurately ripped (confidence 2) [C1B24654]
Copy OK

Track 9

Filename D:\Waffles.fm Serve\The Essential Weird Al\Disc 1\09 - Dog Eat Dog.wav

Pre-gap length 0:00:01.06

Peak level 100.0 %
Track quality 100.0 %
Test CRC FB3FC0EB
Copy CRC FB3FC0EB
Accurately ripped (confidence 2) [FF93015A]
Copy OK

Track 10

Filename D:\Waffles.fm Serve\The Essential Weird Al\Disc 1\10 - Lasagna.wav

Pre-gap length 0:00:01.35

Peak level 100.0 %
Track quality 100.0 %
Test CRC 377CA8E6
Copy CRC 377CA8E6
Accurately ripped (confidence 2) [9A0B66D1]
Copy OK

Track 11

Filename D:\Waffles.fm Serve\The Essential Weird Al\Disc 1\11 - Melanie.wav

Pre-gap length 0:00:00.33

Peak level 100.0 %
Track quality 100.0 %
Test CRC 83DE46F0
Copy CRC 83DE46F0
Accurately ripped (confidence 2) [DFC2AD84]
Copy OK

Track 12

Filename D:\Waffles.fm Serve\The Essential Weird Al\Disc 1\12 - Fat.wav

Pre-gap length 0:00:01.53

Peak level 100.0 %
Track quality 100.0 %
Test CRC F64493FF
Copy CRC F64493FF
Accurately ripped (confidence 2) [F1B98284]
Copy OK

Track 13

Filename D:\Waffles.fm Serve\The Essential Weird Al\Disc 1\13 - UHF (single version).wav

Pre-gap length 0:00:01.23

Peak level 93.1 %
Track quality 100.0 %
Test CRC 0E98CD1F
Copy CRC 0E98CD1F
Accurately ripped (confidence 2) [C2C3A2E4]
Copy OK

Track 14

Filename D:\Waffles.fm Serve\The Essential Weird Al\Disc 1\14 - The Biggest Ball of Twine in Minnesota.wav

Pre-gap length 0:00:02.01

Peak level 100.0 %
Track quality 100.0 %
Test CRC F2A8DD51
Copy CRC F2A8DD51
Accurately ripped (confidence 2) [FF6A42A6]
Copy OK

Track 15

Filename D:\Waffles.fm Serve\The Essential Weird Al\Disc 1\15 - Trigger Happy.wav

Pre-gap length 0:00:01.14

Peak level 100.0 %
Track quality 100.0 %
Test CRC 93004054
Copy CRC 93004054
Accurately ripped (confidence 2) [27D57588]
Copy OK

Track 16

Filename D:\Waffles.fm Serve\The Essential Weird Al\Disc 1\16 - Smells Like Nirvana.wav

Pre-gap length 0:00:00.73

Peak level 100.0 %
Track quality 99.9 %
Test CRC 03E65F42
Copy CRC 03E65F42
Accurately ripped (confidence 2) [A387A11A]
Copy OK

Track 17

Filename D:\Waffles.fm Serve\The Essential Weird Al\Disc 1\17 - You Don't Love Me Anymore.wav

Pre-gap length 0:00:01.18

Peak level 92.9 %
Track quality 100.0 %
Test CRC A9E56A66
Copy CRC A9E56A66
Accurately ripped (confidence 2) [0DCB0DA5]
Copy OK

Track 18

Filename D:\Waffles.fm Serve\The Essential Weird Al\Disc 1\18 - Bedrock Anthem.wav

Pre-gap length 0:00:00.72

Peak level 96.9 %
Track quality 100.0 %
Test CRC 814B9A82
Copy CRC 814B9A82
Accurately ripped (confidence 2) [82A33A4B]
Copy OK

Track 19

Filename D:\Waffles.fm Serve\The Essential Weird Al\Disc 1\19 - Frank's 2000 TV.wav

Pre-gap length 0:00:01.08

Peak level 100.0 %
Track quality 100.0 %
Test CRC 4A507C56
Copy CRC 4A507C56
Accurately ripped (confidence 2) [DA18154D]
Copy OK

Track 20

Filename D:\Waffles.fm Serve\The Essential Weird Al\Disc 1\20 - Jurassic Park.wav

Pre-gap length 0:00:01.69

Peak level 100.0 %
Track quality 100.0 %
Test CRC F64E26B3
Copy CRC F64E26B3
Accurately ripped (confidence 2) [E75C897C]
Copy OK


All tracks accurately ripped

No errors occurred

End of status report

Exact Audio Copy V0.99 prebeta 5 from 4. May 2009

EAC extraction logfile from 27. November 2009, 15:05

"Weird Al" Yankovic / The Essential "Weird Al" Yankovic [CD2]

Used drive : PLEXTOR CD-R PREMIUM Adapter: 1 ID: 1

Read mode : Secure
Utilize accurate stream : Yes
Defeat audio cache : Yes
Make use of C2 pointers : No

Read offset correction : 30
Overread into Lead-In and Lead-Out : Yes
Fill up missing offset samples with silence : Yes
Delete leading and trailing silent blocks : No
Null samples used in CRC calculations : Yes
Used interface : Native Win32 interface for Win NT & 2000
Gap handling : Appended to previous track

Used output format : Internal WAV Routines
Sample format : 44.100 Hz; 16 Bit; Stereo


TOC of the extracted CD

Track | Start | Length | Start sector | End sector
––––––––––––––––––––––––––––-
1 | 0:00.00 | 1:23.69 | 0 | 6293
2 | 1:23.69 | 3:21.07 | 6294 | 21375
3 | 4:45.01 | 2:12.05 | 21376 | 31280
4 | 6:57.06 | 3:49.51 | 31281 | 48506
5 | 10:46.57 | 4:02.71 | 48507 | 66727
6 | 14:49.53 | 4:00.56 | 66728 | 84783
7 | 18:50.34 | 3:36.72 | 84784 | 101055
8 | 22:27.31 | 5:30.44 | 101056 | 125849
9 | 27:58.00 | 11:24.36 | 125850 | 177185
10 | 39:22.36 | 3:37.12 | 177186 | 193472
11 | 42:59.48 | 2:30.45 | 193473 | 204767
12 | 45:30.18 | 3:46.39 | 204768 | 221756
13 | 49:16.57 | 3:53.17 | 221757 | 239248
14 | 53:09.74 | 2:24.70 | 239249 | 250118
15 | 55:34.69 | 3:51.38 | 250119 | 267481
16 | 59:26.32 | 3:55.73 | 267482 | 285179
17 | 63:22.30 | 2:52.36 | 285180 | 298115
18 | 66:14.66 | 10:50.74 | 298116 | 346939


Track 1

Filename D:\Waffles.fm Serve\The Essential Weird Al\Disc 2\01 - Since You've Been Gone.wav

Pre-gap length 0:00:02.00

Peak level 100.0 %
Track quality 100.0 %
Test CRC A05DC04F
Copy CRC A05DC04F
Accurately ripped (confidence 2) [A02B4BB9]
Copy OK

Track 2

Filename D:\Waffles.fm Serve\The Essential Weird Al\Disc 2\02 - Amish Paradise.wav

Pre-gap length 0:00:00.67

Peak level 100.0 %
Track quality 100.0 %
Test CRC B6EF3A3C
Copy CRC B6EF3A3C
Accurately ripped (confidence 2) [1220B529]
Copy OK

Track 3

Filename D:\Waffles.fm Serve\The Essential Weird Al\Disc 2\03 - Gump.wav

Pre-gap length 0:00:01.42

Peak level 100.0 %
Track quality 100.0 %
Test CRC E36FEBD1
Copy CRC E36FEBD1
Accurately ripped (confidence 2) [2CB2CFA9]
Copy OK

Track 4

Filename D:\Waffles.fm Serve\The Essential Weird Al\Disc 2\04 - Everything You Know Is Wrong.wav

Pre-gap length 0:00:01.58

Peak level 100.0 %
Track quality 100.0 %
Test CRC 29CB07F6
Copy CRC 29CB07F6
Accurately ripped (confidence 2) [CF770DD9]
Copy OK

Track 5

Filename D:\Waffles.fm Serve\The Essential Weird Al\Disc 2\05 - The Night Santa Went Crazy (Extra Gory version).wav

Pre-gap length 0:00:01.72

Peak level 97.5 %
Track quality 100.0 %
Test CRC 0307ABA7
Copy CRC 0307ABA7
Accurately ripped (confidence 2) [E9A57D83]
Copy OK

Track 6

Filename D:\Waffles.fm Serve\The Essential Weird Al\Disc 2\06 - Your Horoscope for Today.wav

Pre-gap length 0:00:01.17

Peak level 100.0 %
Track quality 99.9 %
Test CRC 72532DE3
Copy CRC 72532DE3
Accurately ripped (confidence 2) [7EA7E8DF]
Copy OK

Track 7

Filename D:\Waffles.fm Serve\The Essential Weird Al\Disc 2\07 - It's All About the Pentiums.wav

Pre-gap length 0:00:01.73

Peak level 97.5 %
Track quality 100.0 %
Test CRC 618A89AF
Copy CRC 618A89AF
Accurately ripped (confidence 2) [279E1F97]
Copy OK

Track 8

Filename D:\Waffles.fm Serve\The Essential Weird Al\Disc 2\08 - The Saga Begins.wav

Pre-gap length 0:00:02.04

Peak level 100.0 %
Track quality 100.0 %
Test CRC 4E4EC2E1
Copy CRC 4E4EC2E1
Accurately ripped (confidence 2) [A1D5C5B8]
Copy OK

Track 9

Filename D:\Waffles.fm Serve\The Essential Weird Al\Disc 2\09 - Albuquerque.wav

Pre-gap length 0:00:01.10

Peak level 100.0 %
Track quality 100.0 %
Test CRC C7F63673
Copy CRC C7F63673
Accurately ripped (confidence 2) [3C29E29A]
Copy OK

Track 10

Filename D:\Waffles.fm Serve\The Essential Weird Al\Disc 2\10 - eBay.wav

Pre-gap length 0:00:01.27

Peak level 100.0 %
Track quality 99.9 %
Test CRC 82BEB3AF
Copy CRC 82BEB3AF
Accurately ripped (confidence 2) [A73527D3]
Copy OK

Track 11

Filename D:\Waffles.fm Serve\The Essential Weird Al\Disc 2\11 - Bob.wav

Pre-gap length 0:00:01.44

Peak level 100.0 %
Track quality 100.0 %
Test CRC 29388B1A
Copy CRC 29388B1A
Accurately ripped (confidence 2) [96B85610]
Copy OK

Track 12

Filename D:\Waffles.fm Serve\The Essential Weird Al\Disc 2\12 - Hardware Store.wav

Pre-gap length 0:00:01.28

Peak level 100.0 %
Track quality 100.0 %
Test CRC 429E26D8
Copy CRC 429E26D8
Accurately ripped (confidence 2) [6FED7F50]
Copy OK

Track 13

Filename D:\Waffles.fm Serve\The Essential Weird Al\Disc 2\13 - I'll Sue Ya.wav

Pre-gap length 0:00:02.20

Peak level 80.0 %
Track quality 100.0 %
Test CRC 5205AA86
Copy CRC 5205AA86
Accurately ripped (confidence 2) [BCD5F25B]
Copy OK

Track 14

Filename D:\Waffles.fm Serve\The Essential Weird Al\Disc 2\14 - Canadian Idiot.wav

Pre-gap length 0:00:02.04

Peak level 80.0 %
Track quality 100.0 %
Test CRC E2B543EA
Copy CRC E2B543EA
Accurately ripped (confidence 2) [6BB18708]
Copy OK

Track 15

Filename D:\Waffles.fm Serve\The Essential Weird Al\Disc 2\15 - Pancreas.wav

Pre-gap length 0:00:01.69

Peak level 80.0 %
Track quality 100.0 %
Test CRC 8BB8ABE7
Copy CRC 8BB8ABE7
Accurately ripped (confidence 2) [8D2CF3DD]
Copy OK

Track 16

Filename D:\Waffles.fm Serve\The Essential Weird Al\Disc 2\16 - Don't Download This Song.wav

Pre-gap length 0:00:03.21

Peak level 80.0 %
Track quality 100.0 %
Test CRC F79E4A40
Copy CRC F79E4A40
Accurately ripped (confidence 2) [7FD782EB]
Copy OK

Track 17

Filename D:\Waffles.fm Serve\The Essential Weird Al\Disc 2\17 - White & Nerdy.wav

Pre-gap length 0:00:01.24

Peak level 80.0 %
Track quality 100.0 %
Test CRC 0613A66E
Copy CRC 0613A66E
Accurately ripped (confidence 2) [E887EC76]
Copy OK

Track 18

Filename D:\Waffles.fm Serve\The Essential Weird Al\Disc 2\18 - Trapped in the Drive-Thru.wav

Pre-gap length 0:00:02.14

Peak level 80.9 %
Track quality 100.0 %
Test CRC 54E5F882
Copy CRC 54E5F882
Accurately ripped (confidence 2) [A9EE9113]
Copy OK


All tracks accurately ripped

No errors occurred

End of status report

Exact Audio Copy V0.99 prebeta 4 from 23. January 2008

EAC extraction logfile from 3. May 2009, 14:14

"Weird Al" Yankovic / The Food Album

Used drive : DVD+RW RW5240 Adapter: 5 ID: 0

Read mode : Secure
Utilize accurate stream : Yes
Defeat audio cache : Yes
Make use of C2 pointers : No

Read offset correction : 91
Overread into Lead-In and Lead-Out : No
Fill up missing offset samples with silence : Yes
Delete leading and trailing silent blocks : No
Null samples used in CRC calculations : Yes
Used interface : Native Win32 interface for Win NT & 2000
Gap handling : Appended to previous track

Used output format : User Defined Encoder
Selected bitrate : 128 kBit/s
Quality : High
Add ID3 tag : No
Command line compressor : C:\Program Files\Exact Audio Copy\Flac\flac.exe
Additional command line options : -V -8 -T "artist=%a" -T "title=%t" -T "album=%g" -T "date=%y" -T "tracknumber=%n" -T "genre=%m" %s


TOC of the extracted CD

Track | Start | Length | Start sector | End sector
––––––––––––––––––––––––––––-
1 | 0:00.32 | 3:38.13 | 32 | 16394
2 | 3:38.45 | 2:47.50 | 16395 | 28969
3 | 6:26.20 | 3:51.35 | 28970 | 46329
4 | 10:17.55 | 2:36.02 | 46330 | 58031
5 | 12:53.57 | 3:01.53 | 58032 | 71659
6 | 15:55.35 | 3:21.02 | 71660 | 86736
7 | 19:16.37 | 2:44.35 | 86737 | 99071
8 | 22:00.72 | 2:01.25 | 99072 | 108171
9 | 24:02.22 | 3:46.20 | 108172 | 125141
10 | 27:48.42 | 3:35.20 | 125142 | 141286


Track 1

Filename I:\'Weird Al' Yankovic - The Food Album (1993) [FLAC]\01 - Fat.wav

Pre-gap length 0:00:02.42

Peak level 100.0 %
Track quality 99.9 %
Test CRC 146319E8
Copy CRC 146319E8
Accurately ripped (confidence 4) [31192B47]
Copy OK

Track 2

Filename I:\'Weird Al' Yankovic - The Food Album (1993) [FLAC]\02 - Lasagna.wav

Pre-gap length 0:00:01.84

Peak level 96.3 %
Track quality 100.0 %
Test CRC 917D5D60
Copy CRC 917D5D60
Accurately ripped (confidence 4) [3177C487]
Copy OK

Track 3

Filename I:\'Weird Al' Yankovic - The Food Album (1993) [FLAC]\03 - Addicted To Spuds.wav

Pre-gap length 0:00:02.24

Peak level 98.5 %
Track quality 100.0 %
Test CRC 002C96DB
Copy CRC 002C96DB
Accurately ripped (confidence 4) [C3BE1365]
Copy OK

Track 4

Filename I:\'Weird Al' Yankovic - The Food Album (1993) [FLAC]\04 - I Love Rocky Road.wav

Pre-gap length 0:00:02.06

Peak level 92.8 %
Track quality 100.0 %
Test CRC 109A1FDE
Copy CRC 109A1FDE
Accurately ripped (confidence 4) [E140D354]
Copy OK

Track 5

Filename I:\'Weird Al' Yankovic - The Food Album (1993) [FLAC]\05 - Spam.wav

Pre-gap length 0:00:01.86

Peak level 90.4 %
Track quality 100.0 %
Test CRC C1126B3D
Copy CRC C1126B3D
Accurately ripped (confidence 4) [FEB38743]
Copy OK

Track 6

Filename I:\'Weird Al' Yankovic - The Food Album (1993) [FLAC]\06 - Eat It.wav

Pre-gap length 0:00:02.10

Peak level 100.0 %
Track quality 100.0 %
Test CRC 0DF6843C
Copy CRC 0DF6843C
Accurately ripped (confidence 4) [B94B7779]
Copy OK

Track 7

Filename I:\'Weird Al' Yankovic - The Food Album (1993) [FLAC]\07 - The White Stuff.wav

Pre-gap length 0:00:02.76

Peak level 71.5 %
Track quality 100.0 %
Test CRC 1EE08A48
Copy CRC 1EE08A48
Accurately ripped (confidence 4) [7E951BC0]
Copy OK

Track 8

Filename I:\'Weird Al' Yankovic - The Food Album (1993) [FLAC]\08 - My Bologna.wav

Pre-gap length 0:00:02.26

Peak level 96.9 %
Track quality 100.0 %
Test CRC 2D8C8BDD
Copy CRC 2D8C8BDD
Accurately ripped (confidence 4) [B32F24D1]
Copy OK

Track 9

Filename I:\'Weird Al' Yankovic - The Food Album (1993) [FLAC]\09 - Taco Grande.wav

Pre-gap length 0:00:01.80

Peak level 73.9 %
Track quality 100.0 %
Test CRC 89EF7E9A
Copy CRC 89EF7E9A
Accurately ripped (confidence 4) [041BAE7E]
Copy OK

Track 10

Filename I:\'Weird Al' Yankovic - The Food Album (1993) [FLAC]\10 - The Rye Or The Kaiser (Theme From Rocky XIII).wav

Pre-gap length 0:00:01.60

Peak level 96.5 %
Track quality 100.0 %
Test CRC 10BC2F4B
Copy CRC 10BC2F4B
Accurately ripped (confidence 4) [93558075]
Copy OK


All tracks accurately ripped

No errors occurred

End of status report

Exact Audio Copy V0.99 prebeta 3 from 28. July 2007

EAC extraction logfile from 3. December 2007, 1:34

"Weird Al" Yankovic / UHF

Used drive : SONY DVD RW DW-D26A Adapter: 1 ID: 0

Read mode : Secure
Utilize accurate stream : Yes
Defeat audio cache : Yes
Make use of C2 pointers : No

Read offset correction : 12
Overread into Lead-In and Lead-Out : No
Fill up missing offset samples with silence : Yes
Delete leading and trailing silent blocks : No
Null samples used in CRC calculations : Yes
Used interface : Native Win32 interface for Win NT & 2000
Gap handling : Appended to previous track

Used output format : User Defined Encoder
Selected bitrate : 128 kBit/s
Quality : High
Add ID3 tag : No
Command line compressor : C:\Program Files\FLAC\flac.exe
Additional command line options : -V -8 -T "artist=%a" -T "title=%t" -T "album=%g" -T "date=%y" -T "tracknumber=%n" -T "genre=%m" %s


TOC of the extracted CD

Track | Start | Length | Start sector | End sector
––––––––––––––––––––––––––––-
1 | 0:00.32 | 3:11.10 | 32 | 14366
2 | 3:11.42 | 1:00.18 | 14367 | 18884
3 | 4:11.60 | 3:28.65 | 18885 | 34549
4 | 7:40.50 | 3:37.10 | 34550 | 50834
5 | 11:17.60 | 4:51.00 | 50835 | 72659
6 | 16:08.60 | 5:09.12 | 72660 | 95846
7 | 21:17.72 | 0:16.70 | 95847 | 97116
8 | 21:34.67 | 3:42.15 | 97117 | 113781
9 | 25:17.07 | 4:34.33 | 113782 | 134364
10 | 29:51.40 | 1:07.62 | 134365 | 139451
11 | 30:59.27 | 1:45.43 | 139452 | 147369
12 | 32:44.70 | 2:59.35 | 147370 | 160829
13 | 35:44.30 | 6:48.17 | 160830 | 191446


Track 1

Filename C:\Waffles\'Weird Al' Yankovic - UHF\01 - Money for Nothing,Beverly Hillbillies.wav

Pre-gap length 0:00:02.42

Peak level 100.0 %
Track quality 100.0 %
Test CRC EC03D872
Copy CRC EC03D872
Accurately ripped (confidence 4) [6FD536E9]
Copy OK

Track 2

Filename C:\Waffles\'Weird Al' Yankovic - UHF\02 - Ghandi II.wav

Pre-gap length 0:00:00.20

Peak level 67.6 %
Track quality 100.0 %
Test CRC 9EFC39EE
Copy CRC 9EFC39EE
Accurately ripped (confidence 4) [752E90FA]
Copy OK

Track 3

Filename C:\Waffles\'Weird Al' Yankovic - UHF\03 - Attack of the Radioactive Hamsters from a Planet Near Mars.wav

Pre-gap length 0:00:00.01

Peak level 93.9 %
Track quality 99.9 %
Test CRC 4FF9BF1D
Copy CRC 4FF9BF1D
Accurately ripped (confidence 4) [B9DB6D71]
Copy OK

Track 4

Filename C:\Waffles\'Weird Al' Yankovic - UHF\04 - Isle Thing.wav

Pre-gap length 0:00:00.01

Peak level 80.1 %
Track quality 99.9 %
Test CRC 7563DC47
Copy CRC 7563DC47
Accurately ripped (confidence 4) [63E7E202]
Copy OK

Track 5

Filename C:\Waffles\'Weird Al' Yankovic - UHF\05 - The Hot Rocks Polka.wav

Pre-gap length 0:00:00.01

Peak level 100.0 %
Track quality 100.0 %
Test CRC D0B0F057
Copy CRC D0B0F057
Accurately ripped (confidence 4) [36326392]
Copy OK

Track 6

Filename C:\Waffles\'Weird Al' Yankovic - UHF\06 - UHF.wav

Pre-gap length 0:00:00.41

Peak level 98.4 %
Track quality 99.9 %
Test CRC E9430719
Copy CRC E9430719
Accurately ripped (confidence 3) [650C9FAF]
Copy OK

Track 7

Filename C:\Waffles\'Weird Al' Yankovic - UHF\07 - Let Me Be Your Hog.wav

Pre-gap length 0:00:00.57

Peak level 88.8 %
Track quality 99.3 %
Test CRC 70BBFC8B
Copy CRC 70BBFC8B
Accurately ripped (confidence 4) [99C4366A]
Copy OK

Track 8

Filename C:\Waffles\'Weird Al' Yankovic - UHF\08 - She Drivers Like Crazy.wav

Peak level 92.6 %
Track quality 100.0 %
Test CRC A7FA6FDF
Copy CRC A7FA6FDF
Accurately ripped (confidence 4) [CEC08842]
Copy OK

Track 9

Filename C:\Waffles\'Weird Al' Yankovic - UHF\09 - Generic Blues.wav

Peak level 98.2 %
Track quality 100.0 %
Test CRC 0E1C692C
Copy CRC 0E1C692C
Accurately ripped (confidence 4) [5275670F]
Copy OK

Track 10

Filename C:\Waffles\'Weird Al' Yankovic - UHF\10 - Spatula City.wav

Pre-gap length 0:00:00.01

Peak level 62.9 %
Track quality 100.0 %
Test CRC F17899BD
Copy CRC F17899BD
Accurately ripped (confidence 4) [BF4E2A03]
Copy OK

Track 11

Filename C:\Waffles\'Weird Al' Yankovic - UHF\11 - Fun Zone.wav

Peak level 87.4 %
Track quality 99.8 %
Test CRC B77FF3D0
Copy CRC B77FF3D0
Accurately ripped (confidence 4) [92851C02]
Copy OK

Track 12

Filename C:\Waffles\'Weird Al' Yankovic - UHF\12 - Spam.wav

Pre-gap length 0:00:00.01

Peak level 88.0 %
Track quality 100.0 %
Test CRC BF2079EA
Copy CRC BF2079EA
Accurately ripped (confidence 4) [BE6CB1E9]
Copy OK

Track 13

Filename C:\Waffles\'Weird Al' Yankovic - UHF\13 - The Biggest Ball of Twine in Minnesota.wav

Pre-gap length 0:00:00.01

Peak level 85.8 %
Track quality 100.0 %
Test CRC 5FAEA248
Copy CRC 5FAEA248
Accurately ripped (confidence 4) [FDEEA373]
Copy OK


All tracks accurately ripped

No errors occurred

End of status report

EAC extraction logfile from 31. October 2005, 23:59 for CD
"Weird Al" Yankovic / "Weird Al" Yankovic

Used drive : PIONEER DVD-RW DVR-109 Adapter: 1 ID: 0
Read mode : Secure with NO C2, accurate stream, disable cache
Read offset correction : 48
Overread into Lead-In and Lead-Out : Yes

Used output format : Internal WAV Routines
44.100 Hz; 16 Bit; Stereo

Other options :
Fill up missing offset samples with silence : Yes
Delete leading and trailing silent blocks : No
Native Win32 interface for Win NT & 2000


Track 1
Filename D:\downloads\'Weird Al' Yankovic - 'Weird Al' Yankovic (1983) [FLAC]\01 - Ricky.wav

Pre-gap length 0:00:02.00

Peak level 98.0 %
Track quality 100.0 %
Test CRC C90295AA
Copy CRC C90295AA
Copy OK

Track 2
Filename D:\downloads\'Weird Al' Yankovic - 'Weird Al' Yankovic (1983) [FLAC]\02 - Gotta Boogie.wav

Peak level 92.8 %
Track quality 99.9 %
Test CRC 804D40D6
Copy CRC 804D40D6
Copy OK

Track 3
Filename D:\downloads\'Weird Al' Yankovic - 'Weird Al' Yankovic (1983) [FLAC]\03 - I Love Rocky Road.wav

Peak level 94.9 %
Track quality 99.9 %
Test CRC 712D048E
Copy CRC 712D048E
Copy OK

Track 4
Filename D:\downloads\'Weird Al' Yankovic - 'Weird Al' Yankovic (1983) [FLAC]\04 - Buckingham Blues.wav

Peak level 84.2 %
Track quality 100.0 %
Test CRC A8267341
Copy CRC A8267341
Copy OK

Track 5
Filename D:\downloads\'Weird Al' Yankovic - 'Weird Al' Yankovic (1983) [FLAC]\05 - Happy Birthday.wav

Peak level 80.1 %
Track quality 100.0 %
Test CRC D8C9B475
Copy CRC D8C9B475
Copy OK

Track 6
Filename D:\downloads\'Weird Al' Yankovic - 'Weird Al' Yankovic (1983) [FLAC]\06 - Stop Draggin' My Car Around.wav

Peak level 81.5 %
Track quality 100.0 %
Test CRC B8553C43
Copy CRC B8553C43
Copy OK

Track 7
Filename D:\downloads\'Weird Al' Yankovic - 'Weird Al' Yankovic (1983) [FLAC]\07 - My Bologna.wav

Peak level 100.0 %
Track quality 100.0 %
Test CRC 60DFBFF4
Copy CRC 60DFBFF4
Copy OK

Track 8
Filename D:\downloads\'Weird Al' Yankovic - 'Weird Al' Yankovic (1983) [FLAC]\08 - The Check's In The Mail.wav

Peak level 90.3 %
Track quality 100.0 %
Test CRC 10AE97BF
Copy CRC 10AE97BF
Copy OK

Track 9
Filename D:\downloads\'Weird Al' Yankovic - 'Weird Al' Yankovic (1983) [FLAC]\09 - Another One Rides The Bus.wav

Peak level 69.6 %
Track quality 100.0 %
Test CRC 014AF164
Copy CRC 014AF164
Copy OK

Track 10
Filename D:\downloads\'Weird Al' Yankovic - 'Weird Al' Yankovic (1983) [FLAC]\10 - I'll Be Mellow When I'm Dead.wav

Peak level 80.7 %
Track quality 100.0 %
Test CRC D2152A39
Copy CRC D2152A39
Copy OK

Track 11
Filename D:\downloads\'Weird Al' Yankovic - 'Weird Al' Yankovic (1983) [FLAC]\11 - Such A Groovy Guy.wav

Peak level 80.3 %
Track quality 100.0 %
Test CRC 11A1CB01
Copy CRC 11A1CB01
Copy OK

Track 12
Filename D:\downloads\'Weird Al' Yankovic - 'Weird Al' Yankovic (1983) [FLAC]\12 - Mr. Frump In The Iron Lung.wav

Peak level 64.5 %
Track quality 99.9 %
Test CRC A81FCA04
Copy CRC A81FCA04
Copy OK

No errors occured


End of status report


Many thanks to the original uploaders!
-NF-

Password = avaxhome