Subcategories

Whitesnake - 1987 (2017) {2CD 30th Anniversary Edition Parlophone 0190295785192}

Posted By: ruskaval
Whitesnake - 1987 (2017) {2CD 30th Anniversary Edition Parlophone 0190295785192}

Whitesnake - 1987 (2017) {2CD 30th Anniversary Edition Parlophone 0190295785192}
EAC rip (secure mode) | FLAC (tracks)+CUE+LOG -> 937 Mb | MP3 @320 -> 299 Mb
Full Artwork @ 600 dpi (png) -> 208 Mb | 5% repair rar
© 1987, 2017 Parlophone / Warner / Whitesnake | 0190295785192
Rock / Hard Rock

Soon after its release in April 1987, WHITESNAKE became a huge success around the world, selling multi million copies. It peaked at #2 on the Billboard album chart and spawned four popular singles: “Still Of The Night,” “Give Me All Your Love,” “Is This Love” (which reached #2) and the #1 hit “Here I Go Again.” Includes the newly remastered album expanded with a selection of unreleased bonus recordings.
Whitesnake - 1987 (2017) {2CD 30th Anniversary Edition Parlophone 0190295785192}

David Coverdale built Whitesnake's commercial breakthrough on a collection of loud, polished hard rockers, plus the band's best set of pop hooks. The Led Zeppelin-ish "Still of the Night" offered headbanger appeal, but it was the big chorus of "Here I Go Again" – one of the very small number of non-power ballad '80s hard rock singles to actually top the pop charts – and the quiet ballad "Is This Love" that really sold the album in spades. The rest of the album generally holds interest as well, and it's easily the band's best.
Whitesnake - 1987 (2017) {2CD 30th Anniversary Edition Parlophone 0190295785192}


Track Listings
Disc: 1

1. Still of the Night (2017 Remastered Version)
2. Give Me All Your Love (2017 Remastered Version)
3. Bad Boys (2017 Remastered Version)
4. Is This Love (2017 Remastered Version)
5. Here I Go Again 87 (2017 Remastered Version)
6. Straight for the Heart (2017 Remastered Version)
7. Looking for Love (2017 Remastered Version)
8. Children of the Night (2017 Remastered Version)
9. You're Gonna Break My Heart Again (2017 Remastered Version)
10. Crying in the Rain (2017 Remastered Version)
11. Don't Turn Away (2017 Remastered Version)

Whitesnake - 1987 (2017) {2CD 30th Anniversary Edition Parlophone 0190295785192}


Disc: 2
1. Bad Boys / Children of the Night (Live)
2. Slide It In (Live)
3. Slow An' Easy (Live)
4. Here I Go Again (Live)
5. Guilty of Love (Live)
6. Is This Love (Live)
7. Love Ain't No Stranger (Live)
8. Guitar Solo (Adrian & Vivian) [Live]
9. Crying in the Rain (Live)
10. Still of the Night (Live)
11. Ain't No Love in the Heart of the City (Live)
12. Give Me All Your Love (Live)

Whitesnake - 1987 (2017) {2CD 30th Anniversary Edition Parlophone 0190295785192}


Exact Audio Copy V1.0 beta 6 from 9. April 2015

EAC extraction logfile from 23. October 2017, 21:38

Whitesnake / Whitesnake '87 30th Anniversary Edition

Used drive : ASUS DVDRAM GHB1N Adapter: 1 ID: 0

Read mode : Secure
Utilize accurate stream : Yes
Defeat audio cache : Yes
Make use of C2 pointers : No

Read offset correction : 6
Overread into Lead-In and Lead-Out : No
Fill up missing offset samples with silence : Yes
Delete leading and trailing silent blocks : No
Null samples used in CRC calculations : Yes
Used interface : Native Win32 interface for Win NT & 2000
Gap handling : Appended to previous track

Used output format : User Defined Encoder
Selected bitrate : 768 kBit/s
Quality : High
Add ID3 tag : No
Command line compressor : C:\Program Files (x86)\Exact Audio Copy\Flac\flac.exe
Additional command line options : -8 -V -T "ARTIST=%artist%" -T "TITLE=%title%" -T "ALBUM=%albumtitle%" -T "DATE=%year%" -T "TRACKNUMBER=%tracknr%" -T "TOTALTRACKS=%numtracks%" -T "GENRE=%genre%" -T "ALBUMARTIST=%albumartist%" -T "ALBUM ARTIST=%albumartist%" -T "COMMENT=EAC Secure Mode, Test & Copy, AccurateRip, FLAC -8" %source%


TOC of the extracted CD

Track | Start | Length | Start sector | End sector
––––––––––––––––––––––––––––-
1 | 0:00.00 | 6:39.52 | 0 | 29976
2 | 6:39.52 | 3:30.22 | 29977 | 45748
3 | 10:09.74 | 4:08.01 | 45749 | 64349
4 | 14:18.00 | 4:44.45 | 64350 | 85694
5 | 19:02.45 | 4:35.52 | 85695 | 106371
6 | 23:38.22 | 3:38.29 | 106372 | 122750
7 | 27:16.51 | 6:34.61 | 122751 | 152361
8 | 33:51.37 | 4:23.27 | 152362 | 172113
9 | 38:14.64 | 4:11.50 | 172114 | 190988
10 | 42:26.39 | 5:38.12 | 190989 | 216350
11 | 48:04.51 | 5:09.55 | 216351 | 239580


Track 1

Filename O:\My Rips\Whitesnake\Whitesnake - 1987 (1987) [FLAC] {2CD 30th Anniversary Edition 0190295785192}\CD1\01 - Still Of The Night.wav

Pre-gap length 0:00:02.00

Peak level 97.6 %
Extraction speed 1.0 X
Track quality 99.9 %
Test CRC 1C51F51A
Copy CRC 1C51F51A
Track not present in AccurateRip database
Copy OK

Track 2

Filename O:\My Rips\Whitesnake\Whitesnake - 1987 (1987) [FLAC] {2CD 30th Anniversary Edition 0190295785192}\CD1\02 - Give Me All Your Love.wav

Peak level 97.5 %
Extraction speed 1.1 X
Track quality 100.0 %
Test CRC 01EC9C6B
Copy CRC 01EC9C6B
Track not present in AccurateRip database
Copy OK

Track 3

Filename O:\My Rips\Whitesnake\Whitesnake - 1987 (1987) [FLAC] {2CD 30th Anniversary Edition 0190295785192}\CD1\03 - Bad Boys.wav

Peak level 97.6 %
Extraction speed 1.1 X
Track quality 99.9 %
Test CRC 75ABBB4D
Copy CRC 75ABBB4D
Track not present in AccurateRip database
Copy OK

Track 4

Filename O:\My Rips\Whitesnake\Whitesnake - 1987 (1987) [FLAC] {2CD 30th Anniversary Edition 0190295785192}\CD1\04 - Is This Love.wav

Peak level 97.5 %
Extraction speed 1.4 X
Track quality 100.0 %
Test CRC E6F6D971
Copy CRC E6F6D971
Track not present in AccurateRip database
Copy OK

Track 5

Filename O:\My Rips\Whitesnake\Whitesnake - 1987 (1987) [FLAC] {2CD 30th Anniversary Edition 0190295785192}\CD1\05 - Here I Go Again '87.wav

Peak level 97.5 %
Extraction speed 1.5 X
Track quality 100.0 %
Test CRC 737B2F91
Copy CRC 737B2F91
Track not present in AccurateRip database
Copy OK

Track 6

Filename O:\My Rips\Whitesnake\Whitesnake - 1987 (1987) [FLAC] {2CD 30th Anniversary Edition 0190295785192}\CD1\06 - Straight For The Heart.wav

Peak level 97.5 %
Extraction speed 1.5 X
Track quality 100.0 %
Test CRC FC9CD516
Copy CRC FC9CD516
Track not present in AccurateRip database
Copy OK

Track 7

Filename O:\My Rips\Whitesnake\Whitesnake - 1987 (1987) [FLAC] {2CD 30th Anniversary Edition 0190295785192}\CD1\07 - Looking For Love.wav

Peak level 97.6 %
Extraction speed 1.7 X
Track quality 100.0 %
Test CRC 107E7A09
Copy CRC 107E7A09
Track not present in AccurateRip database
Copy OK

Track 8

Filename O:\My Rips\Whitesnake\Whitesnake - 1987 (1987) [FLAC] {2CD 30th Anniversary Edition 0190295785192}\CD1\08 - Children Of The Night.wav

Peak level 97.5 %
Extraction speed 1.7 X
Track quality 100.0 %
Test CRC CF3F986A
Copy CRC CF3F986A
Track not present in AccurateRip database
Copy OK

Track 9

Filename O:\My Rips\Whitesnake\Whitesnake - 1987 (1987) [FLAC] {2CD 30th Anniversary Edition 0190295785192}\CD1\09 - You're Gonna Break My Heart Again.wav

Peak level 97.6 %
Extraction speed 1.6 X
Track quality 99.9 %
Test CRC E7888B94
Copy CRC E7888B94
Track not present in AccurateRip database
Copy OK

Track 10

Filename O:\My Rips\Whitesnake\Whitesnake - 1987 (1987) [FLAC] {2CD 30th Anniversary Edition 0190295785192}\CD1\10 - Crying In The Rain.wav

Peak level 97.6 %
Extraction speed 1.9 X
Track quality 100.0 %
Test CRC ADAF9940
Copy CRC ADAF9940
Track not present in AccurateRip database
Copy OK

Track 11

Filename O:\My Rips\Whitesnake\Whitesnake - 1987 (1987) [FLAC] {2CD 30th Anniversary Edition 0190295785192}\CD1\11 - Don't Turn Away.wav

Peak level 97.5 %
Extraction speed 1.8 X
Track quality 99.9 %
Test CRC 8D8DF08C
Copy CRC 8D8DF08C
Track not present in AccurateRip database
Copy OK


None of the tracks are present in the AccurateRip database

No errors occurred

End of status report

==== Log checksum 8541B172D1BE9DF3BCB9030D68EC4E3E137E3819EAC5572F0C95764DB05D3163 ====

Exact Audio Copy V1.0 beta 6 from 9. April 2015

EAC extraction logfile from 25. October 2017, 19:27

Whitesnake / Snakeskin Boots (Live On Tour 1987-88)

Used drive : ASUS DVDRAM GHB1N Adapter: 1 ID: 0

Read mode : Secure
Utilize accurate stream : Yes
Defeat audio cache : Yes
Make use of C2 pointers : No

Read offset correction : 6
Overread into Lead-In and Lead-Out : No
Fill up missing offset samples with silence : Yes
Delete leading and trailing silent blocks : No
Null samples used in CRC calculations : Yes
Used interface : Native Win32 interface for Win NT & 2000
Gap handling : Appended to previous track

Used output format : User Defined Encoder
Selected bitrate : 768 kBit/s
Quality : High
Add ID3 tag : No
Command line compressor : C:\Program Files (x86)\Exact Audio Copy\Flac\flac.exe
Additional command line options : -8 -V -T "ARTIST=%artist%" -T "TITLE=%title%" -T "ALBUM=%albumtitle%" -T "DATE=%year%" -T "TRACKNUMBER=%tracknr%" -T "TOTALTRACKS=%numtracks%" -T "GENRE=%genre%" -T "ALBUMARTIST=%albumartist%" -T "ALBUM ARTIST=%albumartist%" -T "COMMENT=EAC Secure Mode, Test & Copy, AccurateRip, FLAC -8" %source%


TOC of the extracted CD

Track | Start | Length | Start sector | End sector
––––––––––––––––––––––––––––-
1 | 0:00.00 | 6:56.06 | 0 | 31205
2 | 6:56.06 | 4:09.46 | 31206 | 49926
3 | 11:05.52 | 7:50.64 | 49927 | 85240
4 | 18:56.41 | 5:24.56 | 85241 | 109596
5 | 24:21.22 | 7:42.46 | 109597 | 144292
6 | 32:03.68 | 4:26.70 | 144293 | 164312
7 | 36:30.63 | 4:47.34 | 164313 | 185871
8 | 41:18.22 | 2:45.17 | 185872 | 198263
9 | 44:03.39 | 6:38.23 | 198264 | 228136
10 | 50:41.62 | 7:32.39 | 228137 | 262075
11 | 58:14.26 | 8:45.64 | 262076 | 301514
12 | 67:00.15 | 5:25.15 | 301515 | 325904


Track 1

Filename O:\My Rips\Whitesnake\Whitesnake - 1987 (1987) [FLAC] {2CD 30th Anniversary Edition 0190295785192}\CD2\01 - Bad Boys , Children of the Night (Live).wav

Pre-gap length 0:00:02.00

Peak level 97.6 %
Extraction speed 1.2 X
Track quality 100.0 %
Test CRC E16661F1
Copy CRC E16661F1
Track not present in AccurateRip database
Copy OK

Track 2

Filename O:\My Rips\Whitesnake\Whitesnake - 1987 (1987) [FLAC] {2CD 30th Anniversary Edition 0190295785192}\CD2\02 - Slide It In (Live).wav

Peak level 97.6 %
Extraction speed 1.2 X
Track quality 100.0 %
Test CRC E456A223
Copy CRC E456A223
Track not present in AccurateRip database
Copy OK

Track 3

Filename O:\My Rips\Whitesnake\Whitesnake - 1987 (1987) [FLAC] {2CD 30th Anniversary Edition 0190295785192}\CD2\03 - Slow An' Easy (Live).wav

Peak level 97.6 %
Extraction speed 1.5 X
Track quality 100.0 %
Test CRC 3C62E534
Copy CRC 3C62E534
Track not present in AccurateRip database
Copy OK

Track 4

Filename O:\My Rips\Whitesnake\Whitesnake - 1987 (1987) [FLAC] {2CD 30th Anniversary Edition 0190295785192}\CD2\04 - Here I Go Again (Live).wav

Peak level 97.6 %
Extraction speed 1.6 X
Track quality 100.0 %
Test CRC B378C7F8
Copy CRC B378C7F8
Track not present in AccurateRip database
Copy OK

Track 5

Filename O:\My Rips\Whitesnake\Whitesnake - 1987 (1987) [FLAC] {2CD 30th Anniversary Edition 0190295785192}\CD2\05 - Guilty of Love (Live).wav

Peak level 97.6 %
Extraction speed 1.8 X
Track quality 100.0 %
Test CRC 392B1A6B
Copy CRC 392B1A6B
Track not present in AccurateRip database
Copy OK

Track 6

Filename O:\My Rips\Whitesnake\Whitesnake - 1987 (1987) [FLAC] {2CD 30th Anniversary Edition 0190295785192}\CD2\06 - Is This Love (Live).wav

Peak level 97.6 %
Extraction speed 1.6 X
Track quality 99.9 %
Test CRC 76524199
Copy CRC 76524199
Track not present in AccurateRip database
Copy OK

Track 7

Filename O:\My Rips\Whitesnake\Whitesnake - 1987 (1987) [FLAC] {2CD 30th Anniversary Edition 0190295785192}\CD2\07 - Love Ain't No Stranger (Live).wav

Peak level 97.6 %
Extraction speed 1.9 X
Track quality 100.0 %
Test CRC A7DE612A
Copy CRC A7DE612A
Track not present in AccurateRip database
Copy OK

Track 8

Filename O:\My Rips\Whitesnake\Whitesnake - 1987 (1987) [FLAC] {2CD 30th Anniversary Edition 0190295785192}\CD2\08 - Guitar Solo (Adrian & Vivian) (Live).wav

Peak level 93.8 %
Extraction speed 1.8 X
Track quality 100.0 %
Test CRC 8A525D9F
Copy CRC 8A525D9F
Track not present in AccurateRip database
Copy OK

Track 9

Filename O:\My Rips\Whitesnake\Whitesnake - 1987 (1987) [FLAC] {2CD 30th Anniversary Edition 0190295785192}\CD2\09 - Crying in the Rain (Live).wav

Peak level 97.6 %
Extraction speed 2.1 X
Track quality 100.0 %
Test CRC 4337FDE9
Copy CRC 4337FDE9
Track not present in AccurateRip database
Copy OK

Track 10

Filename O:\My Rips\Whitesnake\Whitesnake - 1987 (1987) [FLAC] {2CD 30th Anniversary Edition 0190295785192}\CD2\10 - Still of the Night (Live).wav

Peak level 97.6 %
Extraction speed 2.1 X
Track quality 99.9 %
Test CRC 58DD2F32
Copy CRC 58DD2F32
Track not present in AccurateRip database
Copy OK

Track 11

Filename O:\My Rips\Whitesnake\Whitesnake - 1987 (1987) [FLAC] {2CD 30th Anniversary Edition 0190295785192}\CD2\11 - Ain't No Love In The Heart Of The City (Live).wav

Peak level 97.6 %
Extraction speed 2.2 X
Track quality 99.9 %
Test CRC 3D4D4F06
Copy CRC 3D4D4F06
Track not present in AccurateRip database
Copy OK

Track 12

Filename O:\My Rips\Whitesnake\Whitesnake - 1987 (1987) [FLAC] {2CD 30th Anniversary Edition 0190295785192}\CD2\12 - Give Me All Your Love (Live).wav

Peak level 97.6 %
Extraction speed 2.4 X
Track quality 100.0 %
Test CRC 1A0AA4E0
Copy CRC 1A0AA4E0
Track not present in AccurateRip database
Copy OK


None of the tracks are present in the AccurateRip database

No errors occurred

End of status report

==== Log checksum 88D936B092E4814B38507A388295B6F1AFB3DE21484C5664F22BB272CC958863 ====


Whitesnake - 1987 (2017) {2CD 30th Anniversary Edition Parlophone 0190295785192}



===