Subcategories

Willie Bobo - Spanish Grease / Uno Dos Tres 1-2-3 (1994)

Posted By: Domestos
Willie Bobo - Spanish Grease / Uno Dos Tres 1-2-3 (1994)

Willie Bobo - Spanish Grease / Uno Dos Tres 1-2-3 (1994)
EAC Rip | FLAC (tracks+.cue, log) ~ 407.58 Mb | 67:51 | Scans included
Latin Jazz, World Fusion | Country: USA | Label: Verve Records (314 521 664-2)

Willie Bobo's 1965 LP, Spanish Grease, has been combined with his Uno Dos Tres 1-2-3 LP from 1966 on one CD reissue. One pass through the title cut of Spanish Grease and you know that Carlos Santana was listening. The easy R&B/Latin jazz shuffle on this Bobo original, with its mix of Spanish and English vocals, is an obvious touchstone to cuts like "Evil Ways" on Santana's first two albums. What a shame, then, that the rest of the record is primarily comprised of covers of pop hits of the day like "It's Not Unusual" (a vocal and an instrumental version!) and "Our Day Will Come." The timbales player and his band lay down respectable grooves, but "Spanish Grease" is the only original on the album, and by far the most rewarding number.

Similarly, the toughest and most memorable track on Uno Dos Tres 1-2-3 is the one Bobo original, "Fried Neck Bones and Some Home Fries." Its creeping Latin soul groove was, like "Spanish Grease," an obvious inspiration for Carlos Santana. But on most of the rest of the recording, Bobo coasts through interpretations of period hits like "Michelle," "Goin' Out of My Head," and Jay & the Americans' (!) "Come a Little Bit Closer," with some jazz and pop standards as well. ~ AllMusic Review by Richie Unterberger

Spanish Grease (1965)
Willie Bobo - timbales, vocals
Melvin Lastie - cornet
Bobby Brown - alto saxophone, tenor saxophone
Clarence "Sonny" Henry - guitar
Richard Davis, Jim Phillips - bass
Victor Pantoja - congas
Bert Keys - arranger
Recorded at Van Gelder Studio, Englewood Cliffs, NJ on June 8 (#1,4), August 30 (#5-8) and September 8 (#2,3,9,10), 1965.

Uno Dos Tres 1-2-3 (1966)
Willie Bobo - timbales, vocals
Melvin Lastie - cornet, arranger
Bobby Brown - alto saxophone, tenor saxophone
Clarence "Sonny" Henry - guitar, arranger
John Hart, Bobby Rodriguez - bass
Osualdo Martinez - bongos, guiro
Carlos "Patato" Valdes - congas
Jose Mangual, Victor Pantoja - percussion
Chico O'Farrill - arranger
Recorded in New York on January 26 (#18,20), April 25 (#12,15,17), and April 26 (#11,13,14,16,19,21,22), 1966.

Track List:
Spanish Grease (1965)
01. Spanish Grease (Bobo-Lastie) - 2:49
02. Hurt So Bad (Hart-Randazzo-Weinstein) - 2:42
03. It's Not Unusual (Mills-Reed) - 2:22
04. Our Day Will Come (Garson-Hilliard) - 2:52
05. Haitian Lady (Ousley) - 4:07
06. Blues in the Closet (Pettiford) - 2:14
07. Nessa (Diehl) - 4:09
08. Elation (Ousley) - 3:51
09. It's Not Unusual (Instrumental) (Mills-Reed) - 2:30
10. Shotgun/Blind Man, Blind Man (Walker-Hancock) - 5:14

Uno Dos Tres 1-2-3 (1966)
11. Boogaloo in Room 802 (Hart-Lastie) - 2:38
12. Come a Little Bit Closer (Boyce-Hart-Farrell) - 2:31
13. Goin' Out of My Head (Randazzo-Weinstein) - 3:28
14. I Remember Clifford (Golson) - 2:07
15. Rescue Me (Miner-Smith) - 3:11
16. Michelle (Lennon-McCartney) - 3:19
17. No Matter What Shape (Your Stomach's In) (Burland) - 2:47
18. Fried Neck Bones and Some Home Fries (Bobo-Lastie) - 3:03
19. Ol' Man River (Hammerstein-Kern) - 3:14
20. One, Two, Three (1-2-3) [Uno, Dos, Tres] (Barry-Medora-White) - 2:41
21. Night Song (Adams-Strouse) - 2:45
22. The Breeze and I (Lecuona) - 3:17

Willie Bobo - Spanish Grease / Uno Dos Tres 1-2-3 (1994)

Exact Audio Copy V1.3 from 2. September 2016

EAC extraction logfile from 10. December 2016, 10:30

Willie Bobo / Spanish Grease - Uno Dos Tres 1.2.3

Used drive : HL-DT-STBDDVDRW UH12NS30 Adapter: 1 ID: 0

Read mode : Secure
Utilize accurate stream : Yes
Defeat audio cache : Yes
Make use of C2 pointers : No

Read offset correction : 6
Overread into Lead-In and Lead-Out : No
Fill up missing offset samples with silence : Yes
Delete leading and trailing silent blocks : No
Null samples used in CRC calculations : Yes
Used interface : Native Win32 interface for Win NT & 2000
Gap handling : Appended to previous track

Used output format : User Defined Encoder
Selected bitrate : 1024 kBit/s
Quality : High
Add ID3 tag : No
Command line compressor : C:\Program Files (x86)\Exact Audio Copy\Flac\flac.exe
Additional command line options : -8 -e -p -V -T "ARTIST=%artist%" -T "TITLE=%title%" -T "ALBUM=%albumtitle%" -T "DATE=%year%" -T "TRACKNUMBER=%tracknr%" -T "GENRE=%genre%" -T "PERFORMER=%albuminterpret%" -T "COMPOSER=%composer%" %haslyrics%–tag-from-file=LYRICS="%lyricsfile%"%haslyrics% -T "ALBUMARTIST=%albumartist%" -T "DISCNUMBER=%cdnumber%" -T "TOTALDISCS=%totalcds%" -T "TOTALTRACKS=%numtracks%" -T "COMMENT=%comment%" %source% -o %dest%

TOC of the extracted CD

Track | Start | Length | Start sector | End sector
––––––––––––––––––––––––––––-
1 | 0:00.00 | 2:48.55 | 0 | 12654
2 | 2:48.55 | 2:41.43 | 12655 | 24772
3 | 5:30.23 | 2:21.67 | 24773 | 35414
4 | 7:52.15 | 2:52.25 | 35415 | 48339
5 | 10:44.40 | 4:07.33 | 48340 | 66897
6 | 14:51.73 | 2:14.32 | 66898 | 76979
7 | 17:06.30 | 4:08.63 | 76980 | 95642
8 | 21:15.18 | 3:50.45 | 95643 | 112937
9 | 25:05.63 | 2:30.20 | 112938 | 124207
10 | 27:36.08 | 5:14.12 | 124208 | 147769
11 | 32:50.20 | 2:38.13 | 147770 | 159632
12 | 35:28.33 | 2:30.67 | 159633 | 170949
13 | 37:59.25 | 3:28.05 | 170950 | 186554
14 | 41:27.30 | 2:06.48 | 186555 | 196052
15 | 43:34.03 | 3:10.50 | 196053 | 210352
16 | 46:44.53 | 3:18.62 | 210353 | 225264
17 | 50:03.40 | 2:46.58 | 225265 | 237772
18 | 52:50.23 | 3:03.22 | 237773 | 251519
19 | 55:53.45 | 3:14.05 | 251520 | 266074
20 | 59:07.50 | 2:40.50 | 266075 | 278124
21 | 61:48.25 | 2:45.20 | 278125 | 290519
22 | 64:33.45 | 3:16.38 | 290520 | 305257

Track 1

Filename C:\Audio Out\01 - Spanish Grease.wav

Pre-gap length 0:00:02.00

Peak level 90.5 %
Extraction speed 1.9 X
Track quality 100.0 %
Test CRC 0DD1A66B
Copy CRC 0DD1A66B
Accurately ripped (confidence 5) [B0D91FE7] (AR v2)
Copy OK

Track 2

Filename C:\Audio Out\02 - Hurt So Bad.wav

Pre-gap length 0:00:01.66

Peak level 75.8 %
Extraction speed 1.1 X
Track quality 100.0 %
Test CRC C2DBD014
Copy CRC C2DBD014
Accurately ripped (confidence 5) [EEF966F3] (AR v2)
Copy OK

Track 3

Filename C:\Audio Out\03 - It's Not Unusual.wav

Pre-gap length 0:00:01.84

Peak level 92.2 %
Extraction speed 1.2 X
Track quality 100.0 %
Test CRC 9D144F4B
Copy CRC 9D144F4B
Accurately ripped (confidence 5) [683D83B8] (AR v2)
Copy OK

Track 4

Filename C:\Audio Out\04 - Our Day Will come.wav

Pre-gap length 0:00:02.02

Peak level 81.1 %
Extraction speed 1.1 X
Track quality 99.9 %
Test CRC B4647F4C
Copy CRC B4647F4C
Accurately ripped (confidence 5) [C9A139B8] (AR v2)
Copy OK

Track 5

Filename C:\Audio Out\05 - Haitian Holiday.wav

Pre-gap length 0:00:01.86

Peak level 94.4 %
Extraction speed 1.5 X
Track quality 100.0 %
Test CRC A41B2631
Copy CRC A41B2631
Accurately ripped (confidence 5) [EEAC8B2A] (AR v2)
Copy OK

Track 6

Filename C:\Audio Out\06 - Blues In The Closet.wav

Pre-gap length 0:00:01.93

Peak level 82.7 %
Extraction speed 1.1 X
Track quality 99.9 %
Test CRC BF9DE747
Copy CRC BF9DE747
Accurately ripped (confidence 5) [996EA454] (AR v2)
Copy OK

Track 7

Filename C:\Audio Out\07 - Nessa.wav

Pre-gap length 0:00:02.76

Peak level 83.8 %
Extraction speed 1.6 X
Track quality 100.0 %
Test CRC 284071B9
Copy CRC 284071B9
Accurately ripped (confidence 5) [00670B4D] (AR v2)
Copy OK

Track 8

Filename C:\Audio Out\08 - Elation.wav

Pre-gap length 0:00:01.93

Peak level 77.6 %
Extraction speed 1.7 X
Track quality 100.0 %
Test CRC C0FD875D
Copy CRC C0FD875D
Accurately ripped (confidence 5) [11AB54E7] (AR v2)
Copy OK

Track 9

Filename C:\Audio Out\09 - It's Not Unusual.wav

Pre-gap length 0:00:01.53

Peak level 80.8 %
Extraction speed 1.6 X
Track quality 100.0 %
Test CRC 69C8F727
Copy CRC 69C8F727
Accurately ripped (confidence 5) [D1D11133] (AR v2)
Copy OK

Track 10

Filename C:\Audio Out\10 - Shotgun - Blind Man, Blind Man.wav

Pre-gap length 0:00:01.20

Peak level 93.5 %
Extraction speed 1.9 X
Track quality 100.0 %
Test CRC 0CB96C13
Copy CRC 0CB96C13
Accurately ripped (confidence 5) [F75F6ABE] (AR v2)
Copy OK

Track 11

Filename C:\Audio Out\11 - Boogaloo In Room 802.wav

Pre-gap length 0:00:02.69

Peak level 100.0 %
Extraction speed 1.8 X
Track quality 100.0 %
Test CRC DF569183
Copy CRC DF569183
Accurately ripped (confidence 5) [B24A24AB] (AR v2)
Copy OK

Track 12

Filename C:\Audio Out\12 - Come A Little Bit Closer.wav

Pre-gap length 0:00:02.46

Peak level 100.0 %
Extraction speed 1.8 X
Track quality 100.0 %
Test CRC 194F8891
Copy CRC 194F8891
Accurately ripped (confidence 5) [BEFC7839] (AR v2)
Copy OK

Track 13

Filename C:\Audio Out\13 - Going Out Of My Head.wav

Pre-gap length 0:00:02.22

Peak level 70.3 %
Extraction speed 1.9 X
Track quality 100.0 %
Test CRC 68A791F4
Copy CRC 68A791F4
Accurately ripped (confidence 5) [7B4E270E] (AR v2)
Copy OK

Track 14

Filename C:\Audio Out\14 - I Remember Clifford.wav

Pre-gap length 0:00:01.82

Peak level 84.7 %
Extraction speed 1.8 X
Track quality 100.0 %
Test CRC F26036FF
Copy CRC F26036FF
Accurately ripped (confidence 5) [EC9E245F] (AR v2)
Copy OK

Track 15

Filename C:\Audio Out\15 - Rescue Me.wav

Pre-gap length 0:00:02.20

Peak level 74.2 %
Extraction speed 2.0 X
Track quality 100.0 %
Test CRC 7C06A72A
Copy CRC 7C06A72A
Accurately ripped (confidence 5) [0B6CEBEB] (AR v2)
Copy OK

Track 16

Filename C:\Audio Out\16 - Michelle.wav

Pre-gap length 0:00:02.40

Peak level 90.7 %
Extraction speed 2.1 X
Track quality 100.0 %
Test CRC 172F156A
Copy CRC 172F156A
Accurately ripped (confidence 5) [8697B771] (AR v2)
Copy OK

Track 17

Filename C:\Audio Out\17 - No Matter What Shape (Your Stomach's In).wav

Pre-gap length 0:00:02.60

Peak level 85.0 %
Extraction speed 2.0 X
Track quality 100.0 %
Test CRC 64382296
Copy CRC 64382296
Accurately ripped (confidence 5) [AEEB10F5] (AR v2)
Copy OK

Track 18

Filename C:\Audio Out\18 - Fried Neck Bones And Some Home Fries.wav

Pre-gap length 0:00:03.17

Peak level 99.4 %
Extraction speed 2.1 X
Track quality 100.0 %
Test CRC DD7BD791
Copy CRC DD7BD791
Accurately ripped (confidence 5) [EAE32934] (AR v2)
Copy OK

Track 19

Filename C:\Audio Out\19 - Ol' Man River.wav

Pre-gap length 0:00:01.89

Peak level 70.0 %
Extraction speed 2.2 X
Track quality 100.0 %
Test CRC 90739A4B
Copy CRC 90739A4B
Accurately ripped (confidence 5) [8F1838CD] (AR v2)
Copy OK

Track 20

Filename C:\Audio Out\20 - One, Two, Three.wav

Pre-gap length 0:00:03.06

Peak level 71.0 %
Extraction speed 1.7 X
Track quality 99.9 %
Test CRC 92F20202
Copy CRC 92F20202
Accurately ripped (confidence 5) [71200B11] (AR v2)
Copy OK

Track 21

Filename C:\Audio Out\21 - Night Song.wav

Pre-gap length 0:00:02.06

Peak level 84.8 %
Extraction speed 2.2 X
Track quality 100.0 %
Test CRC 04811FA5
Copy CRC 04811FA5
Accurately ripped (confidence 5) [DC185444] (AR v2)
Copy OK

Track 22

Filename C:\Audio Out\22 - The Breeze And I.wav

Pre-gap length 0:00:02.09

Peak level 81.9 %
Extraction speed 2.3 X
Track quality 100.0 %
Test CRC 723653D9
Copy CRC 723653D9
Accurately ripped (confidence 5) [952DDB19] (AR v2)
Copy OK

All tracks accurately ripped

No errors occurred

End of status report

–– CUETools DB Plugin V2.1.6

[CTDB TOCID: _g0BKSsqRX0W.q_nPaX_ph.oS3U-] found
Submit result: _g0BKSsqRX0W.q_nPaX_ph.oS3U- has been confirmed
Track | CTDB Status
1 | (9/9) Accurately ripped
2 | (9/9) Accurately ripped
3 | (9/9) Accurately ripped
4 | (9/9) Accurately ripped
5 | (9/9) Accurately ripped
6 | (9/9) Accurately ripped
7 | (9/9) Accurately ripped
8 | (9/9) Accurately ripped
9 | (9/9) Accurately ripped
10 | (9/9) Accurately ripped
11 | (9/9) Accurately ripped
12 | (9/9) Accurately ripped
13 | (9/9) Accurately ripped
14 | (9/9) Accurately ripped
15 | (8/9) Accurately ripped
16 | (9/9) Accurately ripped
17 | (9/9) Accurately ripped
18 | (9/9) Accurately ripped
19 | (9/9) Accurately ripped
20 | (9/9) Accurately ripped
21 | (9/9) Accurately ripped
22 | (9/9) Accurately ripped

==== Log checksum 1D24298308308D8BCD31F717592EFA1526BDE5186A64BBB2208EAFAE9D70D6D2 ====

All thanks go to the OVerLoRDI

More Music in My Blog
Follow My RSS Channel