Subcategories

Wolverines Big Band - Shanghai Shuffle (1986)

Posted By: Domestos
Wolverines Big Band - Shanghai Shuffle (1986)

Wolverines Big Band - Shanghai Shuffle (1986)
EAC Rip | FLAC (tracks+.cue, log) ~ 234.27 Mb | 46:20 | Scans included
Big Band, Swing | Label: ProJazz (CDJ 618)

Formed in 1973, the band started out performing transcriptions of the music of the “hot” orchestras, popular between the World Wars. House gigs in the early years included such Jazz Age nightspots as Scottie’s On Seventh, the Commodore, and Castle Royale. They opened for Sarah Vaughan and Manhattan Transfer, and performed on the initial broadcasts of A Prairie Home Companion. Their first four albums received the coveted four star review in Downbeat magazine. They even played Jimmy Carter’s Inaugural Ball.

Now in their 44th year, led by drummer Jendeen Forberg, the Wolverines Big Band continues to perform their matchless repertoire. Covering a wide range of styles, this includes the best of the bands led by Count Basie, Duke Ellington, Fletcher Henderson and more.

See a video of the band performing “I Can’t Stop Loving You” live at the Metropolitan Ballroom in Minneapolis for a wedding in 2012.

The Wolverines Big Band is based in Minneapolis, Minnesota.

Alto Saxophone – Bruce Thornton, David Mitchell
Alto Saxophone [Lead] – Robert Parsons
Baritone Saxophone – Jim "Pops" Forberg
Bass – Peter Olson
Drums, Leader – Brett Forberg
Guitar, Banjo – Robert Saraceni
Piano – Rick Carlson
Tenor Saxophone, Clarinet – Dough Haining, Steve Benson
Trombone – Mike Paulsen, Peter Masters
Trombone [Lead] – John Olson
Trombone, Xylophone – Lance Strickland
Trumpet – Jeff Gottwig, Steve Wagner, Tim Sullivan
Trumpet [Lead] – Randy Mueller

Track List:
1. Lunceford Special (E.Durham) 2:49
2. Johnny Come Lately (B.Strayhorn) 2:41
3. Mack The Knife (K.Weill) 4:39
4. Down For The Count (F.Foster) 7:53
5. Ladybird (T.Dameron) 4:25
6. Sweet Georgia Brown (Bernie, Casey, Pinkard) 4:44
7. Chant Of The Weed (D.Redman) 3:28
8. Dippermouth Blues (J.Oliver) 3:17
9. Shanghai Shuffle (F. Henderson) 3:24
10. One O'Clock Jump (W.Basie) 5:52
11. Woodchoppers Ball (Bishop, Herman) 3:49

Wolverines Big Band - Shanghai Shuffle (1986)

Exact Audio Copy V1.3 from 2. September 2016

EAC extraction logfile from 7. September 2017, 16:14

The Wolverines Big Band / Shanghai Shuffle

Used drive : HL-DT-STDVDRAM GSA-T50N Adapter: 1 ID: 0

Read mode : Secure
Utilize accurate stream : Yes
Defeat audio cache : Yes
Make use of C2 pointers : No

Read offset correction : 667
Overread into Lead-In and Lead-Out : No
Fill up missing offset samples with silence : Yes
Delete leading and trailing silent blocks : No
Null samples used in CRC calculations : Yes
Used interface : Native Win32 interface for Win NT & 2000
Gap handling : Appended to previous track

Used output format : User Defined Encoder
Selected bitrate : 1024 kBit/s
Quality : High
Add ID3 tag : No
Command line compressor : C:\Program Files\Exact Audio Copy\Flac\flac.exe
Additional command line options : -V -8 -T "Genre=%genre%" -T "Artist=%artist%" -T "Title=%title%" -T "Album=%albumtitle%" -T "Date=%year%" -T "Tracknumber=%tracknr%" %source% -o %dest%

TOC of the extracted CD

Track | Start | Length | Start sector | End sector
––––––––––––––––––––––––––––-
1 | 0:00.37 | 2:53.50 | 37 | 13061
2 | 2:54.12 | 2:46.05 | 13062 | 25516
3 | 5:40.17 | 3:25.20 | 25517 | 40911
4 | 9:05.37 | 7:49.60 | 40912 | 76146
5 | 16:55.22 | 4:29.55 | 76147 | 96376
6 | 21:25.02 | 4:48.43 | 96377 | 118019
7 | 26:13.45 | 3:31.40 | 118020 | 133884
8 | 29:45.10 | 3:21.07 | 133885 | 148966
9 | 33:06.17 | 3:28.05 | 148967 | 164571
10 | 36:34.22 | 5:55.45 | 164572 | 191241
11 | 42:29.67 | 3:51.38 | 191242 | 208604

Track 1

Filename C:\music\MG rips\The Wolverines Big Band - Shanghai Shuffle - 1986 (ProJazz CDJ 618) [FLAC]\01 - Lunceford Special.wav

Pre-gap length 0:00:02.37

Peak level 76.0 %
Extraction speed 2.2 X
Track quality 100.0 %
Test CRC A6A5DB38
Copy CRC A6A5DB38
Accurately ripped (confidence 5) [6D6FEF0B] (AR v2)
Copy OK

Track 2

Filename C:\music\MG rips\The Wolverines Big Band - Shanghai Shuffle - 1986 (ProJazz CDJ 618) [FLAC]\02 - Johnny Come Lately.wav

Peak level 75.6 %
Extraction speed 2.4 X
Track quality 100.0 %
Test CRC 1C6F9084
Copy CRC 1C6F9084
Accurately ripped (confidence 5) [51D6AA9C] (AR v2)
Copy OK

Track 3

Filename C:\music\MG rips\The Wolverines Big Band - Shanghai Shuffle - 1986 (ProJazz CDJ 618) [FLAC]\03 - Mack The Knife.wav

Peak level 72.7 %
Extraction speed 2.7 X
Track quality 100.0 %
Test CRC DCDA2025
Copy CRC DCDA2025
Accurately ripped (confidence 5) [06146E0B] (AR v2)
Copy OK

Track 4

Filename C:\music\MG rips\The Wolverines Big Band - Shanghai Shuffle - 1986 (ProJazz CDJ 618) [FLAC]\04 - Down For The Count.wav

Pre-gap length 0:00:02.31

Peak level 74.0 %
Extraction speed 3.0 X
Track quality 99.9 %
Test CRC 12F554E0
Copy CRC 12F554E0
Accurately ripped (confidence 4) [2EFB91C0] (AR v2)
Copy OK

Track 5

Filename C:\music\MG rips\The Wolverines Big Band - Shanghai Shuffle - 1986 (ProJazz CDJ 618) [FLAC]\05 - Ladybird.wav

Pre-gap length 0:00:02.09

Peak level 83.5 %
Extraction speed 3.4 X
Track quality 100.0 %
Test CRC FE05623C
Copy CRC FE05623C
Accurately ripped (confidence 4) [AA5BD120] (AR v2)
Copy OK

Track 6

Filename C:\music\MG rips\The Wolverines Big Band - Shanghai Shuffle - 1986 (ProJazz CDJ 618) [FLAC]\06 - Sweet Georgia Brown.wav

Peak level 77.2 %
Extraction speed 3.6 X
Track quality 100.0 %
Test CRC 7572423F
Copy CRC 7572423F
Accurately ripped (confidence 4) [E5AC3E28] (AR v2)
Copy OK

Track 7

Filename C:\music\MG rips\The Wolverines Big Band - Shanghai Shuffle - 1986 (ProJazz CDJ 618) [FLAC]\07 - Chant Of The Weed.wav

Peak level 69.5 %
Extraction speed 3.6 X
Track quality 100.0 %
Test CRC 53F69D2D
Copy CRC 53F69D2D
Accurately ripped (confidence 3) [B0C593DE] (AR v2)
Copy OK

Track 8

Filename C:\music\MG rips\The Wolverines Big Band - Shanghai Shuffle - 1986 (ProJazz CDJ 618) [FLAC]\08 - Dippermouth Blues.wav

Peak level 87.1 %
Extraction speed 3.6 X
Track quality 100.0 %
Test CRC 275D807F
Copy CRC 275D807F
Accurately ripped (confidence 4) [259B893D] (AR v2)
Copy OK

Track 9

Filename C:\music\MG rips\The Wolverines Big Band - Shanghai Shuffle - 1986 (ProJazz CDJ 618) [FLAC]\09 - Shanghai Shuffle.wav

Peak level 78.1 %
Extraction speed 3.8 X
Track quality 100.0 %
Test CRC C9373937
Copy CRC C9373937
Accurately ripped (confidence 3) [4678AEA8] (AR v2)
Copy OK

Track 10

Filename C:\music\MG rips\The Wolverines Big Band - Shanghai Shuffle - 1986 (ProJazz CDJ 618) [FLAC]\10 - One O'Clock Jump.wav

Peak level 82.0 %
Extraction speed 4.3 X
Track quality 100.0 %
Test CRC A20DFFF4
Copy CRC A20DFFF4
Accurately ripped (confidence 4) [6761DFEF] (AR v2)
Copy OK

Track 11

Filename C:\music\MG rips\The Wolverines Big Band - Shanghai Shuffle - 1986 (ProJazz CDJ 618) [FLAC]\11 - Woodchopper's Ball.wav

Peak level 77.4 %
Extraction speed 4.3 X
Track quality 100.0 %
Test CRC CEF56C99
Copy CRC CEF56C99
Accurately ripped (confidence 3) [FE9130AB] (AR v2)
Copy OK

All tracks accurately ripped

No errors occurred

End of status report

==== Log checksum 9860C8AB8D2F6999012C3CF3E4598788BA8BB3208BFCF29E76C7F057E5C2AF4B ====

All thanks go to the Musicgate

More Music in My Blog
Follow My RSS Channel