Subcategories

XTC - Nonsuch (1992) {CD+BLU-RAY Ape Records The Surround Sound Series APEBD110 rel 2013}

Posted By: ruskaval
XTC - Nonsuch (1992) {CD+BLU-RAY Ape Records The Surround Sound Series APEBD110 rel 2013}

XTC - Nonsuch (1992) {CD+BLU-RAY Ape Records The Surround Sound Series APEBD110 rel 2013}
EAC rip (secure mode) | FLAC (tracks)+CUE+LOG -> 457 Mb | MP3 @320 -> 161 Mb
BLU-RAY -> 32.4 Gb | English DTS-HD MA 5.1 / English LPCM 24/96 | ISO Image
Full Artwork @ 300 dpi (jpg) -> 33 Mb | 5% repair rar
© 1992, 2013 Geffen / Virgin / Ape Records | APEBD110
Rock / Alternative / Indie

A new edition of XTC’s classic 1992 album, the first in a series of XTC albums to get the deluxe remix treatment. Featuring new stereo and 5.1 surround sound mixes made from the original multitrack tapes by Steven Wilson. Also included is the original stereo mix, instrumental mixes, and other bonus material. SW produced the new mixes with the input of founder band member Andy Partridge and the full approval of the band.
XTC - Nonsuch (1992) {CD+BLU-RAY Ape Records The Surround Sound Series APEBD110 rel 2013}

Presented in special packaging with an expanded booklet and sleeve-notes by Andy Partridge, Colin Moulding and Dave Gregory, this is the cd and blu-ray version.

The CD features a completely new stereo album mix, including non-album track Didn’t Hurt a Bit. 2013 new stereo REMIX of Nonsuch by Steven Wilson

Blu-Ray features:
- a 5.1 Mix of the album in 96/24 LPCM.
- original mix, and a new album mix by Steven Wilson, both in high resolution 96/24 LPCM stereo
- exclusive instrumental versions of all new mixes in 96/24 LPCM stereo
- exclusive Andy Partridge home demos and Colin Moulding work tapes for songs written for the album and contemporaneously.
- filmed footage of the band working on the album in Chipping Norton Studios.
- promo films for The Ballad of Peter Pumpkinhead and The Disappointed also feature on the Blu-Ray.

XTC - Nonsuch (1992) {CD+BLU-RAY Ape Records The Surround Sound Series APEBD110 rel 2013}


tracklist:
01 - The Ballad of Peter Pumpkinhead
02 - My Bird Performs
03 - Dear Madam Barnum
04 - Humble Daisy
05 - The Smartest Monkeys
06 - The Disappointed
07 - Holly Up on Poppy
08 - Crocodile
09 - Rook
10 - Omnibus
11 - That Wave
12 - Then She Appeared
13 - War Dance
14 - Wrapped in Grey
15 - The Ugly Underneath
16 - Bungalow
17 - Books Are Burning
18 - It Didnt Hurt a Bit

Exact Audio Copy V1.0 beta 3 from 29. August 2011

EAC extraction logfile from 16. November 2013, 9:53

XTC / Nonsuch (2013 Remix)

Used drive : HP DVD Writer 1260t Adapter: 5 ID: 0

Read mode : Secure
Utilize accurate stream : Yes
Defeat audio cache : Yes
Make use of C2 pointers : No

Read offset correction : 6
Overread into Lead-In and Lead-Out : No
Fill up missing offset samples with silence : Yes
Delete leading and trailing silent blocks : No
Null samples used in CRC calculations : Yes
Used interface : Installed external ASPI interface
Gap handling : Appended to previous track

Used output format : User Defined Encoder
Selected bitrate : 128 kBit/s
Quality : High
Add ID3 tag : No
Command line compressor : C:\Program Files\Exact Audio Copy\Flac\flac.exe
Additional command line options : -8 -V -T "ARTIST=%artist%" -T "TITLE=%title%" -T "ALBUM=%albumtitle%" -T "DATE=%year%" -T "TRACKNUMBER=%tracknr%" -T "TOTALTRACKS=%numtracks%" -T "GENRE=%genre%" -T "ALBUMARTIST=%albumartist%" -T "ALBUM ARTIST=%albumartist%" -T "COMMENT=EAC Secure Mode, Test & Copy, AccurateRip, FLAC -8" %source%


TOC of the extracted CD

Track | Start | Length | Start sector | End sector
––––––––––––––––––––––––––––-
1 | 0:00.00 | 5:04.00 | 0 | 22799
2 | 5:04.00 | 3:56.37 | 22800 | 40536
3 | 9:00.37 | 2:53.37 | 40537 | 53548
4 | 11:53.74 | 3:41.00 | 53549 | 70123
5 | 15:34.74 | 4:24.37 | 70124 | 89960
6 | 19:59.36 | 3:36.37 | 89961 | 106197
7 | 23:35.73 | 3:07.37 | 106198 | 120259
8 | 26:43.35 | 3:59.00 | 120260 | 138184
9 | 30:42.35 | 3:48.00 | 138185 | 155284
10 | 34:30.35 | 3:29.00 | 155285 | 170959
11 | 37:59.35 | 3:45.37 | 170960 | 187871
12 | 41:44.72 | 4:02.37 | 187872 | 206058
13 | 45:47.34 | 3:23.37 | 206059 | 221320
14 | 49:10.71 | 3:47.00 | 221321 | 238345
15 | 52:57.71 | 3:55.00 | 238346 | 255970
16 | 56:52.71 | 2:51.37 | 255971 | 268832
17 | 59:44.33 | 4:52.00 | 268833 | 290732
18 | 64:36.33 | 3:26.37 | 290733 | 306219


Track 1

Filename C:\Users\Gregg\Desktop\New Folder\01 - The Ballad of Peter Pumpkinhead.wav

Pre-gap length 0:00:02.00

Peak level 100.0 %
Extraction speed 3.4 X
Track quality 100.0 %
Test CRC 5E1F2BFF
Copy CRC 5E1F2BFF
Accurately ripped (confidence 1) [24D8E765] (AR v2)
Copy OK

Track 2

Filename C:\Users\Gregg\Desktop\New Folder\02 - My Bird Performs.wav

Peak level 100.0 %
Extraction speed 3.8 X
Track quality 100.0 %
Test CRC BDFACE93
Copy CRC BDFACE93
Accurately ripped (confidence 1) [9FDAA8F0] (AR v2)
Copy OK

Track 3

Filename C:\Users\Gregg\Desktop\New Folder\03 - Dear Madam Barnum.wav

Peak level 99.9 %
Extraction speed 3.8 X
Track quality 100.0 %
Test CRC 6B80AF0B
Copy CRC 6B80AF0B
Accurately ripped (confidence 1) [4109CDBE] (AR v2)
Copy OK

Track 4

Filename C:\Users\Gregg\Desktop\New Folder\04 - Humble Daisy.wav

Peak level 100.0 %
Extraction speed 4.2 X
Track quality 100.0 %
Test CRC 7D2B271A
Copy CRC 7D2B271A
Accurately ripped (confidence 1) [C72929CE] (AR v2)
Copy OK

Track 5

Filename C:\Users\Gregg\Desktop\New Folder\05 - The Smartest Monkeys.wav

Peak level 100.0 %
Extraction speed 4.6 X
Track quality 100.0 %
Test CRC 5D79405D
Copy CRC 5D79405D
Accurately ripped (confidence 1) [A2BA7907] (AR v2)
Copy OK

Track 6

Filename C:\Users\Gregg\Desktop\New Folder\06 - The Disappointed.wav

Peak level 100.0 %
Extraction speed 4.7 X
Track quality 100.0 %
Test CRC 6A2C1025
Copy CRC 6A2C1025
Accurately ripped (confidence 1) [C3F86148] (AR v2)
Copy OK

Track 7

Filename C:\Users\Gregg\Desktop\New Folder\07 - Holly Up on Poppy.wav

Peak level 100.0 %
Extraction speed 4.8 X
Track quality 100.0 %
Test CRC B81C2BBB
Copy CRC B81C2BBB
Accurately ripped (confidence 1) [4E41B92A] (AR v2)
Copy OK

Track 8

Filename C:\Users\Gregg\Desktop\New Folder\08 - Crocodile.wav

Peak level 100.0 %
Extraction speed 5.2 X
Track quality 100.0 %
Test CRC ADEC35A3
Copy CRC ADEC35A3
Accurately ripped (confidence 1) [484F3A17] (AR v2)
Copy OK

Track 9

Filename C:\Users\Gregg\Desktop\New Folder\09 - Rook.wav

Peak level 97.0 %
Extraction speed 5.3 X
Track quality 100.0 %
Test CRC B4F64088
Copy CRC B4F64088
Accurately ripped (confidence 1) [6399C736] (AR v2)
Copy OK

Track 10

Filename C:\Users\Gregg\Desktop\New Folder\10 - Omnibus.wav

Peak level 100.0 %
Extraction speed 5.4 X
Track quality 100.0 %
Test CRC 0730FC77
Copy CRC 0730FC77
Accurately ripped (confidence 1) [09C7ABCB] (AR v2)
Copy OK

Track 11

Filename C:\Users\Gregg\Desktop\New Folder\11 - That Wave.wav

Peak level 99.9 %
Extraction speed 5.7 X
Track quality 100.0 %
Test CRC 05C9B945
Copy CRC 05C9B945
Accurately ripped (confidence 1) [861E98C9] (AR v2)
Copy OK

Track 12

Filename C:\Users\Gregg\Desktop\New Folder\12 - Then She Appeared.wav

Peak level 100.0 %
Extraction speed 5.9 X
Track quality 100.0 %
Test CRC 999B82A6
Copy CRC 999B82A6
Accurately ripped (confidence 1) [25B80761] (AR v2)
Copy OK

Track 13

Filename C:\Users\Gregg\Desktop\New Folder\13 - War Dance.wav

Peak level 100.0 %
Extraction speed 4.6 X
Track quality 99.9 %
Test CRC AC8D57ED
Copy CRC AC8D57ED
Accurately ripped (confidence 1) [C5F2529F] (AR v2)
Copy OK

Track 14

Filename C:\Users\Gregg\Desktop\New Folder\14 - Wrapped in Grey.wav

Peak level 100.0 %
Extraction speed 5.9 X
Track quality 100.0 %
Test CRC 84BA1931
Copy CRC 84BA1931
Accurately ripped (confidence 1) [4498952D] (AR v2)
Copy OK

Track 15

Filename C:\Users\Gregg\Desktop\New Folder\15 - The Ugly Underneath.wav

Peak level 99.9 %
Extraction speed 6.3 X
Track quality 100.0 %
Test CRC E54F7B8E
Copy CRC E54F7B8E
Accurately ripped (confidence 1) [B544AE6C] (AR v2)
Copy OK

Track 16

Filename C:\Users\Gregg\Desktop\New Folder\16 - Bungalow.wav

Peak level 99.9 %
Extraction speed 6.3 X
Track quality 100.0 %
Test CRC 07D84405
Copy CRC 07D84405
Accurately ripped (confidence 1) [D0263A5A] (AR v2)
Copy OK

Track 17

Filename C:\Users\Gregg\Desktop\New Folder\17 - Books Are Burning.wav

Peak level 100.0 %
Extraction speed 6.9 X
Track quality 100.0 %
Test CRC 9E302349
Copy CRC 9E302349
Accurately ripped (confidence 1) [8601BA77] (AR v2)
Copy OK

Track 18

Filename C:\Users\Gregg\Desktop\New Folder\18 - It Didnt Hurt a Bit.wav

Peak level 100.0 %
Extraction speed 5.1 X
Track quality 99.9 %
Test CRC 3342E407
Copy CRC 3342E407
Accurately ripped (confidence 1) [3A081168] (AR v2)
Copy OK


All tracks accurately ripped

No errors occurred

End of status report

–– CUETools DB Plugin V2.1.3

[CTDB TOCID: KyjLXvwj3r.QtUZ3RNgmOyQYCgs-] found, Submit result: already submitted
[63810de2] (6/6) Accurately ripped


==== Log checksum F2B15584B10508B55917037044692EB9D96D142E9C3D56D3D234C9537AD5D876 ====

Clone process started: 22:08:25
Clone process completed successfully: 23:11:43
Process completed successfully!: 23:11:48


XTC - Nonsuch (1992) {CD+BLU-RAY Ape Records The Surround Sound Series APEBD110 rel 2013}

XTC - Nonsuch (1992) {CD+BLU-RAY Ape Records The Surround Sound Series APEBD110 rel 2013}

XTC - Nonsuch (1992) {CD+BLU-RAY Ape Records The Surround Sound Series APEBD110 rel 2013}

XTC - Nonsuch (1992) {CD+BLU-RAY Ape Records The Surround Sound Series APEBD110 rel 2013}

XTC - Nonsuch (1992) {CD+BLU-RAY Ape Records The Surround Sound Series APEBD110 rel 2013}

XTC - Nonsuch (1992) {CD+BLU-RAY Ape Records The Surround Sound Series APEBD110 rel 2013}

XTC - Nonsuch (1992) {CD+BLU-RAY Ape Records The Surround Sound Series APEBD110 rel 2013}

XTC - Nonsuch (1992) {CD+BLU-RAY Ape Records The Surround Sound Series APEBD110 rel 2013}

XTC - Nonsuch (1992) {CD+BLU-RAY Ape Records The Surround Sound Series APEBD110 rel 2013}

XTC - Nonsuch (1992) {CD+BLU-RAY Ape Records The Surround Sound Series APEBD110 rel 2013}



NEXT -> more XTC remasters on the way…


===