Subcategories

Yehudi - The Art of Menuhin (2016} {3CD Set Warner Classics 0825646782574}

Posted By: ruskaval
Yehudi - The Art of Menuhin (2016} {3CD Set Warner Classics 0825646782574}

Yehudi - The Art of Menuhin (2016} {3CD Set Warner Classics 0825646782574}
EAC rip (secure mode) | FLAC (tracks)+CUE+LOG -> 964 Mb | MP3 @320 -> 490 Mb
Artwork @ 300 dpi (png) -> 89 Mb | 5% repair rar
© 2016 Parlophone / Warner Classics | 0825646782574
Classical / Violin

“Now I know there is a God in heaven!”, exclaimed Albert Einstein when he heard the young Yehudi Menuhin play the violin. Not only was Menuhin an extraordinary musician, he lived through – and helped to shape – a momentous period in history. The Warner Classics catalog contains 70 years’ worth of his recordings and this 3-CD collection, Yehudi: The Art of Menuhin, provides a fascinating perspective on his achievements: Menuhin was a man of ideals who changed the world through music.
As a musician, as a man of ideals, and as a citizen of the world, Yehudi Menuhin made an extraordinary mark on his era. 22nd April 2016 will mark the 100th anniversary of his birth. YEHUDI explores Yehudi Menuhin’s genius and artistry through his legendary recordings – the best-loved violin masterpieces, famed duets and collaborations and exclusive unpublished material - in a specially priced 3-CD compilation for the great violinist’s centenary year.
Yehudi - The Art of Menuhin (2016} {3CD Set Warner Classics 0825646782574}


Warner Classics INFO

Performers

Composer: Johann Sebastian Bach, Antonio Vivaldi, Giovanni Battista Viotti, Ludwig van Beethoven, …

Yehudi Menuhin (violin)

Performer: Paul Cocker, Hephzibah Menuhin, Louis Kentner, …
Conductor: Alberto Lysy, Wilhelm Furtwängler, Efrem Kurtz, Sir Adrian Boult, …
Orchestra/Ensemble: Bath Festival Orchestra, Robert Masters Chamber Orchestra, Camerata Lysy, …

Track Listing

CD1

01 - Johann Sebastian Bach - Violin Concerto No. 1 in A minor, BWV 1041 - I. Allegro
02 - Johann Sebastian Bach - Violin Concerto No. 2 in E, BWV 1042 - II. Adagio
03 - Antonio Vivaldi - Four Seasons - Concerto in G minor, RV 315 'Summer' - III. Presto
04 - Giovanni Battista Viotti - Violin Concerto No. 22 in A minor, G97 - II. Adagio
05 - Ludwig van Beethoven - Violin Concerto in D, op.61 - III. Rondo. Allegro
06 - Felix Mendelssohn - Violin Concerto No. 2 in E minor, op.64 - I. Allegro molto appassionato
07 - Felix Mendelssohn - Violin Concerto No. 1 in D minor - III. Allegro
08 - Pyotr IlyichTchaikovsky - Violin Concerto in D, op.35 - II. Canzonetta. Andante
09 - Johannes Brahms - Violin Concerto in D, op.77 - III. Allegro giocoso, ma non troppo vivace
10 - Niccolo Paganini - Violin Concerto No. 2 in B minor, op.7 - III. Rondo 'La campanelle'

Yehudi - The Art of Menuhin (2016} {3CD Set Warner Classics 0825646782574}


CD2
01 - Ludwig van Beethoven - Violin Sonata No.5 In F, op.24 'Spring' - I. Allegro
02 - Ludwig van Beethoven - Violin Sonata No.5 In F, op.24 'Spring' - II. Adagio molto espressivo
03 - Ludwig van Beethoven - Violin Sonata No.5 In F, op.24 'Spring' - III. Scherzo. Allegro molto
04 - Ludwig van Beethoven - Violin Sonata No.5 In F, op.24 'Spring' - IV. Rondo. Allegro ma non troppo
05 - Ludwig van Beethoven - Violin Sonata No. 9 In A, op.47 'Kreutzer' - III. Finale. Presto
06 - Johannes Brahms - Violin Sonata No. 3 in D minor, op.108 - III. Un poco presto e con sentimento
07 - Franz Schubert - Piano Trio No. 1 in B flat, D898 - II. Andante un poco mosso
08 - Wolfgang Amadeus Mozart - Violin Sonata in A, K526 - II. Andante
09 - Johann Sebastian Bach - Sonata for solo violin No. 3 in C, BWV 1005 - IV. Allegro assai
10 - Johann Sebastian Bach - Sonata No. 3 in E, BWV 1016 - III. Adagio ma non tanto
11 - Cesar Franck - Violin Sonata in A - II. Allegro
12 - Gabriel Faure - Piano Quartet No. 1 in C minor, op.15 - II. Scherzo. Allegro vivo
13 - Gabriel Faure - Berceuse in D, op.16

Yehudi - The Art of Menuhin (2016} {3CD Set Warner Classics 0825646782574}


CD3
01 - Johannes Brahms - Hungarian Dance No. 5 in G minor
02 - Pietro Locatelli - Caprice No. 23 in D, 'Harmonious Labyrinth'
03 - Arcangelo Corelli - Violin Sonata No. 12 in D minor, 'La Folia'
04 - Franz Schubert - Ave Maria, D. 839
05 - Antonin Dvorak - Symphony No. 9 in E minor, op.95 'From the New World' - Goin' Home
06 - Antonin Dvorak - Slavonic Dance in E minor, op.72 no.2
07 - Leo Delibes - Ballade de l'epi
08 - Leo Delibes - Sylvia Pas De Deux
09 - Claude Debussy - Preludes, Book 1, La fille aux cheveux de lin
10 - Fritz Kreisler - Liebesleid
11 - Fritz Kreisler - Liebesfreud
12 - Fritz Kreisler - Schon Rosmarin
13 - Giocchino Rossini - Andante con variazioni in F for violin and harp
14 - Ravi Shankar - Prabhati
15 - Max Harris - Viva Vivaldi
16 - Max Harris - Air on a Shoestring

Yehudi - The Art of Menuhin (2016} {3CD Set Warner Classics 0825646782574}


Exact Audio Copy V1.3 from 2. September 2016

EAC extraction logfile from 31. August 2017, 2:42

Yehudi Menuhin / The Art of Menuhin (CD1)

Used drive : ASUS DRW-24B1ST i Adapter: 1 ID: 0

Read mode : Secure
Utilize accurate stream : Yes
Defeat audio cache : Yes
Make use of C2 pointers : No

Read offset correction : 6
Overread into Lead-In and Lead-Out : No
Fill up missing offset samples with silence : Yes
Delete leading and trailing silent blocks : No
Null samples used in CRC calculations : Yes
Used interface : Native Win32 interface for Win NT & 2000
Gap handling : Appended to previous track

Used output format : User Defined Encoder
Selected bitrate : 128 kBit/s
Quality : High
Add ID3 tag : No
Command line compressor : C:\Program Files (x86)\Exact Audio Copy\Flac\flac.exe
Additional command line options : -8 -V -T "ARTIST=%artist%" -T "TITLE=%title%" -T "ALBUM=%albumtitle%" -T "DATE=%year%" -T "TRACKNUMBER=%tracknr%" -T "TOTALTRACKS=%numtracks%" -T "GENRE=%genre%" -T "ALBUMARTIST=%albumartist%" -T "ALBUM ARTIST=%albumartist%" -T "COMMENT=EAC Secure Mode, Test & Copy, AccurateRip, FLAC -8" %source%


TOC of the extracted CD

Track | Start | Length | Start sector | End sector
––––––––––––––––––––––––––––-
1 | 0:00.00 | 4:15.20 | 0 | 19144
2 | 4:15.20 | 7:12.20 | 19145 | 51564
3 | 11:27.40 | 2:49.05 | 51565 | 64244
4 | 14:16.45 | 7:20.10 | 64245 | 97254
5 | 21:36.55 | 10:27.73 | 97255 | 144352
6 | 32:04.53 | 12:23.41 | 144353 | 200118
7 | 44:28.19 | 6:00.24 | 200119 | 227142
8 | 50:28.43 | 6:43.31 | 227143 | 257398
9 | 57:11.74 | 8:19.11 | 257399 | 294834
10 | 65:31.10 | 7:50.65 | 294835 | 330149


Track 1

Filename D:\_Post\art of menuhin\CD1\01 - Johann Sebastian Bach - Violin Concerto No. 1 in A minor, BWV 1041 - I. Allegro.wav

Pre-gap length 0:00:02.00

Peak level 72.6 %
Extraction speed 4.9 X
Track quality 99.9 %
Test CRC 40473185
Copy CRC 40473185
Cannot be verified as accurate (confidence 4) [4F0EDA58], AccurateRip returned [FD7134DB] (AR v2)
Copy OK

Track 2

Filename D:\_Post\art of menuhin\CD1\02 - Johann Sebastian Bach - Violin Concerto No. 2 in E, BWV 1042 - II. Adagio.wav

Pre-gap length 0:00:03.00

Peak level 40.2 %
Extraction speed 6.1 X
Track quality 99.9 %
Test CRC 88F7D915
Copy CRC 88F7D915
Cannot be verified as accurate (confidence 4) [1EA859B9], AccurateRip returned [1C041458] (AR v2)
Copy OK

Track 3

Filename D:\_Post\art of menuhin\CD1\03 - Antonio Vivaldi - Four Seasons - Concerto in G minor, RV 315 'Summer' - III. Presto.wav

Pre-gap length 0:00:04.00

Peak level 55.3 %
Extraction speed 6.6 X
Track quality 100.0 %
Test CRC 85274E15
Copy CRC 85274E15
Cannot be verified as accurate (confidence 4) [C16C30DD], AccurateRip returned [5FC2BF43] (AR v2)
Copy OK

Track 4

Filename D:\_Post\art of menuhin\CD1\04 - Giovanni Battista Viotti - Violin Concerto No. 22 in A minor, G97 - II. Adagio.wav

Pre-gap length 0:00:04.00

Peak level 51.9 %
Extraction speed 7.9 X
Track quality 100.0 %
Test CRC 4FD25CBB
Copy CRC 4FD25CBB
Cannot be verified as accurate (confidence 4) [3E8BF529], AccurateRip returned [C3085928] (AR v2)
Copy OK

Track 5

Filename D:\_Post\art of menuhin\CD1\05 - Ludwig van Beethoven - Violin Concerto in D, op.61 - III. Rondo. Allegro.wav

Pre-gap length 0:00:04.00

Peak level 86.2 %
Extraction speed 8.9 X
Track quality 100.0 %
Test CRC 21E61C3A
Copy CRC 21E61C3A
Cannot be verified as accurate (confidence 4) [7D4749E4], AccurateRip returned [4882FE1D] (AR v2)
Copy OK

Track 6

Filename D:\_Post\art of menuhin\CD1\06 - Felix Mendelssohn - Violin Concerto No. 2 in E minor, op.64 - I. Allegro molto appassionato.wav

Pre-gap length 0:00:04.00

Peak level 83.5 %
Extraction speed 10.0 X
Track quality 100.0 %
Test CRC 34A8A60B
Copy CRC 34A8A60B
Cannot be verified as accurate (confidence 4) [44C54D1D], AccurateRip returned [3CDAD6C7] (AR v2)
Copy OK

Track 7

Filename D:\_Post\art of menuhin\CD1\07 - Felix Mendelssohn - Violin Concerto No. 1 in D minor - III. Allegro.wav

Pre-gap length 0:00:03.00

Peak level 64.0 %
Extraction speed 10.2 X
Track quality 100.0 %
Test CRC 3CF017C1
Copy CRC 3CF017C1
Cannot be verified as accurate (confidence 4) [90B3E752], AccurateRip returned [B0370BD1] (AR v2)
Copy OK

Track 8

Filename D:\_Post\art of menuhin\CD1\08 - Pyotr IlyichTchaikovsky - Violin Concerto in D, op.35 - II. Canzonetta. Andante.wav

Pre-gap length 0:00:04.00

Peak level 29.7 %
Extraction speed 10.7 X
Track quality 100.0 %
Test CRC 2C7AE0A0
Copy CRC 2C7AE0A0
Cannot be verified as accurate (confidence 4) [C0915865], AccurateRip returned [11A3139F] (AR v2)
Copy OK

Track 9

Filename D:\_Post\art of menuhin\CD1\09 - Johannes Brahms - Violin Concerto in D, op.77 - III. Allegro giocoso, ma non troppo vivace.wav

Pre-gap length 0:00:04.00

Peak level 87.3 %
Extraction speed 11.4 X
Track quality 100.0 %
Test CRC 5EC867E0
Copy CRC 5EC867E0
Cannot be verified as accurate (confidence 4) [BA641A89], AccurateRip returned [4D97879B] (AR v2)
Copy OK

Track 10

Filename D:\_Post\art of menuhin\CD1\10 - Niccolo Paganini - Violin Concerto No. 2 in B minor, op.7 - III. Rondo 'La campanelle'.wav

Pre-gap length 0:00:04.00

Peak level 76.2 %
Extraction speed 11.9 X
Track quality 100.0 %
Test CRC CC39EBBF
Copy CRC CC39EBBF
Cannot be verified as accurate (confidence 4) [195D648A], AccurateRip returned [4D682005] (AR v2)
Copy OK


No tracks could be verified as accurate
You may have a different pressing from the one(s) in the database

No errors occurred

End of status report

–– CUETools DB Plugin V2.1.6

[CTDB TOCID: RnnDqkmAF5apdojMV67Ek1tuwKs-] found
Submit result: RnnDqkmAF5apdojMV67Ek1tuwKs- has been confirmed
Track | CTDB Status
1 | (22/22) Accurately ripped
2 | (22/22) Accurately ripped
3 | (22/22) Accurately ripped
4 | (22/22) Accurately ripped
5 | (22/22) Accurately ripped
6 | (22/22) Accurately ripped
7 | (22/22) Accurately ripped
8 | (22/22) Accurately ripped
9 | (22/22) Accurately ripped
10 | (22/22) Accurately ripped


==== Log checksum 48BC3A281FAC5D3F799B5CC93116054580005BFDB6128D3A06844AB2D0C11FB4 ====
Exact Audio Copy V1.3 from 2. September 2016

EAC extraction logfile from 31. August 2017, 16:19

Yehudi Menuhin / The Art of Menuhin (CD2)

Used drive : ASUS DRW-24B1ST i Adapter: 1 ID: 0

Read mode : Secure
Utilize accurate stream : Yes
Defeat audio cache : Yes
Make use of C2 pointers : No

Read offset correction : 6
Overread into Lead-In and Lead-Out : No
Fill up missing offset samples with silence : Yes
Delete leading and trailing silent blocks : No
Null samples used in CRC calculations : Yes
Used interface : Native Win32 interface for Win NT & 2000
Gap handling : Appended to previous track

Used output format : User Defined Encoder
Selected bitrate : 128 kBit/s
Quality : High
Add ID3 tag : No
Command line compressor : C:\Program Files (x86)\Exact Audio Copy\Flac\flac.exe
Additional command line options : -8 -V -T "ARTIST=%artist%" -T "TITLE=%title%" -T "ALBUM=%albumtitle%" -T "DATE=%year%" -T "TRACKNUMBER=%tracknr%" -T "TOTALTRACKS=%numtracks%" -T "GENRE=%genre%" -T "ALBUMARTIST=%albumartist%" -T "ALBUM ARTIST=%albumartist%" -T "COMMENT=EAC Secure Mode, Test & Copy, AccurateRip, FLAC -8" %source%


TOC of the extracted CD

Track | Start | Length | Start sector | End sector
––––––––––––––––––––––––––––-
1 | 0:00.00 | 9:59.51 | 0 | 44975
2 | 9:59.51 | 6:33.44 | 44976 | 74494
3 | 16:33.20 | 1:08.13 | 74495 | 79607
4 | 17:41.33 | 6:43.09 | 79608 | 109841
5 | 24:24.42 | 6:49.01 | 109842 | 140517
6 | 31:13.43 | 3:04.59 | 140518 | 154376
7 | 34:18.27 | 9:16.39 | 154377 | 196115
8 | 43:34.66 | 7:05.07 | 196116 | 227997
9 | 50:39.73 | 3:54.07 | 227998 | 245554
10 | 54:34.05 | 5:19.67 | 245555 | 269546
11 | 59:53.72 | 8:08.18 | 269547 | 306164
12 | 68:02.15 | 5:21.70 | 306165 | 330309
13 | 73:24.10 | 3:42.64 | 330310 | 347023


Track 1

Filename D:\_Post\art of menuhin\CD2\01 - Ludwig van Beethoven - Violin Sonata No.5 In F, op.24 'Spring' - I. Allegro.wav

Pre-gap length 0:00:02.00

Peak level 81.3 %
Extraction speed 2.4 X
Track quality 100.0 %
Test CRC 82974C35
Copy CRC 82974C35
Accurately ripped (confidence 2) [A7035290] (AR v2)
Copy OK

Track 2

Filename D:\_Post\art of menuhin\CD2\02 - Ludwig van Beethoven - Violin Sonata No.5 In F, op.24 'Spring' - II. Adagio molto espressivo.wav

Peak level 41.2 %
Extraction speed 2.8 X
Track quality 100.0 %
Test CRC 1C3A3A8A
Copy CRC 1C3A3A8A
Accurately ripped (confidence 2) [231C8392] (AR v2)
Copy OK

Track 3

Filename D:\_Post\art of menuhin\CD2\03 - Ludwig van Beethoven - Violin Sonata No.5 In F, op.24 'Spring' - III. Scherzo. Allegro molto.wav

Peak level 68.4 %
Extraction speed 2.1 X
Track quality 100.0 %
Test CRC D3B751BE
Copy CRC D3B751BE
Accurately ripped (confidence 2) [15264A6B] (AR v2)
Copy OK

Track 4

Filename D:\_Post\art of menuhin\CD2\04 - Ludwig van Beethoven - Violin Sonata No.5 In F, op.24 'Spring' - IV. Rondo. Allegro ma non troppo.wav

Peak level 85.2 %
Extraction speed 3.1 X
Track quality 100.0 %
Test CRC 8BBE5A4C
Copy CRC 8BBE5A4C
Accurately ripped (confidence 2) [62F116EC] (AR v2)
Copy OK

Track 5

Filename D:\_Post\art of menuhin\CD2\05 - Ludwig van Beethoven - Violin Sonata No. 9 In A, op.47 'Kreutzer' - III. Finale. Presto.wav

Pre-gap length 0:00:06.00

Peak level 71.6 %
Extraction speed 2.7 X
Track quality 99.9 %
Test CRC 4DE2C574
Copy CRC 4DE2C574
Accurately ripped (confidence 2) [7E164C47] (AR v2)
Copy OK

Track 6

Filename D:\_Post\art of menuhin\CD2\06 - Johannes Brahms - Violin Sonata No. 3 in D minor, op.108 - III. Un poco presto e con sentimento.wav

Pre-gap length 0:00:06.00

Peak level 42.6 %
Extraction speed 3.2 X
Track quality 100.0 %
Test CRC E5FAACDF
Copy CRC E5FAACDF
Accurately ripped (confidence 2) [F6DAA10B] (AR v2)
Copy OK

Track 7

Filename D:\_Post\art of menuhin\CD2\07 - Franz Schubert - Piano Trio No. 1 in B flat, D898 - II. Andante un poco mosso.wav

Pre-gap length 0:00:06.00

Peak level 70.4 %
Extraction speed 3.8 X
Track quality 100.0 %
Test CRC 5716A820
Copy CRC 5716A820
Accurately ripped (confidence 2) [DE6098F5] (AR v2)
Copy OK

Track 8

Filename D:\_Post\art of menuhin\CD2\08 - Wolfgang Amadeus Mozart - Violin Sonata in A, K526 - II. Andante.wav

Pre-gap length 0:00:06.00

Peak level 52.8 %
Extraction speed 4.0 X
Track quality 100.0 %
Test CRC BA12650B
Copy CRC BA12650B
Accurately ripped (confidence 2) [6025C6AE] (AR v2)
Copy OK

Track 9

Filename D:\_Post\art of menuhin\CD2\09 - Johann Sebastian Bach - Sonata for solo violin No. 3 in C, BWV 1005 - IV. Allegro assai.wav

Pre-gap length 0:00:07.00

Peak level 28.7 %
Extraction speed 3.8 X
Track quality 100.0 %
Test CRC 496554C4
Copy CRC 496554C4
Accurately ripped (confidence 2) [46113BB5] (AR v2)
Copy OK

Track 10

Filename D:\_Post\art of menuhin\CD2\10 - Johann Sebastian Bach - Sonata No. 3 in E, BWV 1016 - III. Adagio ma non tanto.wav

Pre-gap length 0:00:05.00

Peak level 36.4 %
Extraction speed 4.1 X
Track quality 100.0 %
Test CRC 2C0C7313
Copy CRC 2C0C7313
Accurately ripped (confidence 2) [83B1E2E7] (AR v2)
Copy OK

Track 11

Filename D:\_Post\art of menuhin\CD2\11 - Cesar Franck - Violin Sonata in A - II. Allegro.wav

Pre-gap length 0:00:07.00

Peak level 51.8 %
Extraction speed 4.5 X
Track quality 100.0 %
Test CRC 9C52B23B
Copy CRC 9C52B23B
Accurately ripped (confidence 2) [9B7C030D] (AR v2)
Copy OK

Track 12

Filename D:\_Post\art of menuhin\CD2\12 - Gabriel Faure - Piano Quartet No. 1 in C minor, op.15 - II. Scherzo. Allegro vivo.wav

Pre-gap length 0:00:05.00

Peak level 70.0 %
Extraction speed 4.5 X
Track quality 100.0 %
Test CRC D2061B13
Copy CRC D2061B13
Accurately ripped (confidence 2) [59390925] (AR v2)
Copy OK

Track 13

Filename D:\_Post\art of menuhin\CD2\13 - Gabriel Faure - Berceuse in D, op.16.wav

Pre-gap length 0:00:04.00

Peak level 34.4 %
Extraction speed 4.4 X
Track quality 100.0 %
Test CRC 5C1625DE
Copy CRC 5C1625DE
Accurately ripped (confidence 2) [986EEEEF] (AR v2)
Copy OK


All tracks accurately ripped

No errors occurred

End of status report

–– CUETools DB Plugin V2.1.6

[CTDB TOCID: jUz1lEULqQxswvZvcxD231MiGt8-] found
Submit result: jUz1lEULqQxswvZvcxD231MiGt8- has been confirmed
Track | CTDB Status
1 | (20/20) Accurately ripped
2 | (20/20) Accurately ripped
3 | (20/20) Accurately ripped
4 | (20/20) Accurately ripped
5 | (20/20) Accurately ripped
6 | (20/20) Accurately ripped
7 | (20/20) Accurately ripped
8 | (20/20) Accurately ripped
9 | (20/20) Accurately ripped
10 | (20/20) Accurately ripped
11 | (20/20) Accurately ripped
12 | (20/20) Accurately ripped
13 | (20/20) Accurately ripped


==== Log checksum C05398D0C4E10D93F03926F3E433A03B4AB5ED85135CD14D5119864593ED606B ====
Exact Audio Copy V1.3 from 2. September 2016

EAC extraction logfile from 31. August 2017, 17:07

Yehudi Menuhin / The Art of Menuhin (CD3)

Used drive : ASUS DRW-24B1ST i Adapter: 1 ID: 0

Read mode : Secure
Utilize accurate stream : Yes
Defeat audio cache : Yes
Make use of C2 pointers : No

Read offset correction : 6
Overread into Lead-In and Lead-Out : No
Fill up missing offset samples with silence : Yes
Delete leading and trailing silent blocks : No
Null samples used in CRC calculations : Yes
Used interface : Native Win32 interface for Win NT & 2000
Gap handling : Appended to previous track

Used output format : User Defined Encoder
Selected bitrate : 128 kBit/s
Quality : High
Add ID3 tag : No
Command line compressor : C:\Program Files (x86)\Exact Audio Copy\Flac\flac.exe
Additional command line options : -8 -V -T "ARTIST=%artist%" -T "TITLE=%title%" -T "ALBUM=%albumtitle%" -T "DATE=%year%" -T "TRACKNUMBER=%tracknr%" -T "TOTALTRACKS=%numtracks%" -T "GENRE=%genre%" -T "ALBUMARTIST=%albumartist%" -T "ALBUM ARTIST=%albumartist%" -T "COMMENT=EAC Secure Mode, Test & Copy, AccurateRip, FLAC -8" %source%


TOC of the extracted CD

Track | Start | Length | Start sector | End sector
––––––––––––––––––––––––––––-
1 | 0:00.00 | 2:06.54 | 0 | 9503
2 | 2:06.54 | 3:06.14 | 9504 | 23467
3 | 5:12.68 | 13:13.69 | 23468 | 83011
4 | 18:26.62 | 4:49.74 | 83012 | 104760
5 | 23:16.61 | 3:48.68 | 104761 | 121928
6 | 27:05.54 | 4:03.53 | 121929 | 140206
7 | 31:09.32 | 2:39.56 | 140207 | 152187
8 | 33:49.13 | 4:39.55 | 152188 | 173167
9 | 38:28.68 | 2:39.41 | 173168 | 185133
10 | 41:08.34 | 3:37.57 | 185134 | 201465
11 | 44:46.16 | 3:14.09 | 201466 | 216024
12 | 48:00.25 | 1:58.42 | 216025 | 224916
13 | 49:58.67 | 4:14.59 | 224917 | 244025
14 | 54:13.51 | 4:10.61 | 244026 | 262836
15 | 58:24.37 | 2:25.70 | 262837 | 273781
16 | 60:50.32 | 3:40.25 | 273782 | 290306


Track 1

Filename D:\_Post\art of menuhin\CD3\01 - Johannes Brahms - Hungarian Dance No. 5 in G minor.wav

Pre-gap length 0:00:02.00

Peak level 63.2 %
Extraction speed 5.0 X
Track quality 100.0 %
Test CRC 883C9F6C
Copy CRC 883C9F6C
Accurately ripped (confidence 2) [29F4E37C] (AR v2)
Copy OK

Track 2

Filename D:\_Post\art of menuhin\CD3\02 - Pietro Locatelli - Caprice No. 23 in D, 'Harmonious Labyrinth'.wav

Pre-gap length 0:00:03.00

Peak level 64.6 %
Extraction speed 5.8 X
Track quality 100.0 %
Test CRC 1927A3CE
Copy CRC 1927A3CE
Accurately ripped (confidence 2) [A31C7693] (AR v2)
Copy OK

Track 3

Filename D:\_Post\art of menuhin\CD3\03 - Arcangelo Corelli - Violin Sonata No. 12 in D minor, 'La Folia'.wav

Pre-gap length 0:00:03.00

Peak level 71.0 %
Extraction speed 7.6 X
Track quality 100.0 %
Test CRC BFA6D178
Copy CRC BFA6D178
Accurately ripped (confidence 2) [9766CA56] (AR v2)
Copy OK

Track 4

Filename D:\_Post\art of menuhin\CD3\04 - Franz Schubert - Ave Maria, D. 839.wav

Pre-gap length 0:00:03.00

Peak level 52.8 %
Extraction speed 8.1 X
Track quality 100.0 %
Test CRC B8143728
Copy CRC B8143728
Accurately ripped (confidence 2) [EF15B413] (AR v2)
Copy OK

Track 5

Filename D:\_Post\art of menuhin\CD3\05 - Antonin Dvorak - Symphony No. 9 in E minor, op.95 'From the New World' - Goin' Home.wav

Pre-gap length 0:00:03.00

Peak level 64.9 %
Extraction speed 8.3 X
Track quality 100.0 %
Test CRC CF29D089
Copy CRC CF29D089
Accurately ripped (confidence 2) [1DB3A082] (AR v2)
Copy OK

Track 6

Filename D:\_Post\art of menuhin\CD3\06 - Antonin Dvorak - Slavonic Dance in E minor, op.72 no.2.wav

Pre-gap length 0:00:03.00

Peak level 50.1 %
Extraction speed 7.3 X
Track quality 99.9 %
Test CRC 42717FBD
Copy CRC 42717FBD
Accurately ripped (confidence 2) [EF83FE0E] (AR v2)
Copy OK

Track 7

Filename D:\_Post\art of menuhin\CD3\07 - Leo Delibes - Ballade de l'epi.wav

Pre-gap length 0:00:04.00

Peak level 47.2 %
Extraction speed 8.4 X
Track quality 100.0 %
Test CRC B810A33E
Copy CRC B810A33E
Accurately ripped (confidence 2) [4322F657] (AR v2)
Copy OK

Track 8

Filename D:\_Post\art of menuhin\CD3\08 - Leo Delibes - Sylvia Pas De Deux.wav

Pre-gap length 0:00:03.56

Peak level 71.1 %
Extraction speed 9.4 X
Track quality 100.0 %
Test CRC C6943FC8
Copy CRC C6943FC8
Accurately ripped (confidence 2) [2E475917] (AR v2)
Copy OK

Track 9

Filename D:\_Post\art of menuhin\CD3\09 - Claude Debussy - Preludes, Book 1, La fille aux cheveux de lin.wav

Pre-gap length 0:00:04.00

Peak level 57.0 %
Extraction speed 9.1 X
Track quality 100.0 %
Test CRC DCA1E19C
Copy CRC DCA1E19C
Accurately ripped (confidence 2) [FEE24142] (AR v2)
Copy OK

Track 10

Filename D:\_Post\art of menuhin\CD3\10 - Fritz Kreisler - Liebesleid.wav

Pre-gap length 0:00:03.00

Peak level 43.8 %
Extraction speed 8.0 X
Track quality 99.9 %
Test CRC 428D5690
Copy CRC 428D5690
Accurately ripped (confidence 2) [8F2DDC15] (AR v2)
Copy OK

Track 11

Filename D:\_Post\art of menuhin\CD3\11 - Fritz Kreisler - Liebesfreud.wav

Pre-gap length 0:00:03.00

Peak level 60.1 %
Extraction speed 9.7 X
Track quality 100.0 %
Test CRC 75EDD0B8
Copy CRC 75EDD0B8
Accurately ripped (confidence 2) [644D8044] (AR v2)
Copy OK

Track 12

Filename D:\_Post\art of menuhin\CD3\12 - Fritz Kreisler - Schon Rosmarin.wav

Pre-gap length 0:00:03.00

Peak level 51.9 %
Extraction speed 9.0 X
Track quality 100.0 %
Test CRC F28A9610
Copy CRC F28A9610
Accurately ripped (confidence 2) [1DAF4558] (AR v2)
Copy OK

Track 13

Filename D:\_Post\art of menuhin\CD3\13 - Giocchino Rossini - Andante con variazioni in F for violin and harp.wav

Pre-gap length 0:00:05.00

Peak level 78.0 %
Extraction speed 10.5 X
Track quality 100.0 %
Test CRC FD79630B
Copy CRC FD79630B
Accurately ripped (confidence 2) [EFC6B3F7] (AR v2)
Copy OK

Track 14

Filename D:\_Post\art of menuhin\CD3\14 - Ravi Shankar - Prabhati.wav

Pre-gap length 0:00:05.00

Peak level 54.8 %
Extraction speed 10.8 X
Track quality 100.0 %
Test CRC E50B8113
Copy CRC E50B8113
Accurately ripped (confidence 2) [85B80B8E] (AR v2)
Copy OK

Track 15

Filename D:\_Post\art of menuhin\CD3\15 - Max Harris - Viva Vivaldi.wav

Pre-gap length 0:00:04.00

Peak level 75.1 %
Extraction speed 10.2 X
Track quality 100.0 %
Test CRC 4522C98E
Copy CRC 4522C98E
Accurately ripped (confidence 2) [0230B8B4] (AR v2)
Copy OK

Track 16

Filename D:\_Post\art of menuhin\CD3\16 - Max Harris - Air on a Shoestring.wav

Pre-gap length 0:00:02.25

Peak level 76.5 %
Extraction speed 10.9 X
Track quality 100.0 %
Test CRC 62A760E2
Copy CRC 62A760E2
Accurately ripped (confidence 2) [657A45A6] (AR v2)
Copy OK


All tracks accurately ripped

No errors occurred

End of status report

–– CUETools DB Plugin V2.1.6

[CTDB TOCID: V1OfdPlf0ogsizFl64xqcsnnGFc-] found
Submit result: V1OfdPlf0ogsizFl64xqcsnnGFc- has been confirmed
Track | CTDB Status
1 | (20/20) Accurately ripped
2 | (20/20) Accurately ripped
3 | (20/20) Accurately ripped
4 | (20/20) Accurately ripped
5 | (20/20) Accurately ripped
6 | (20/20) Accurately ripped
7 | (20/20) Accurately ripped
8 | (20/20) Accurately ripped
9 | (20/20) Accurately ripped
10 | (20/20) Accurately ripped
11 | (20/20) Accurately ripped
12 | (20/20) Accurately ripped
13 | (20/20) Accurately ripped
14 | (20/20) Accurately ripped
15 | (20/20) Accurately ripped
16 | (20/20) Accurately ripped


==== Log checksum 9212B9E01E7C33B6A58F93F1A9A72276C85135BD07BC17CED19F4471C3F52F4E ====



Yehudi - The Art of Menuhin (2016} {3CD Set Warner Classics 0825646782574}


see also:
Yehudi Menuhin - The Complete American Victor Recordings (2016) {6CD Box Set Sony Music 88875198542}



===